  0
SECTION
  2
HEADER
  9
$ACADVER
  1
AC1032
  9
$ACADMAINTVER
 90
      203
  9
$DWGCODEPAGE
  3
ANSI_932
  9
$LASTSAVEDBY
  1
hyuga-home
  9
$REQUIREDVERSIONS
160
                 0
  9
$INSBASE
 10
0.0
 20
0.0
 30
0.0
  9
$EXTMIN
 10
-125.9375000000001
 20
-100.7426267361111
 30
0.0
  9
$EXTMAX
 10
189.0
 20
130.0
 30
0.0
  9
$LIMMIN
 10
0.0
 20
0.0
  9
$LIMMAX
 10
0.0
 20
0.0
  9
$ORTHOMODE
 70
     0
  9
$REGENMODE
 70
     1
  9
$FILLMODE
 70
     1
  9
$QTEXTMODE
 70
     0
  9
$MIRRTEXT
 70
     1
  9
$LTSCALE
 40
5.08
  9
$ATTMODE
 70
     1
  9
$TEXTSIZE
 40
0.0
  9
$TRACEWID
 40
1.0
  9
$TEXTSTYLE
  7
Standard
  9
$CLAYER
  8
一般
  9
$CELTYPE
  6
Continuous
  9
$CECOLOR
 62
   256
  9
$CELTSCALE
 40
1.0
  9
$DISPSILH
 70
     0
  9
$DIMSCALE
 40
1.0
  9
$DIMASZ
 40
3.174999999999999
  9
$DIMEXO
 40
1.587499999999999
  9
$DIMDLI
 40
10.16
  9
$DIMRND
 40
0.0
  9
$DIMDLE
 40
1.587499999999999
  9
$DIMEXE
 40
3.174999999999999
  9
$DIMTP
 40
0.0
  9
$DIMTM
 40
0.0
  9
$DIMTXT
 40
4.886523437500059
  9
$DIMCEN
 40
0.0
  9
$DIMTSZ
 40
0.0
  9
$DIMTOL
 70
     0
  9
$DIMLIM
 70
     0
  9
$DIMTIH
 70
     0
  9
$DIMTOH
 70
     0
  9
$DIMSE1
 70
     0
  9
$DIMSE2
 70
     0
  9
$DIMTAD
 70
     1
  9
$DIMZIN
 70
    11
  9
$DIMBLK
  1
VW_SLASH
  9
$DIMASO
 70
     1
  9
$DIMSHO
 70
     1
  9
$DIMPOST
  1
<>
  9
$DIMAPOST
  1
[]
  9
$DIMALT
 70
     0
  9
$DIMALTD
 70
     3
  9
$DIMALTF
 40
0.0393700787401575
  9
$DIMLFAC
 40
1.0
  9
$DIMTOFL
 70
     1
  9
$DIMTVP
 40
0.0
  9
$DIMTIX
 70
     1
  9
$DIMSOXD
 70
     0
  9
$DIMSAH
 70
     0
  9
$DIMBLK1
  1

  9
$DIMBLK2
  1

  9
$DIMSTYLE
  2
Arch
  9
$DIMCLRD
 70
     0
  9
$DIMCLRE
 70
     0
  9
$DIMCLRT
 70
     0
  9
$DIMTFAC
 40
1.0
  9
$DIMGAP
 40
1.587499999999999
  9
$DIMJUST
 70
     0
  9
$DIMSD1
 70
     0
  9
$DIMSD2
 70
     0
  9
$DIMTOLJ
 70
     1
  9
$DIMTZIN
 70
    11
  9
$DIMALTZ
 70
    15
  9
$DIMALTTZ
 70
    15
  9
$DIMUPT
 70
     0
  9
$DIMDEC
 70
     1
  9
$DIMTDEC
 70
     1
  9
$DIMALTU
 70
     4
  9
$DIMALTTD
 70
     2
  9
$DIMTXSTY
  7
HGPｺﾞｼｯｸM
  9
$DIMAUNIT
 70
     0
  9
$DIMADEC
 70
     2
  9
$DIMALTRND
 40
0.0
  9
$DIMAZIN
 70
     0
  9
$DIMDSEP
 70
    46
  9
$DIMATFIT
 70
     0
  9
$DIMFRAC
 70
     2
  9
$DIMLDRBLK
  1

  9
$DIMLUNIT
 70
     2
  9
$DIMLWD
 70
    -2
  9
$DIMLWE
 70
    -2
  9
$DIMTMOVE
 70
     0
  9
$DIMFXL
 40
1.0
  9
$DIMFXLON
 70
     0
  9
$DIMJOGANG
 40
0.7853981633974483
  9
$DIMTFILL
 70
     0
  9
$DIMTFILLCLR
 70
     0
  9
$DIMARCSYM
 70
     0
  9
$DIMLTYPE
  6

  9
$DIMLTEX1
  6

  9
$DIMLTEX2
  6

  9
$DIMTXTDIRECTION
 70
     0
  9
$LUNITS
 70
     2
  9
$LUPREC
 70
     4
  9
$SKETCHINC
 40
0.1
  9
$FILLETRAD
 40
0.0
  9
$AUNITS
 70
     0
  9
$AUPREC
 70
     0
  9
$MENU
  1
acad
  9
$ELEVATION
 40
0.0
  9
$PELEVATION
 40
0.0
  9
$THICKNESS
 40
0.0
  9
$LIMCHECK
 70
     0
  9
$CHAMFERA
 40
0.0
  9
$CHAMFERB
 40
0.0
  9
$CHAMFERC
 40
0.0
  9
$CHAMFERD
 40
0.0
  9
$SKPOLY
 70
     0
  9
$TDCREATE
 40
2459661.614467592
  9
$TDUCREATE
 40
2459661.239467592
  9
$TDUPDATE
 40
2459661.618495371
  9
$TDUUPDATE
 40
2459661.243495371
  9
$TDINDWG
 40
0.0040277778
  9
$TDUSRTIMER
 40
0.0040277778
  9
$USRTIMER
 70
     1
  9
$ANGBASE
 50
0.0
  9
$ANGDIR
 70
     0
  9
$PDMODE
 70
     1
  9
$PDSIZE
 40
-2.0
  9
$PLINEWID
 40
0.0
  9
$SPLFRAME
 70
     0
  9
$SPLINETYPE
 70
     6
  9
$SPLINESEGS
 70
     8
  9
$HANDSEED
  5
2D0
  9
$SURFTAB1
 70
     6
  9
$SURFTAB2
 70
     6
  9
$SURFTYPE
 70
     6
  9
$SURFU
 70
     6
  9
$SURFV
 70
     6
  9
$UCSBASE
  2

  9
$UCSNAME
  2

  9
$UCSORG
 10
0.0
 20
0.0
 30
0.0
  9
$UCSXDIR
 10
1.0
 20
0.0
 30
0.0
  9
$UCSYDIR
 10
0.0
 20
1.0
 30
0.0
  9
$UCSORTHOREF
  2

  9
$UCSORTHOVIEW
 70
     0
  9
$UCSORGTOP
 10
0.0
 20
0.0
 30
0.0
  9
$UCSORGBOTTOM
 10
0.0
 20
0.0
 30
0.0
  9
$UCSORGLEFT
 10
0.0
 20
0.0
 30
0.0
  9
$UCSORGRIGHT
 10
0.0
 20
0.0
 30
0.0
  9
$UCSORGFRONT
 10
0.0
 20
0.0
 30
0.0
  9
$UCSORGBACK
 10
0.0
 20
0.0
 30
0.0
  9
$PUCSBASE
  2

  9
$PUCSNAME
  2

  9
$PUCSORG
 10
0.0
 20
0.0
 30
0.0
  9
$PUCSXDIR
 10
1.0
 20
0.0
 30
0.0
  9
$PUCSYDIR
 10
0.0
 20
1.0
 30
0.0
  9
$PUCSORTHOREF
  2

  9
$PUCSORTHOVIEW
 70
     0
  9
$PUCSORGTOP
 10
0.0
 20
0.0
 30
0.0
  9
$PUCSORGBOTTOM
 10
0.0
 20
0.0
 30
0.0
  9
$PUCSORGLEFT
 10
0.0
 20
0.0
 30
0.0
  9
$PUCSORGRIGHT
 10
0.0
 20
0.0
 30
0.0
  9
$PUCSORGFRONT
 10
0.0
 20
0.0
 30
0.0
  9
$PUCSORGBACK
 10
0.0
 20
0.0
 30
0.0
  9
$USERI1
 70
     0
  9
$USERI2
 70
     0
  9
$USERI3
 70
     0
  9
$USERI4
 70
     0
  9
$USERI5
 70
     0
  9
$USERR1
 40
0.0
  9
$USERR2
 40
0.0
  9
$USERR3
 40
0.0
  9
$USERR4
 40
0.0
  9
$USERR5
 40
0.0
  9
$WORLDVIEW
 70
     1
  9
$SHADEDGE
 70
     3
  9
$SHADEDIF
 70
    70
  9
$TILEMODE
 70
     1
  9
$MAXACTVP
 70
    64
  9
$PINSBASE
 10
0.0
 20
0.0
 30
0.0
  9
$PLIMCHECK
 70
     0
  9
$PEXTMIN
 10
1.000000000000000E+20
 20
1.000000000000000E+20
 30
1.000000000000000E+20
  9
$PEXTMAX
 10
-1.000000000000000E+20
 20
-1.000000000000000E+20
 30
-1.000000000000000E+20
  9
$PLIMMIN
 10
0.0
 20
0.0
  9
$PLIMMAX
 10
12.0
 20
9.0
  9
$UNITMODE
 70
     0
  9
$VISRETAIN
 70
     0
  9
$PLINEGEN
 70
     1
  9
$PSLTSCALE
 70
     0
  9
$TREEDEPTH
 70
  3020
  9
$CMLSTYLE
  2
Standard
  9
$CMLJUST
 70
     0
  9
$CMLSCALE
 40
1.0
  9
$PROXYGRAPHICS
 70
     0
  9
$MEASUREMENT
 70
     1
  9
$CELWEIGHT
370
     0
  9
$ENDCAPS
280
     0
  9
$JOINSTYLE
280
     0
  9
$LWDISPLAY
290
     1
  9
$INSUNITS
 70
     4
  9
$HYPERLINKBASE
  1

  9
$STYLESHEET
  1

  9
$XEDIT
290
     1
  9
$CEPSNTYPE
380
     0
  9
$PSTYLEMODE
290
     1
  9
$FINGERPRINTGUID
  2

  9
$VERSIONGUID
  2
{DBA3C382-C70E-3348-933C-FBCDA9E2AD24}
  9
$EXTNAMES
290
     1
  9
$PSVPSCALE
 40
0.0
  9
$OLESTARTUP
290
     0
  9
$SORTENTS
280
   127
  9
$INDEXCTL
280
     0
  9
$HIDETEXT
280
     0
  9
$XCLIPFRAME
280
     2
  9
$HALOGAP
280
     0
  9
$OBSCOLOR
 70
   257
  9
$OBSLTYPE
280
     0
  9
$INTERSECTIONDISPLAY
280
     0
  9
$INTERSECTIONCOLOR
 70
   257
  9
$DIMASSOC
280
     1
  9
$PROJECTNAME
  1

  9
$CAMERADISPLAY
290
     0
  9
$LENSLENGTH
 40
50.0
  9
$CAMERAHEIGHT
 40
0.0
  9
$STEPSPERSEC
 40
2.0
  9
$STEPSIZE
 40
6.0
  9
$3DDWFPREC
 40
2.0
  9
$PSOLWIDTH
 40
0.25
  9
$PSOLHEIGHT
 40
4.0
  9
$LOFTANG1
 40
1.570796326794896
  9
$LOFTANG2
 40
1.570796326794896
  9
$LOFTMAG1
 40
0.0
  9
$LOFTMAG2
 40
0.0
  9
$LOFTPARAM
 70
     7
  9
$LOFTNORMALS
280
     1
  9
$LATITUDE
 40
37.795
  9
$LONGITUDE
 40
-122.394
  9
$NORTHDIRECTION
 40
0.0
  9
$TIMEZONE
 70
 -8000
  9
$LIGHTGLYPHDISPLAY
280
     1
  9
$TILEMODELIGHTSYNCH
280
     1
  9
$CMATERIAL
347
210
  9
$SOLIDHIST
280
     0
  9
$SHOWHIST
280
     1
  9
$DWFFRAME
280
     2
  9
$DGNFRAME
280
     0
  9
$REALWORLDSCALE
290
     1
  9
$INTERFERECOLOR
 62
     1
  9
$INTERFEREOBJVS
345
232
  9
$INTERFEREVPVS
346
22F
  9
$CSHADOW
280
     0
  9
$SHADOWPLANELOCATION
 40
0.0
  0
ENDSEC
  0
SECTION
  2
CLASSES
  0
CLASS
  1
IMAGE
  2
AcDbRasterImage
  3
ISM
 90
     2175
 91
        0
280
     0
281
     1
  0
CLASS
  1
DICTIONARYVAR
  2
AcDbDictionaryVar
  3
ObjectDBX Classes
 90
        0
 91
       19
280
     0
281
     0
  0
CLASS
  1
RASTERVARIABLES
  2
AcDbRasterVariables
  3
ISM
 90
        0
 91
        0
280
     0
281
     0
  0
CLASS
  1
IMAGEDEF
  2
AcDbRasterImageDef
  3
ISM
 90
        0
 91
        0
280
     0
281
     0
  0
CLASS
  1
IMAGEDEF_REACTOR
  2
AcDbRasterImageDefReactor
  3
ISM
 90
        1
 91
        0
280
     0
281
     0
  0
CLASS
  1
IDBUFFER
  2
AcDbIdBuffer
  3
ObjectDBX Classes
 90
        0
 91
        0
280
     0
281
     0
  0
CLASS
  1
SPATIAL_FILTER
  2
AcDbSpatialFilter
  3
ObjectDBX Classes
 90
        0
 91
        0
280
     0
281
     0
  0
CLASS
  1
SORTENTSTABLE
  2
AcDbSortentsTable
  3
ObjectDBX Classes
 90
        0
 91
        0
280
     0
281
     0
  0
CLASS
  1
LAYER_INDEX
  2
AcDbLayerIndex
  3
ObjectDBX Classes
 90
        0
 91
        0
280
     0
281
     0
  0
CLASS
  1
SPATIAL_INDEX
  2
AcDbSpatialIndex
  3
ObjectDBX Classes
 90
        0
 91
        0
280
     0
281
     0
  0
CLASS
  1
OBJECT_PTR
  2
CAseDLPNTableRecord
  3
ASE-LPNTableRecord
 90
        1
 91
        0
280
     0
281
     0
  0
CLASS
  1
PLOTSETTINGS
  2
AcDbPlotSettings
  3
ObjectDBX Classes
 90
        0
 91
        0
280
     0
281
     0
  0
CLASS
  1
ACDBDICTIONARYWDFLT
  2
AcDbDictionaryWithDefault
  3
ObjectDBX Classes
 90
        0
 91
        1
280
     0
281
     0
  0
CLASS
  1
WIPEOUT
  2
AcDbWipeout
  3
WipeOut|Product Desc: Object Enabler for WipeOut entity | Company: Autodesk, Inc. | WEB Address: www.autodesk.com
 90
     2175
 91
       25
280
     0
281
     1
  0
CLASS
  1
WIPEOUTVARIABLES
  2
AcDbWipeoutVariables
  3
"WipeOut|Product Desc:     WipeOut Dbx Application|Company:          Autodesk, Inc.|WEB Address:      www.autodesk.com"
 90
        0
 91
        1
280
     0
281
     0
  0
CLASS
  1
RTEXT
  2
RText
  3
RText|AutoCAD Express Tool|expresstools@autodesk.com
 90
     3071
 91
        0
280
     0
281
     1
  0
CLASS
  1
ARCALIGNEDTEXT
  2
AcDbArcAlignedText
  3
ATEXT|AutoCAD Express Tool|expresstools@autodesk.com
 90
        0
 91
        0
280
     0
281
     1
  0
CLASS
  1
MATERIAL
  2
AcDbMaterial
  3
ObjectDBX Classes
 90
     1153
 91
        3
280
     0
281
     0
  0
CLASS
  1
VISUALSTYLE
  2
AcDbVisualStyle
  3
ObjectDBX Classes
 90
     4095
 91
       24
280
     0
281
     0
  0
CLASS
  1
TABLESTYLE
  2
AcDbTableStyle
  3
ObjectDBX Classes
 90
     4095
 91
        1
280
     0
281
     0
  0
CLASS
  1
SCALE
  2
AcDbScale
  3
ObjectDBX Classes
 90
     1153
 91
       17
280
     0
281
     0
  0
CLASS
  1
MLEADERSTYLE
  2
AcDbMLeaderStyle
  3
ACDB_MLEADERSTYLE_CLASS
 90
     4095
 91
        1
280
     0
281
     0
  0
CLASS
  1
ACDBSECTIONVIEWSTYLE
  2
AcDbSectionViewStyle
  3
ObjectDBX Classes
 90
     1025
 91
        1
280
     0
281
     0
  0
CLASS
  1
ACDBDETAILVIEWSTYLE
  2
AcDbDetailViewStyle
  3
ObjectDBX Classes
 90
     1025
 91
        1
280
     0
281
     0
  0
CLASS
  1
CELLSTYLEMAP
  2
AcDbCellStyleMap
  3
ObjectDBX Classes
 90
     1152
 91
        1
280
     0
281
     0
  0
ENDSEC
  0
SECTION
  2
TABLES
  0
TABLE
  2
VPORT
  5
7
330
0
100
AcDbSymbolTable
 70
     1
  0
VPORT
  5
15
330
7
100
AcDbSymbolTableRecord
100
AcDbViewportTableRecord
  2
*ACTIVE
 70
     0
 10
0.0
 20
0.0
 11
1.0
 21
1.0
 12
52.90719300511199
 22
-9.837156175494556
 13
0.0
 23
0.0
 14
1.0
 24
1.0
 15
0.0
 25
0.0
 16
0.0
 26
0.0
 36
1.0
 17
0.0
 27
0.0
 37
0.0
 40
348.9977279918767
 41
2.208045977011494
 42
50.0
 43
0.0
 44
0.0
 50
0.0
 51
0.0
 71
     0
 72
  2000
 73
     1
 74
     1
 75
     0
 76
     0
 77
     0
 78
     0
281
     0
 65
     0
110
0.0
120
0.0
130
0.0
111
1.0
121
0.0
131
0.0
112
0.0
122
1.0
132
0.0
 79
     0
146
0.0
348
22E
 60
     3
 61
     5
292
     1
282
     1
141
0.0
142
0.0
 63
   250
421
  3355443
1001
ACAD_NAV_VCDISPLAY
1070
     3
  0
ENDTAB
  0
TABLE
  2
LTYPE
  5
4
330
0
100
AcDbSymbolTable
 70
    17
  0
LTYPE
  5
11
330
4
100
AcDbSymbolTableRecord
100
AcDbLinetypeTableRecord
  2
ByBlock
 70
     0
  3

 72
    65
 73
     0
 40
0.0
  0
LTYPE
  5
12
330
4
100
AcDbSymbolTableRecord
100
AcDbLinetypeTableRecord
  2
ByLayer
 70
     0
  3

 72
    65
 73
     0
 40
0.0
  0
LTYPE
  5
13
330
4
100
AcDbSymbolTableRecord
100
AcDbLinetypeTableRecord
  2
Continuous
 70
     0
  3
Solid line
 72
    65
 73
     0
 40
0.0
  0
LTYPE
  5
2F
330
4
100
AcDbSymbolTableRecord
100
AcDbLinetypeTableRecord
  2
STYLE_01
 70
     0
  3

 72
    65
 73
     2
 40
0.41664
 49
0.20828
 74
     0
 49
-0.20836
 74
     0
  0
LTYPE
  5
30
330
4
100
AcDbSymbolTableRecord
100
AcDbLinetypeTableRecord
  2
STYLE_02
 70
     0
  3

 72
    65
 73
     2
 40
0.6944250000000001
 49
0.48607
 74
     0
 49
-0.2083550000000001
 74
     0
  0
LTYPE
  5
31
330
4
100
AcDbSymbolTableRecord
100
AcDbLinetypeTableRecord
  2
STYLE_03
 70
     0
  3

 72
    65
 73
     2
 40
1.25
 49
1.041639999999999
 74
     0
 49
-0.2083599999999999
 74
     0
  0
LTYPE
  5
32
330
4
100
AcDbSymbolTableRecord
100
AcDbLinetypeTableRecord
  2
STYLE_04
 70
     0
  3

 72
    65
 73
     2
 40
1.527709999999999
 49
1.319424999999999
 74
     0
 49
-0.208285
 74
     0
  0
LTYPE
  5
33
330
4
100
AcDbSymbolTableRecord
100
AcDbLinetypeTableRecord
  2
STYLE_05
 70
     0
  3

 72
    65
 73
     2
 40
0.20828
 49
0.069425
 74
     0
 49
-0.138855
 74
     0
  0
LTYPE
  5
34
330
4
100
AcDbSymbolTableRecord
100
AcDbLinetypeTableRecord
  2
STYLE_06
 70
     0
  3

 72
    65
 73
     4
 40
1.041639999999999
 49
0.625
 74
     0
 49
-0.20828
 74
     0
 49
0.06943
 74
     0
 49
-0.13893
 74
     0
  0
LTYPE
  5
35
330
4
100
AcDbSymbolTableRecord
100
AcDbLinetypeTableRecord
  2
STYLE_07
 70
     0
  3

 72
    65
 73
     6
 40
1.875
 49
0.625
 74
     0
 49
-0.20828
 74
     0
 49
0.6250000000000001
 74
     0
 49
-0.2083599999999999
 74
     0
 49
0.06943
 74
     0
 49
-0.1389299999999999
 74
     0
  0
LTYPE
  5
36
330
4
100
AcDbSymbolTableRecord
100
AcDbLinetypeTableRecord
  2
STYLE_08
 70
     0
  3

 72
    65
 73
     6
 40
1.25
 49
0.625
 74
     0
 49
-0.20828
 74
     0
 49
0.06943
 74
     0
 49
-0.13893
 74
     0
 49
0.0694299999999999
 74
     0
 49
-0.13893
 74
     0
  0
LTYPE
  5
37
330
4
100
AcDbSymbolTableRecord
100
AcDbLinetypeTableRecord
  2
STYLE_09
 70
     0
  3

 72
    65
 73
     4
 40
5.0
 49
3.75
 74
     0
 49
-0.2777849999999998
 74
     0
 49
0.6944300000000004
 74
     0
 49
-0.2777849999999998
 74
     0
  0
LTYPE
  5
38
330
4
100
AcDbSymbolTableRecord
100
AcDbLinetypeTableRecord
  2
STYLE_10
 70
     0
  3

 72
    65
 73
     6
 40
5.9375
 49
3.75
 74
     0
 49
-0.2777849999999998
 74
     0
 49
0.6944300000000004
 74
     0
 49
-0.2777849999999998
 74
     0
 49
0.625
 74
     0
 49
-0.3125
 74
     0
  0
LTYPE
  5
39
330
4
100
AcDbSymbolTableRecord
100
AcDbLinetypeTableRecord
  2
STYLE_11
 70
     0
  3

 72
    65
 73
     2
 40
0.2501678466796875
 49
0.166778564453125
 74
     0
 49
-0.0833892822265625
 74
     0
  0
LTYPE
  5
3A
330
4
100
AcDbSymbolTableRecord
100
AcDbLinetypeTableRecord
  2
STYLE_12
 70
     0
  3

 72
    65
 73
     6
 40
2.5
 49
1.25
 74
     0
 49
-0.2499999999999999
 74
     0
 49
0.2499999999999999
 74
     0
 49
-0.2499999999999999
 74
     0
 49
0.2499999999999999
 74
     0
 49
-0.2499999999999999
 74
     0
  0
LTYPE
  5
3B
330
4
100
AcDbSymbolTableRecord
100
AcDbLinetypeTableRecord
  2
STYLE_13
 70
     0
  3

 72
    65
 73
     2
 40
0.625
 49
0.3125
 74
     0
 49
-0.3125
 74
     0
  0
LTYPE
  5
3C
330
4
100
AcDbSymbolTableRecord
100
AcDbLinetypeTableRecord
  2
STYLE_14
 70
     0
  3

 72
    65
 73
     2
 40
0.3125
 49
0.15625
 74
     0
 49
-0.15625
 74
     0
  0
LTYPE
  5
3D
330
4
100
AcDbSymbolTableRecord
100
AcDbLinetypeTableRecord
  2
STYLE_15
 70
     0
  3

 72
    65
 73
     4
 40
0.6671142578125
 49
0.33355712890625
 74
     0
 49
-0.166778564453125
 74
     0
 49
0.0005340576171875
 74
     0
 49
-0.1662445068359375
 74
     0
  0
ENDTAB
  0
TABLE
  2
LAYER
  5
2
330
0
100
AcDbSymbolTable
 70
    12
  0
LAYER
  5
14
102
{ACAD_XDICTIONARY
360
2A0
102
}
330
2
100
AcDbSymbolTableRecord
100
AcDbLayerTableRecord
  2
0
 70
     0
 62
     7
  6
Continuous
370
    15
390
1D
347
220
348
0
  0
LAYER
  5
3E
102
{ACAD_XDICTIONARY
360
2A2
102
}
330
2
100
AcDbSymbolTableRecord
100
AcDbLayerTableRecord
  2
一般
 70
     0
 62
     7
  6
Continuous
370
     5
390
1D
347
220
348
0
  0
LAYER
  5
3F
102
{ACAD_XDICTIONARY
360
2A4
102
}
330
2
100
AcDbSymbolTableRecord
100
AcDbLayerTableRecord
  2
寸法
 70
     0
 62
     7
  6
Continuous
370
     5
390
1D
347
220
348
0
  0
LAYER
  5
40
102
{ACAD_XDICTIONARY
360
2A6
102
}
330
2
100
AcDbSymbolTableRecord
100
AcDbLayerTableRecord
  2
70-0
 70
     0
 62
     7
  6
Continuous
370
     5
390
1D
347
220
348
0
  0
LAYER
  5
41
102
{ACAD_XDICTIONARY
360
2A8
102
}
330
2
100
AcDbSymbolTableRecord
100
AcDbLayerTableRecord
  2
壁
 70
     0
 62
     7
  6
Continuous
370
     5
390
1D
347
220
348
0
  0
LAYER
  5
42
102
{ACAD_XDICTIONARY
360
2AA
102
}
330
2
100
AcDbSymbolTableRecord
100
AcDbLayerTableRecord
  2
_0-0_
 70
     0
 62
     7
  6
Continuous
370
    15
390
1D
347
220
348
0
  0
LAYER
  5
43
102
{ACAD_XDICTIONARY
360
2AC
102
}
330
2
100
AcDbSymbolTableRecord
100
AcDbLayerTableRecord
  2
一般-0
 70
     0
 62
     7
  6
Continuous
370
     5
390
1D
347
220
348
0
  0
LAYER
  5
44
102
{ACAD_XDICTIONARY
360
2AE
102
}
330
2
100
AcDbSymbolTableRecord
100
AcDbLayerTableRecord
  2
什器
 70
     0
 62
     7
  6
Continuous
370
     9
390
1D
347
220
348
0
  0
LAYER
  5
45
102
{ACAD_XDICTIONARY
360
2B0
102
}
330
2
100
AcDbSymbolTableRecord
100
AcDbLayerTableRecord
  2
INAX_SHAPE2
 70
     0
 62
     7
  6
Continuous
370
    15
390
1D
347
220
348
0
  0
LAYER
  5
46
102
{ACAD_XDICTIONARY
360
2B2
102
}
330
2
100
AcDbSymbolTableRecord
100
AcDbLayerTableRecord
  2
INAX_SHAPE1
 70
     0
 62
     7
  6
Continuous
370
    15
390
1D
347
220
348
0
  0
LAYER
  5
47
102
{ACAD_XDICTIONARY
360
2B4
102
}
330
2
100
AcDbSymbolTableRecord
100
AcDbLayerTableRecord
  2
INAX_POINT
 70
     0
 62
     7
  6
Continuous
370
    15
390
1D
347
220
348
0
  0
LAYER
  5
48
330
2
100
AcDbSymbolTableRecord
100
AcDbLayerTableRecord
  2
Defpoints
 70
     0
 62
     7
  6
Continuous
290
     0
370
    -3
390
1D
347
220
348
0
  0
ENDTAB
  0
TABLE
  2
STYLE
  5
3
330
0
100
AcDbSymbolTable
 70
     2
  0
STYLE
  5
17
330
3
100
AcDbSymbolTableRecord
100
AcDbTextStyleTableRecord
  2
Standard
 70
     0
 40
0.0
 41
1.0
 50
0.0
 71
     0
 42
0.0
  3
txt
  4
BIGFONT.SHX
  0
STYLE
  5
2E
330
3
100
AcDbSymbolTableRecord
100
AcDbTextStyleTableRecord
  2
HGPｺﾞｼｯｸM
 70
     0
 40
0.0
 41
1.0
 50
0.0
 71
     0
 42
0.0
  3

  4
HGPｺﾞｼｯｸM
1001
ACAD
1000
HGPｺﾞｼｯｸM
1071
        0
  0
ENDTAB
  0
TABLE
  2
VIEW
  5
5
330
0
100
AcDbSymbolTable
 70
     0
  0
ENDTAB
  0
TABLE
  2
UCS
  5
6
330
0
100
AcDbSymbolTable
 70
     0
  0
ENDTAB
  0
TABLE
  2
APPID
  5
8
330
0
100
AcDbSymbolTable
 70
     6
  0
APPID
  5
16
330
8
100
AcDbSymbolTableRecord
100
AcDbRegAppTableRecord
  2
ACAD
 70
     0
  0
APPID
  5
263
330
8
100
AcDbSymbolTableRecord
100
AcDbRegAppTableRecord
  2
Acad_TC
 70
     0
  0
APPID
  5
27E
330
8
100
AcDbSymbolTableRecord
100
AcDbRegAppTableRecord
  2
AcadAnnoMonitorAlertIconDisabled
 70
     0
  0
APPID
  5
27F
330
8
100
AcDbSymbolTableRecord
100
AcDbRegAppTableRecord
  2
ACAD_EXEMPT_FROM_CAD_STANDARDS
 70
     0
  0
APPID
  5
2B8
330
8
100
AcDbSymbolTableRecord
100
AcDbRegAppTableRecord
  2
DCO15
 70
     0
  0
APPID
  5
2BA
330
8
100
AcDbSymbolTableRecord
100
AcDbRegAppTableRecord
  2
ACAD_NAV_VCDISPLAY
 70
     0
  0
ENDTAB
  0
TABLE
  2
DIMSTYLE
  5
9
330
0
100
AcDbSymbolTable
 70
     2
100
AcDbDimStyleTable
 71
     1
340
5A
  0
DIMSTYLE
105
18
330
9
100
AcDbSymbolTableRecord
100
AcDbDimStyleTableRecord
  2
Standard
 70
     0
340
17
  0
DIMSTYLE
105
5A
102
{ACAD_REACTORS
330
264
330
271
330
293
102
}
330
9
100
AcDbSymbolTableRecord
100
AcDbDimStyleTableRecord
  2
Arch
 70
     0
  3
<>
  4
[]
 41
3.174999999999999
 42
1.587499999999999
 43
10.16
 44
3.174999999999999
 46
1.587499999999999
 73
     0
 74
     0
 77
     1
 78
    11
140
4.886523437500059
141
0.0
143
0.0393700787401575
147
1.587499999999999
171
     3
172
     1
174
     1
179
     2
271
     1
272
     1
273
     4
276
     2
284
    11
285
    15
286
    15
289
     0
340
2E
341
51
342
49
  0
ENDTAB
  0
TABLE
  2
BLOCK_RECORD
  5
1
330
0
100
AcDbSymbolTable
 70
    15
  0
BLOCK_RECORD
  5
A
330
1
100
AcDbSymbolTableRecord
100
AcDbBlockTableRecord
  2
*MODEL_SPACE
340
20
 70
     0
280
     1
281
     0
  0
BLOCK_RECORD
  5
B
330
1
100
AcDbSymbolTableRecord
100
AcDbBlockTableRecord
  2
*PAPER_SPACE
340
21
 70
     0
280
     1
281
     0
  0
BLOCK_RECORD
  5
49
330
1
100
AcDbSymbolTableRecord
100
AcDbBlockTableRecord
  2
VW_SLASH
340
0
102
{BLKREFS
331
284
331
285
331
28D
331
28E
331
29A
331
29B
102
}
 70
     0
280
     1
281
     0
  0
BLOCK_RECORD
  5
51
330
1
100
AcDbSymbolTableRecord
100
AcDbBlockTableRecord
  2
VW_FILLEDARROW
340
0
 70
     0
280
     1
281
     0
  0
BLOCK_RECORD
  5
24
330
1
100
AcDbSymbolTableRecord
100
AcDbBlockTableRecord
  2
*D2
340
0
 70
     0
280
     1
281
     0
  0
BLOCK_RECORD
  5
25
330
1
100
AcDbSymbolTableRecord
100
AcDbBlockTableRecord
  2
*D3
340
0
 70
     0
280
     1
281
     0
  0
BLOCK_RECORD
  5
26
330
1
100
AcDbSymbolTableRecord
100
AcDbBlockTableRecord
  2
グループ
340
0
 70
     0
280
     1
281
     0
  0
BLOCK_RECORD
  5
27
330
1
100
AcDbSymbolTableRecord
100
AcDbBlockTableRecord
  2
*D5
340
0
 70
     0
280
     1
281
     0
  0
BLOCK_RECORD
  5
28
330
1
100
AcDbSymbolTableRecord
100
AcDbBlockTableRecord
  2
グループ-1
340
0
 70
     0
280
     1
281
     0
  0
BLOCK_RECORD
  5
29
330
1
100
AcDbSymbolTableRecord
100
AcDbBlockTableRecord
  2
グループ-2
340
0
102
{BLKREFS
331
112
102
}
 70
     0
280
     1
281
     0
  0
BLOCK_RECORD
  5
2A
330
1
100
AcDbSymbolTableRecord
100
AcDbBlockTableRecord
  2
グループ-3
340
0
102
{BLKREFS
331
113
102
}
 70
     0
280
     1
281
     0
  0
BLOCK_RECORD
  5
2B
330
1
100
AcDbSymbolTableRecord
100
AcDbBlockTableRecord
  2
グループ-4
340
0
102
{BLKREFS
331
114
102
}
 70
     0
280
     1
281
     0
  0
BLOCK_RECORD
  5
2C
330
1
100
AcDbSymbolTableRecord
100
AcDbBlockTableRecord
  2
グループ-5
340
0
102
{BLKREFS
331
1F9
102
}
 70
     0
280
     1
281
     0
  0
BLOCK_RECORD
  5
2D
330
1
100
AcDbSymbolTableRecord
100
AcDbBlockTableRecord
  2
グループ-6
340
0
102
{BLKREFS
331
20A
102
}
 70
     0
280
     1
281
     0
  0
BLOCK_RECORD
  5
265
330
1
100
AcDbSymbolTableRecord
100
AcDbBlockTableRecord
  2
*D12
340
0
 70
     0
280
     1
281
     0
  0
BLOCK_RECORD
  5
272
330
1
100
AcDbSymbolTableRecord
100
AcDbBlockTableRecord
  2
*D13
340
0
 70
     0
280
     1
281
     0
  0
BLOCK_RECORD
  5
294
330
1
100
AcDbSymbolTableRecord
100
AcDbBlockTableRecord
  2
*D14
340
0
 70
     0
280
     1
281
     0
  0
ENDTAB
  0
ENDSEC
  0
SECTION
  2
BLOCKS
  0
BLOCK
  5
D
330
A
100
AcDbEntity
  8
0
100
AcDbBlockBegin
  2
*MODEL_SPACE
 70
     0
 10
0.0
 20
0.0
 30
0.0
  3
*MODEL_SPACE
  1

  0
ENDBLK
  5
E
330
A
100
AcDbEntity
  8
0
100
AcDbBlockEnd
  0
BLOCK
  5
F
330
B
100
AcDbEntity
 67
     1
  8
0
100
AcDbBlockBegin
  2
*PAPER_SPACE
 70
     0
 10
0.0
 20
0.0
 30
0.0
  3
*PAPER_SPACE
  1

  0
ENDBLK
  5
10
330
B
100
AcDbEntity
 67
     1
  8
0
100
AcDbBlockEnd
  0
BLOCK
  5
4A
330
49
100
AcDbEntity
  8
0
  6
ByBlock
 62
     0
370
    -2
100
AcDbBlockBegin
  2
VW_SLASH
 70
     0
 10
0.0
 20
0.0
 30
0.0
  3
VW_SLASH
  1

  0
LINE
  5
4B
330
49
100
AcDbEntity
  8
0
  6
ByBlock
 62
     0
370
    -2
100
AcDbLine
 10
0.0
 20
0.0
 30
0.0
 11
-1.0
 21
0.0
 31
0.0
  0
POLYLINE
  5
4C
330
49
100
AcDbEntity
  8
一般
  6
Continuous
 62
     0
370
    20
100
AcDb2dPolyline
 66
     1
 10
0.0
 20
0.0
 30
0.0
 75
     5
  0
VERTEX
  5
4D
330
4C
100
AcDbEntity
  8
一般
  6
Continuous
 62
     0
370
    20
100
AcDbVertex
100
AcDb2dVertex
 10
0.3535318114068362
 20
0.3535318114068361
 30
0.0
  0
VERTEX
  5
4E
330
4C
100
AcDbEntity
  8
一般
  6
Continuous
 62
     0
370
    20
100
AcDbVertex
100
AcDb2dVertex
 10
-0.3535318114068361
 20
-0.3535318114068362
 30
0.0
  0
SEQEND
  5
4F
330
4C
100
AcDbEntity
  8
一般
  6
Continuous
 62
     0
370
    20
  0
ENDBLK
  5
50
330
49
100
AcDbEntity
  8
0
100
AcDbBlockEnd
  0
BLOCK
  5
52
330
51
100
AcDbEntity
  8
0
  6
ByBlock
 62
     0
370
    -2
100
AcDbBlockBegin
  2
VW_FILLEDARROW
 70
     0
 10
0.0
 20
0.0
 30
0.0
  3
VW_FILLEDARROW
  1

  0
POLYLINE
  5
53
102
{ACAD_REACTORS
330
58
102
}
330
51
100
AcDbEntity
  8
一般
  6
Continuous
 62
     0
370
     5
100
AcDb2dPolyline
 66
     1
 10
0.0
 20
0.0
 30
0.0
 70
     1
 75
     5
  0
VERTEX
  5
54
330
53
100
AcDbEntity
  8
一般
  6
Continuous
 62
     0
370
     5
100
AcDbVertex
100
AcDb2dVertex
 10
-0.99993896484375
 20
0.2679328381102956
 30
0.0
  0
VERTEX
  5
55
330
53
100
AcDbEntity
  8
一般
  6
Continuous
 62
     0
370
     5
100
AcDbVertex
100
AcDb2dVertex
 10
0.0
 20
0.0
 30
0.0
  0
VERTEX
  5
56
330
53
100
AcDbEntity
  8
一般
  6
Continuous
 62
     0
370
     5
100
AcDbVertex
100
AcDb2dVertex
 10
-0.9999389648437498
 20
-0.2679328381102958
 30
0.0
  0
SEQEND
  5
57
330
53
100
AcDbEntity
  8
一般
  6
Continuous
 62
     0
370
     5
  0
HATCH
  5
58
330
51
100
AcDbEntity
  8
0
  6
ByBlock
 62
     0
370
     0
100
AcDbHatch
 10
0.0
 20
0.0
 30
0.0
210
0.0
220
0.0
230
1.0
  2
SOLID
 70
     1
 71
     1
 91
        1
 92
        1
 93
        3
 72
     1
 10
-0.99993896484375
 20
0.2679328381102956
 11
0.0
 21
0.0
 72
     1
 10
0.0
 20
0.0
 11
-0.9999389648437498
 21
-0.2679328381102958
 72
     1
 10
-0.9999389648437498
 20
-0.2679328381102958
 11
-0.99993896484375
 21
0.2679328381102955
 97
        1
330
53
 75
     0
 76
     1
 98
        1
 10
0.0
 20
0.0
450
        0
451
        0
460
0.0
461
0.0
452
        0
462
0.0
453
        0
470

  0
ENDBLK
  5
59
330
51
100
AcDbEntity
  8
0
100
AcDbBlockEnd
  0
BLOCK
  5
5B
330
24
100
AcDbEntity
  8
寸法
100
AcDbBlockBegin
  2
*D2
 70
     1
 10
0.0
 20
0.0
 30
0.0
  3
*D2
  1

  0
LINE
  5
5C
330
24
100
AcDbEntity
  8
寸法
  6
Continuous
 62
     0
440
 16777216
370
    -2
100
AcDbLine
 10
-81.58750000000001
 20
11.0
 30
0.0
 11
-121.175
 21
11.0
 31
0.0
  0
LINE
  5
5D
330
24
100
AcDbEntity
  8
寸法
  6
Continuous
 62
     0
440
 16777216
370
    -2
100
AcDbLine
 10
-81.58750000000001
 20
-88.0
 30
0.0
 11
-121.175
 21
-88.0
 31
0.0
  0
LINE
  5
5E
330
24
100
AcDbEntity
  8
寸法
  6
Continuous
 62
     0
440
 16777216
370
    -2
100
AcDbLine
 10
-118.0
 20
12.5875
 30
0.0
 11
-118.0
 21
11.0
 31
0.0
  0
LINE
  5
5F
330
24
100
AcDbEntity
  8
寸法
  6
Continuous
 62
     0
440
 16777216
370
    -2
100
AcDbLine
 10
-118.0
 20
-88.0
 30
0.0
 11
-118.0
 21
-89.5875
 31
0.0
  0
LINE
  5
60
330
24
100
AcDbEntity
  8
寸法
  6
Continuous
 62
     0
440
 16777216
370
    -2
100
AcDbLine
 10
-118.0
 20
11.0
 30
0.0
 11
-118.0
 21
-88.0
 31
0.0
  0
POLYLINE
  5
61
330
24
100
AcDbEntity
  8
一般
  6
Continuous
 62
     0
440
 16777216
370
    20
100
AcDb2dPolyline
 66
     1
 10
0.0
 20
0.0
 30
0.0
 75
     5
  0
VERTEX
  5
62
330
61
100
AcDbEntity
  8
一般
  6
Continuous
 62
     0
440
 16777216
370
    20
100
AcDbVertex
100
AcDb2dVertex
 10
-119.1225320151336
 20
12.12253201513364
 30
0.0
  0
VERTEX
  5
63
330
61
100
AcDbEntity
  8
一般
  6
Continuous
 62
     0
440
 16777216
370
    20
100
AcDbVertex
100
AcDb2dVertex
 10
-116.8774679848663
 20
9.877467984866354
 30
0.0
  0
SEQEND
  5
64
330
61
100
AcDbEntity
  8
一般
  6
Continuous
 62
     0
440
 16777216
370
    20
  0
POLYLINE
  5
65
330
24
100
AcDbEntity
  8
一般
  6
Continuous
 62
     0
440
 16777216
370
    20
100
AcDb2dPolyline
 66
     1
 10
0.0
 20
0.0
 30
0.0
 75
     5
  0
VERTEX
  5
66
330
65
100
AcDbEntity
  8
一般
  6
Continuous
 62
     0
440
 16777216
370
    20
100
AcDbVertex
100
AcDb2dVertex
 10
-116.8774679848663
 20
-89.12253201513363
 30
0.0
  0
VERTEX
  5
67
330
65
100
AcDbEntity
  8
一般
  6
Continuous
 62
     0
440
 16777216
370
    20
100
AcDbVertex
100
AcDb2dVertex
 10
-119.1225320151336
 20
-86.87746798486635
 30
0.0
  0
SEQEND
  5
68
330
65
100
AcDbEntity
  8
一般
  6
Continuous
 62
     0
440
 16777216
370
    20
  0
WIPEOUT
  5
69
330
24
100
AcDbEntity
  8
寸法
  6
Continuous
 62
     0
440
 16777216
160
               296
310
2801000003000000940000002400000006000000007C5FC033333333131945C0000000000000000000000000000000000000000000000000000000000000F03F000000000000F03F000000000000000000000000000000000000000000000000000000000000F03F0000000000000000410063004400620057006900700065
310
006F00750074002000280057006900700065004F00750074002900000084000000060000000500000006000000007C5FC033333333131945C000000000000000009A99999999E55DC033333333131945C000000000000000009A99999999E55DC0CDCCCCCCEC6641C0000000000000000006000000007C5FC0CDCCCCCCEC66
310
41C0000000000000000006000000007C5FC033333333131945C000000000000000000800000015000000
370
    -2
100
AcDbWipeout
 90
        0
 10
-125.9375000000001
 20
-42.19589843749999
 30
0.0
 11
7.391796874999997
 21
0.0
 31
0.0
 12
0.0
 22
7.391796874999997
 32
0.0
 13
1.0
 23
1.0
340
0
 70
     7
280
     1
281
    50
282
    50
283
     0
290
     0
360
0
 71
     2
 91
        5
 14
0.3590604026845748
 24
0.5
 14
0.3590604026845748
 24
-0.5
 14
-0.5
 24
-0.5
 14
-0.5
 24
0.5
 14
0.3590604026845748
 24
0.5
  0
MTEXT
  5
6A
330
24
100
AcDbEntity
  8
寸法
 62
     0
440
 16777216
100
AcDbMText
 10
-125.3630234375
 20
-42.19589843749999
 30
0.0
 40
4.886523437500059
 41
0.0
 46
0.0
 71
     1
 72
     1
  1
{\fHGPｺﾞｼｯｸM|b0|i0|c128|p0;\l99}
 11
0.0
 21
1.0
 31
0.0
 73
     1
 44
0.7828267384257844
  0
POINT
  5
6B
330
24
100
AcDbEntity
  8
Defpoints
 62
     0
440
 16777216
370
     0
100
AcDbPoint
 10
-80.0
 20
-88.0
 30
0.0
  0
POINT
  5
6C
330
24
100
AcDbEntity
  8
Defpoints
 62
     0
440
 16777216
370
     0
100
AcDbPoint
 10
-80.0
 20
11.0
 30
0.0
  0
POINT
  5
6D
330
24
100
AcDbEntity
  8
Defpoints
 62
     0
440
 16777216
370
     0
100
AcDbPoint
 10
-118.0
 20
11.0
 30
0.0
  0
ENDBLK
  5
6E
330
24
100
AcDbEntity
  8
寸法
100
AcDbBlockEnd
  0
BLOCK
  5
6F
330
25
100
AcDbEntity
  8
寸法
100
AcDbBlockBegin
  2
*D3
 70
     1
 10
0.0
 20
0.0
 30
0.0
  3
*D3
  1

  0
LINE
  5
70
330
25
100
AcDbEntity
  8
寸法
  6
Continuous
 62
     0
440
 16777216
370
    -2
100
AcDbLine
 10
-81.58750000000001
 20
76.09556090166842
 30
0.0
 11
-121.175
 21
76.09556090166842
 31
0.0
  0
LINE
  5
71
330
25
100
AcDbEntity
  8
寸法
  6
Continuous
 62
     0
440
 16777216
370
    -2
100
AcDbLine
 10
-81.58750000000001
 20
41.09556090166854
 30
0.0
 11
-121.175
 21
41.09556090166854
 31
0.0
  0
LINE
  5
72
330
25
100
AcDbEntity
  8
寸法
  6
Continuous
 62
     0
440
 16777216
370
    -2
100
AcDbLine
 10
-118.0
 20
77.68306090166842
 30
0.0
 11
-118.0
 21
76.09556090166842
 31
0.0
  0
LINE
  5
73
330
25
100
AcDbEntity
  8
寸法
  6
Continuous
 62
     0
440
 16777216
370
    -2
100
AcDbLine
 10
-118.0
 20
41.09556090166854
 30
0.0
 11
-118.0
 21
39.50806090166855
 31
0.0
  0
LINE
  5
74
330
25
100
AcDbEntity
  8
寸法
  6
Continuous
 62
     0
440
 16777216
370
    -2
100
AcDbLine
 10
-118.0
 20
76.09556090166842
 30
0.0
 11
-118.0
 21
41.09556090166854
 31
0.0
  0
POLYLINE
  5
75
330
25
100
AcDbEntity
  8
一般
  6
Continuous
 62
     0
440
 16777216
370
    20
100
AcDb2dPolyline
 66
     1
 10
0.0
 20
0.0
 30
0.0
 75
     5
  0
VERTEX
  5
76
330
75
100
AcDbEntity
  8
一般
  6
Continuous
 62
     0
440
 16777216
370
    20
100
AcDbVertex
100
AcDb2dVertex
 10
-119.1225320151336
 20
77.21809291680206
 30
0.0
  0
VERTEX
  5
77
330
75
100
AcDbEntity
  8
一般
  6
Continuous
 62
     0
440
 16777216
370
    20
100
AcDbVertex
100
AcDb2dVertex
 10
-116.8774679848663
 20
74.97302888653476
 30
0.0
  0
SEQEND
  5
78
330
75
100
AcDbEntity
  8
一般
  6
Continuous
 62
     0
440
 16777216
370
    20
  0
POLYLINE
  5
79
330
25
100
AcDbEntity
  8
一般
  6
Continuous
 62
     0
440
 16777216
370
    20
100
AcDb2dPolyline
 66
     1
 10
0.0
 20
0.0
 30
0.0
 75
     5
  0
VERTEX
  5
7A
330
79
100
AcDbEntity
  8
一般
  6
Continuous
 62
     0
440
 16777216
370
    20
100
AcDbVertex
100
AcDb2dVertex
 10
-116.8774679848663
 20
39.9730288865349
 30
0.0
  0
VERTEX
  5
7B
330
79
100
AcDbEntity
  8
一般
  6
Continuous
 62
     0
440
 16777216
370
    20
100
AcDbVertex
100
AcDb2dVertex
 10
-119.1225320151336
 20
42.21809291680219
 30
0.0
  0
SEQEND
  5
7C
330
79
100
AcDbEntity
  8
一般
  6
Continuous
 62
     0
440
 16777216
370
    20
  0
WIPEOUT
  5
7D
330
25
100
AcDbEntity
  8
寸法
  6
Continuous
 62
     0
440
 16777216
160
               296
310
2801000003000000940000002400000006000000007C5FC06C85BE2328734B40000000000000000000000000000000000000000000000000000000000000F03F000000000000F03F000000000000000000000000000000000000000000000000000000000000F03F0000000000000000410063004400620057006900700065
310
006F00750074002000280057006900700065004F00750074002900000084000000060000000500000006000000007C5FC06C85BE2328734B4000000000000000009A99999999E55DC06C85BE2328734B4000000000000000009A99999999E55DC0D2EB248A4E254F40000000000000000006000000007C5FC0D2EB248A4E25
310
4F40000000000000000006000000007C5FC06C85BE2328734B4000000000000000000800000015000000
370
    -2
100
AcDbWipeout
 90
        0
 10
-125.9375000000001
 20
54.89966246416847
 30
0.0
 11
7.391796874999997
 21
0.0
 31
0.0
 12
0.0
 22
7.391796874999997
 32
0.0
 13
1.0
 23
1.0
340
0
 70
     7
280
     1
281
    50
282
    50
283
     0
290
     0
360
0
 71
     2
 91
        5
 14
0.3590604026845748
 24
0.5
 14
0.3590604026845748
 24
-0.5
 14
-0.5
 24
-0.5
 14
-0.5
 24
0.5
 14
0.3590604026845748
 24
0.5
  0
MTEXT
  5
7E
330
25
100
AcDbEntity
  8
寸法
 62
     0
440
 16777216
100
AcDbMText
 10
-125.3630234375
 20
54.89966246416847
 30
0.0
 40
4.886523437500059
 41
0.0
 46
0.0
 71
     1
 72
     1
  1
{\fHGPｺﾞｼｯｸM|b0|i0|c128|p0;\l35}
 11
0.0
 21
1.0
 31
0.0
 73
     1
 44
0.7828267384257844
  0
POINT
  5
7F
330
25
100
AcDbEntity
  8
Defpoints
 62
     0
440
 16777216
370
     0
100
AcDbPoint
 10
-80.0
 20
41.09556090166854
 30
0.0
  0
POINT
  5
80
330
25
100
AcDbEntity
  8
Defpoints
 62
     0
440
 16777216
370
     0
100
AcDbPoint
 10
-80.0
 20
76.09556090166842
 30
0.0
  0
POINT
  5
81
330
25
100
AcDbEntity
  8
Defpoints
 62
     0
440
 16777216
370
     0
100
AcDbPoint
 10
-118.0
 20
76.09556090166842
 30
0.0
  0
ENDBLK
  5
82
330
25
100
AcDbEntity
  8
寸法
100
AcDbBlockEnd
  0
BLOCK
  5
83
330
26
100
AcDbEntity
  8
一般
100
AcDbBlockBegin
  2
グループ
 70
     0
 10
0.0
 20
0.0
 30
0.0
  3
グループ
  1

  0
WIPEOUT
  5
84
330
26
100
AcDbEntity
  8
一般
  6
Continuous
 62
     0
160
               296
310
28010000030000009400000024000000FB9F9771357E53C04555F3EC936E47C0000000000000000000000000000000000000000000000000000000000000F03F000000000000F03F000000000000000000000000000000000000000000000000000000000000F03F0000000000000000410063004400620057006900700065
310
006F00750074002000280057006900700065004F007500740029000000840000000600000005000000FB9F9771357E53C04555F3EC936E47C00000000000000000471AB7CA490452C04555F3EC936E47C00000000000000000471AB7CA490452C0B5F0ABACC88C44C00000000000000000FB9F9771357E53C0B5F0ABACC88C
310
44C00000000000000000FB9F9771357E53C04555F3EC936E47C000000000000000000800000015000000
370
    25
100
AcDbWipeout
 90
        0
 10
-78.07432905267781
 20
-46.96376343037623
 30
0.0
 11
6.109642262076363
 21
0.0
 31
0.0
 12
0.0
 22
6.109642262076363
 32
0.0
 13
1.0
 23
1.0
340
0
 70
     7
280
     1
281
    50
282
    50
283
     0
290
     0
360
0
 71
     2
 91
      769
 14
-0.3415063509461097
 24
-0.3214138548426528
 14
-0.3443517611558778
 24
-0.3186145769821873
 14
-0.3471688448510485
 24
-0.3157993352900768
 14
-0.3499576020316263
 24
-0.3129681297663223
 14
-0.3527180326976066
 24
-0.3101209604109229
 14
-0.3554501368489917
 24
-0.3072578272238806
 14
-0.3581539144857816
 24
-0.3043787302051946
 14
-0.3608293656079763
 24
-0.3014836693548636
 14
-0.3634764902155712
 24
-0.2985726446728887
 14
-0.3660952883085731
 24
-0.2956456561592699
 14
-0.3686857598869776
 24
-0.2927027038140072
 14
-0.3712479049507869
 24
-0.2897437876370995
 14
-0.3737817235000009
 24
-0.286768907628548
 14
-0.3762872155346198
 24
-0.2837780637883538
 14
-0.3787643810546412
 24
-0.2807712561165145
 14
-0.3812132200600674
 24
-0.2777484846130314
 14
-0.3836337325508983
 24
-0.2747097492779033
 14
-0.386025918527134
 24
-0.2716550501111312
 14
-0.3883897779887724
 24
-0.2685843871127154
 14
-0.3907253109358178
 24
-0.2654977602826556
 14
-0.3930325173682632
 24
-0.262395169620952
 14
-0.3953113972861137
 24
-0.2592766151276046
 14
-0.3975619506893712
 24
-0.2561420968026132
 14
-0.3997841775780335
 24
-0.2529916146459769
 14
-0.401978077952096
 24
-0.2498251686576967
 14
-0.4041436518115655
 24
-0.2466427588377727
 14
-0.4062808991564376
 24
-0.2434443851862047
 14
-0.4083898199867145
 24
-0.2402300477029917
 14
-0.4104704143023938
 24
-0.236999746388136
 14
-0.412522682103478
 24
-0.2337534812416365
 14
-0.4145466233899693
 24
-0.230491252263492
 14
-0.416542238161863
 24
-0.2272130594537035
 14
-0.4185095264191617
 24
-0.2239189028122701
 14
-0.4204484881618673
 24
-0.2206087823391928
 14
-0.4223591233899733
 24
-0.2172826980344729
 14
-0.4242414321034815
 24
-0.2139406498981078
 14
-0.4260954143023971
 24
-0.2105826379300989
 14
-0.4279210699867173
 24
-0.2072086621304461
 14
-0.4297183991564401
 24
-0.2038187224991496
 14
-0.4314874018115676
 24
-0.2004128190362079
 14
-0.4332280779520978
 24
-0.1969909517416235
 14
-0.434940427578035
 24
-0.1935531206153953
 14
-0.4366244506893723
 24
-0.1900993256575221
 14
-0.4382801472861143
 24
-0.186629566868005
 14
-0.4399075173682637
 24
-0.1831438442468429
 14
-0.4415065609358177
 24
-0.1796421577940369
 14
-0.4430772779887719
 24
-0.1761245075095871
 14
-0.4446196685271334
 24
-0.1725908933934933
 14
-0.4461337325508972
 24
-0.1690413154457557
 14
-0.4476194700600681
 24
-0.1654757736663743
 14
-0.4490768810546416
 24
-0.1618942680553479
 14
-0.4505059655346175
 24
-0.1582967986126775
 14
-0.4519067235000006
 24
-0.1546833653383634
 14
-0.4532791549507885
 24
-0.1510539682324054
 14
-0.454623259886979
 24
-0.1474086072948034
 14
-0.4559390383085717
 24
-0.1437472825255577
 14
-0.4572264902155694
 24
-0.140069993924668
 14
-0.458485615607972
 24
-0.1363767414921345
 14
-0.4597164144857791
 24
-0.132667525227956
 14
-0.4609188868489912
 24
-0.1289423451321337
 14
-0.4620930326976058
 24
-0.1252012012046662
 14
-0.4632388520316252
 24
-0.1214440934455561
 14
-0.4643563448510469
 24
-0.1176710218548022
 14
-0.465445511155876
 24
-0.1138819864324031
 14
-0.4665063509461074
 24
-0.1100769871783602
 14
-0.4675366731582161
 24
-0.1062640060084955
 14
-0.4685342867286673
 24
-0.1024510248386307
 14
-0.4694991916574657
 24
-0.0986380436687658
 14
-0.4704313879446114
 24
-0.0948250624989011
 14
-0.4713308755900997
 24
-0.0910120813290363
 14
-0.4721976545939352
 24
-0.0871991001591714
 14
-0.4730317249561179
 24
-0.0833861189893067
 14
-0.4738330866766455
 24
-0.0795731378194419
 14
-0.4746017397555181
 24
-0.0757601566495771
 14
-0.4753376841927378
 24
-0.0719471754797123
 14
-0.4760409199883026
 24
-0.0681341943098475
 14
-0.4767114471422146
 24
-0.0643212131399827
 14
-0.4773492656544736
 24
-0.0605082319701179
 14
-0.4779543755250754
 24
-0.0566952508002531
 14
-0.4785267767540244
 24
-0.0528822696303883
 14
-0.4790664693413184
 24
-0.0490692884605235
 14
-0.4795734532869595
 24
-0.0452563072906588
 14
-0.4800477285909432
 24
-0.0414433261207939
 14
-0.4804892952532742
 24
-0.0376303449509291
 14
-0.4808981532739522
 24
-0.0338173637810644
 14
-0.4812743026529754
 24
-0.0300043826111995
 14
-0.4816177433903433
 24
-0.0261914014413348
 14
-0.4819284754860586
 24
-0.02237842027147
 14
-0.4822064989401186
 24
-0.0185654391016051
 14
-0.4824518137525237
 24
-0.0147524579317404
 14
-0.482664419923276
 24
-0.0109394767618756
 14
-0.4828443174523755
 24
-0.0071264955920107
 14
-0.48299150633982
 24
-0.003313514422146
 14
-0.4831059865856094
 24
0.0004994667477188
 14
-0.4831877581897458
 24
0.0043124479175836
 14
-0.4832368211522274
 24
0.0081254290874484
 14
-0.4832531754730537
 24
0.011938410257312
 14
-0.4832368211522274
 24
0.0157513914271757
 14
-0.4831877581897458
 24
0.0195643725970405
 14
-0.4831059865856094
 24
0.0233773537669053
 14
-0.48299150633982
 24
0.02719033493677
 14
-0.4828443174523755
 24
0.0310033161066349
 14
-0.482664419923276
 24
0.0348162972764997
 14
-0.4824518137525237
 24
0.0386292784463644
 14
-0.4822064989401186
 24
0.0424422596162292
 14
-0.4819284754860586
 24
0.0462552407860941
 14
-0.4816177433903433
 24
0.0500682219559588
 14
-0.4812743026529754
 24
0.0538812031258236
 14
-0.4808981532739522
 24
0.0576941842956884
 14
-0.4804892952532742
 24
0.0615071654655532
 14
-0.4800477285909432
 24
0.065320146635418
 14
-0.4795734532869595
 24
0.0691331278052828
 14
-0.4790664693413184
 24
0.0729461089751476
 14
-0.4785267767540244
 24
0.0767590901450124
 14
-0.4779543755250754
 24
0.0805720713148772
 14
-0.4773492656544736
 24
0.084385052484742
 14
-0.4767114471422146
 24
0.0881980336546068
 14
-0.4760409199883026
 24
0.0920110148244715
 14
-0.4753376841927378
 24
0.0958239959943364
 14
-0.4746017397555181
 24
0.0996369771642012
 14
-0.4738330866766455
 24
0.1034499583340648
 14
-0.4730317249561179
 24
0.1072629395039284
 14
-0.4721976545939352
 24
0.1110759206737932
 14
-0.4713308755900997
 24
0.114888901843658
 14
-0.4704313879446114
 24
0.1187018830135228
 14
-0.4694991916574657
 24
0.1225148641833876
 14
-0.4685342867286673
 24
0.1263278453532524
 14
-0.4675366731582161
 24
0.1301408265231172
 14
-0.4665063509461074
 24
0.133953807692982
 14
-0.465445511155876
 24
0.1377588069470249
 14
-0.4643563448510469
 24
0.1415478423694239
 14
-0.4632388520316252
 24
0.1453209139601778
 14
-0.4620930326976058
 24
0.149078021719288
 14
-0.4609188868489912
 24
0.1528191656467554
 14
-0.4597164144857791
 24
0.1565443457425778
 14
-0.458485615607972
 24
0.1602535620067563
 14
-0.4572264902155694
 24
0.1639468144392898
 14
-0.4559390383085717
 24
0.1676241030401794
 14
-0.454623259886979
 24
0.1712854278094252
 14
-0.4532791549507885
 24
0.1749307887470271
 14
-0.4519067235000006
 24
0.1785601858529851
 14
-0.4505059655346175
 24
0.1821736191272993
 14
-0.4490768810546416
 24
0.1857710885699697
 14
-0.4476194700600681
 24
0.1893525941809949
 14
-0.4461337325508972
 24
0.1929181359603764
 14
-0.4446196685271334
 24
0.196467713908114
 14
-0.4430772779887719
 24
0.2000013280242077
 14
-0.4415065609358177
 24
0.2035189783086563
 14
-0.4399075173682637
 24
0.2070206647614623
 14
-0.4382801472861143
 24
0.2105063873826245
 14
-0.4366244506893723
 24
0.2139761461721415
 14
-0.434940427578035
 24
0.2174299411300147
 14
-0.4332280779520978
 24
0.2208677722562429
 14
-0.4314874018115676
 24
0.2242896395508273
 14
-0.4297183991564401
 24
0.2276955430137689
 14
-0.4279210699867173
 24
0.2310854826450656
 14
-0.4260954143023971
 24
0.2344594584447183
 14
-0.4242414321034815
 24
0.2378174704127284
 14
-0.4223591233899733
 24
0.2411595185490934
 14
-0.4204484881618673
 24
0.2444856028538145
 14
-0.4185095264191617
 24
0.2477957233268907
 14
-0.416542238161863
 24
0.251089879968323
 14
-0.4145466233899693
 24
0.2543680727781114
 14
-0.412522682103478
 24
0.257630301756256
 14
-0.4104704143023938
 24
0.2608765669027566
 14
-0.4083898199867145
 24
0.2641068682176135
 14
-0.4062808991564376
 24
0.2673212057008264
 14
-0.4041436518115655
 24
0.2705195793523944
 14
-0.401978077952096
 24
0.2737019891723185
 14
-0.3997841775780335
 24
0.2768684351605987
 14
-0.3975619506893712
 24
0.280018917317235
 14
-0.3953113972861137
 24
0.2831534356422263
 14
-0.3930325173682632
 24
0.2862719901355738
 14
-0.3907253109358178
 24
0.2893745807972774
 14
-0.3883897779887724
 24
0.2924612076273371
 14
-0.386025918527134
 24
0.295531870625753
 14
-0.3836337325508983
 24
0.298586569792525
 14
-0.3812132200600674
 24
0.3016253051276532
 14
-0.3787643810546412
 24
0.3046480766311362
 14
-0.3762872155346198
 24
0.3076548843029755
 14
-0.3737817235000009
 24
0.3106457281431698
 14
-0.3712479049507869
 24
0.3136206081517213
 14
-0.3686857598869776
 24
0.3165795243286289
 14
-0.3660952883085731
 24
0.3195224766738916
 14
-0.3634764902155712
 24
0.3224494651875116
 14
-0.3608293656079763
 24
0.3253604898694876
 14
-0.3581539144857816
 24
0.3282555507198187
 14
-0.3554501368489917
 24
0.3311346477385059
 14
-0.3527180326976066
 24
0.3339977809255481
 14
-0.3499576020316263
 24
0.3368449502809464
 14
-0.3471688448510485
 24
0.3396761558047019
 14
-0.3443517611558778
 24
0.3424913974968126
 14
-0.3415063509461097
 24
0.3452906753572793
 14
-0.3386386003186319
 24
0.3480681462181789
 14
-0.3357544953703253
 24
0.3508179669115861
 14
-0.3328540361011901
 24
0.3535401374375045
 14
-0.3299372225112308
 24
0.3562346577959303
 14
-0.3270040546004428
 24
0.358901527986866
 14
-0.3240545323688284
 24
0.3615407480103092
 14
-0.3210886558163854
 24
0.3641523178662622
 14
-0.3181064249431159
 24
0.366736237554724
 14
-0.31510783974902
 24
0.3692925070756956
 14
-0.3120929002340979
 24
0.3718211264291748
 14
-0.3090616063983469
 24
0.3743220956151638
 14
-0.3060139582417696
 24
0.3767954146336615
 14
-0.3029499557643658
 24
0.3792410834846691
 14
-0.2998695989661334
 24
0.3816591021681842
 14
-0.2967728878470723
 24
0.3840494706842091
 14
-0.2936598224071871
 24
0.3864121890327439
 14
-0.2905304026464732
 24
0.3887472572137874
 14
-0.2873846285649329
 24
0.3910546752273385
 14
-0.2842225001625663
 24
0.3933344430734006
 14
-0.2810440174393732
 24
0.3955865607519702
 14
-0.2778491803953516
 24
0.3978110282630497
 14
-0.2746379890305034
 24
0.4000078456066368
 14
-0.2714104433448266
 24
0.4021770127827347
 14
-0.2681665433383257
 24
0.4043185297913404
 14
-0.2649062890109984
 24
0.4064323966324547
 14
-0.2616296803628424
 24
0.4085186133060787
 14
-0.2583367173938577
 24
0.4105771798122126
 14
-0.2550274001040466
 24
0.4126080961508542
 14
-0.2517017284934067
 24
0.4146113623220057
 14
-0.2483597025619407
 24
0.4165869783256646
 14
-0.2450013223096481
 24
0.4185349441618332
 14
-0.2416265877365292
 24
0.4204552598305119
 14
-0.2382354988425815
 24
0.4223479253316992
 14
-0.2348280556278098
 24
0.4242129406653941
 14
-0.2314042580922094
 24
0.4260503058315999
 14
-0.2279641062357826
 24
0.4278600208303134
 14
-0.2245076000585294
 24
0.4296420856615367
 14
-0.2210347395604476
 24
0.4313965003252675
 14
-0.2175455247415369
 24
0.4331232648215094
 14
-0.2140399556018
 24
0.4348223791502587
 14
-0.2105180321412366
 24
0.4364938433115169
 14
-0.2069797543598469
 24
0.4381376573052846
 14
-0.2034251222576284
 24
0.4397538211315625
 14
-0.1998541358345836
 24
0.4413423347903479
 14
-0.1962667950907124
 24
0.4429031982816429
 14
-0.1926631000260148
 24
0.4444364116054457
 14
-0.1890430506404885
 24
0.4459419747617582
 14
-0.1854066469341358
 24
0.4474198877505807
 14
-0.1817538889069567
 24
0.4488701505719118
 14
-0.1780847765589513
 24
0.4502927632257505
 14
-0.1743993098901171
 24
0.4516877257121001
 14
-0.1706974889004542
 24
0.4530550380309574
 14
-0.1669793135899649
 24
0.4543947001823245
 14
-0.1632447839586493
 24
0.4557067121662002
 14
-0.159493900006505
 24
0.4569910739825848
 14
-0.1557266617335366
 24
0.4582477856314792
 14
-0.1519430691397394
 24
0.4594768471128822
 14
-0.1481431222251159
 24
0.4606782584267938
 14
-0.1443268209896661
 24
0.4618520195732155
 14
-0.1404941654333898
 24
0.4629981305521447
 14
-0.1366451555562848
 24
0.4641165913635836
 14
-0.1327797913583535
 24
0.4652074020075301
 14
-0.1288980728395934
 24
0.4662705624839865
 14
-0.1250000000000047
 24
0.4673060727929527
 14
-0.1210937500000027
 24
0.4683117941865289
 14
-0.1171875000000031
 24
0.4692855879168173
 14
-0.1132812500000034
 24
0.4702274539838168
 14
-0.1093750000000038
 24
0.4711373923875286
 14
-0.1054687500000042
 24
0.4720154031279528
 14
-0.1015625000000045
 24
0.4728614862050879
 14
-0.0976562500000049
 24
0.4736756416189354
 14
-0.0937500000000052
 24
0.474457869369494
 14
-0.0898437500000056
 24
0.4752081694567649
 14
-0.0859375000000059
 24
0.4759265418807479
 14
-0.0820312500000063
 24
0.4766129866414433
 14
-0.0781250000000067
 24
0.4772675037388499
 14
-0.0742187500000071
 24
0.4778900931729686
 14
-0.0703125000000074
 24
0.4784807549437986
 14
-0.0664062500000078
 24
0.4790394890513407
 14
-0.0625000000000058
 24
0.4795662954955952
 14
-0.0585937500000038
 24
0.480061174276562
 14
-0.0546875000000042
 24
0.4805241253942398
 14
-0.0507812500000046
 24
0.4809551488486298
 14
-0.0468750000000049
 24
0.4813542446397311
 14
-0.0429687500000053
 24
0.4817214127675446
 14
-0.0390625000000057
 24
0.4820566532320691
 14
-0.0351562500000061
 24
0.4823599660333061
 14
-0.0312500000000064
 24
0.4826313511712553
 14
-0.0273437500000068
 24
0.4828708086459166
 14
-0.0234375000000071
 24
0.4830783384572892
 14
-0.0195312500000075
 24
0.483253940605374
 14
-0.0156250000000056
 24
0.4833976150901699
 14
-0.0117187500000036
 24
0.4835093619116781
 14
-0.0078125000000039
 24
0.4835891810698987
 14
-0.0039062500000043
 24
0.4836370725648315
 14
-0.0000000000000047
 24
0.4836530363964753
 14
0.003906249999995
 24
0.4836370725648315
 14
0.0078124999999947
 24
0.4835891810698987
 14
0.0117187499999942
 24
0.4835093619116781
 14
0.0156249999999939
 24
0.4833976150901699
 14
0.0195312499999936
 24
0.483253940605374
 14
0.0234374999999931
 24
0.4830783384572892
 14
0.0273437499999928
 24
0.4828708086459156
 14
0.0312499999999948
 24
0.482631351171254
 14
0.0351562499999968
 24
0.4823599660333049
 14
0.0390624999999963
 24
0.482056653232068
 14
0.042968749999996
 24
0.4817214127675423
 14
0.0468749999999957
 24
0.4813542446397275
 14
0.0507812499999952
 24
0.4809551488486253
 14
0.0546874999999949
 24
0.4805241253942352
 14
0.0585937499999946
 24
0.4800611742765572
 14
0.0624999999999942
 24
0.4795662954955917
 14
0.0664062499999938
 24
0.4790394890513384
 14
0.0703124999999935
 24
0.4784807549437963
 14
0.0742187499999931
 24
0.4778900931729652
 14
0.078124999999995
 24
0.4772675037388465
 14
0.082031249999997
 24
0.4766129866414387
 14
0.0859374999999967
 24
0.4759265418807434
 14
0.0898437499999963
 24
0.4752081694567602
 14
0.0937499999999959
 24
0.4744578693694894
 14
0.0976562499999956
 24
0.4736756416189307
 14
0.1015624999999952
 24
0.4728614862050822
 14
0.1054687499999949
 24
0.4720154031279469
 14
0.1093749999999945
 24
0.4711373923875228
 14
0.1132812499999941
 24
0.4702274539838111
 14
0.1171874999999938
 24
0.4692855879168104
 14
0.1210937499999933
 24
0.468311794186523
 14
0.1249999999999953
 24
0.4673060727929458
 14
0.1288980728395841
 24
0.4662705624839795
 14
0.1327797913583442
 24
0.465207402007522
 14
0.1366451555562755
 24
0.4641165913635743
 14
0.1404941654333806
 24
0.4629981305521353
 14
0.1443268209896568
 24
0.4618520195732062
 14
0.1481431222251066
 24
0.4606782584267847
 14
0.1519430691397301
 24
0.4594768471128729
 14
0.1557266617335272
 24
0.4582477856314699
 14
0.1594939000064957
 24
0.4569910739825754
 14
0.1632447839586401
 24
0.455706712166191
 14
0.1669793135899557
 24
0.4543947001823153
 14
0.1706974889004449
 24
0.4530550380309481
 14
0.1743993098901078
 24
0.451687725712091
 14
0.178084776558942
 24
0.4502927632257413
 14
0.1817538889069474
 24
0.4488701505719025
 14
0.1854066469341265
 24
0.4474198877505714
 14
0.1890430506404816
 24
0.445941974761749
 14
0.1926631000260078
 24
0.4444364116054363
 14
0.1962667950907054
 24
0.4429031982816325
 14
0.1998541358345789
 24
0.4413423347903373
 14
0.2034251222576214
 24
0.4397538211315509
 14
0.20697975435984
 24
0.438137657305273
 14
0.2105180321412297
 24
0.4364938433115051
 14
0.214039955601793
 24
0.434822379150247
 14
0.21754552474153
 24
0.4331232648214977
 14
0.2210347395604383
 24
0.4313965003252558
 14
0.2245076000585201
 24
0.4296420856615251
 14
0.2279641062357757
 24
0.4278600208303018
 14
0.2314042580922048
 24
0.4260503058315884
 14
0.2348280556278052
 24
0.4242129406653824
 14
0.2382354988425769
 24
0.4223479253316877
 14
0.2416265877365245
 24
0.4204552598305004
 14
0.2450013223096434
 24
0.4185349441618217
 14
0.248359702561936
 24
0.4165869783256528
 14
0.2517017284934022
 24
0.414611362321994
 14
0.255027400104042
 24
0.4126080961508425
 14
0.258336717393853
 24
0.410577179812201
 14
0.2616296803628377
 24
0.4085186133060671
 14
0.2649062890109937
 24
0.406432396632443
 14
0.2681665433383234
 24
0.4043185297913288
 14
0.2714104433448266
 24
0.4021770127827232
 14
0.2746379890305011
 24
0.4000078456066251
 14
0.2778491803953492
 24
0.3978110282630381
 14
0.2810440174393709
 24
0.3955865607519598
 14
0.284222500162564
 24
0.3933344430733913
 14
0.2873846285649329
 24
0.3910546752273292
 14
0.2905304026464709
 24
0.3887472572137782
 14
0.2936598224071848
 24
0.3864121890327347
 14
0.29677288784707
 24
0.3840494706841998
 14
0.2998695989661288
 24
0.3816591021681749
 14
0.3029499557643612
 24
0.3792410834846597
 14
0.3060139582417673
 24
0.3767954146336522
 14
0.3090616063983469
 24
0.3743220956151545
 14
0.3120929002340979
 24
0.3718211264291654
 14
0.31510783974902
 24
0.3692925070756863
 14
0.3181064249431159
 24
0.3667362375547147
 14
0.3210886558163854
 24
0.3641523178662529
 14
0.3240545323688284
 24
0.3615407480102999
 14
0.3270040546004428
 24
0.3589015279868567
 14
0.3299372225112308
 24
0.356234657795921
 14
0.3328540361011901
 24
0.3535401374374952
 14
0.3357544953703253
 24
0.3508179669115781
 14
0.3386386003186319
 24
0.3480681462181708
 14
0.3415063509461097
 24
0.3452906753572723
 14
0.3443517611558778
 24
0.3424913974968067
 14
0.3471688448510485
 24
0.3396761558046961
 14
0.3499576020316263
 24
0.3368449502809418
 14
0.3527180326976066
 24
0.3339977809255422
 14
0.3554501368489916
 24
0.3311346477385001
 14
0.3581539144857816
 24
0.3282555507198141
 14
0.3608293656079763
 24
0.325360489869483
 14
0.3634764902155712
 24
0.3224494651875081
 14
0.3660952883085731
 24
0.3195224766738893
 14
0.3686857598869776
 24
0.3165795243286267
 14
0.3712479049507892
 24
0.313620608151719
 14
0.3737817235000033
 24
0.3106457281431674
 14
0.3762872155346199
 24
0.3076548843029732
 14
0.3787643810546435
 24
0.3046480766311339
 14
0.3812132200600696
 24
0.3016253051276508
 14
0.3836337325509006
 24
0.2985865697925227
 14
0.3860259185271387
 24
0.2955318706257507
 14
0.3883897779887771
 24
0.2924612076273348
 14
0.3907253109358178
 24
0.2893745807972751
 14
0.3930325173682656
 24
0.2862719901355715
 14
0.3953113972861183
 24
0.283153435642224
 14
0.3975619506893735
 24
0.2800189173172327
 14
0.3997841775780334
 24
0.2768684351605963
 14
0.4019780779520983
 24
0.2737019891723161
 14
0.404143651811568
 24
0.270519579352392
 14
0.4062808991564423
 24
0.2673212057008241
 14
0.4083898199867191
 24
0.2641068682176112
 14
0.4104704143023986
 24
0.2608765669027555
 14
0.4125226821034826
 24
0.257630301756256
 14
0.4145466233899739
 24
0.2543680727781114
 14
0.4165422381618676
 24
0.251089879968323
 14
0.418509526419164
 24
0.2477957233268895
 14
0.4204484881618673
 24
0.2444856028538123
 14
0.4223591233899733
 24
0.2411595185490922
 14
0.4242414321034815
 24
0.2378174704127272
 14
0.4260954143023971
 24
0.2344594584447183
 14
0.4279210699867173
 24
0.2310854826450656
 14
0.4297183991564401
 24
0.2276955430137689
 14
0.4314874018115676
 24
0.2242896395508273
 14
0.4332280779520977
 24
0.2208677722562429
 14
0.434940427578035
 24
0.2174299411300147
 14
0.4366244506893745
 24
0.2139761461721415
 14
0.4382801472861189
 24
0.2105063873826245
 14
0.439907517368266
 24
0.2070206647614623
 14
0.4415065609358179
 24
0.2035189783086563
 14
0.4430772779887766
 24
0.2000013280242077
 14
0.4446196685271379
 24
0.196467713908114
 14
0.4461337325509018
 24
0.1929181359603764
 14
0.4476194700600705
 24
0.1893525941809949
 14
0.4490768810546439
 24
0.1857710885699697
 14
0.4505059655346222
 24
0.1821736191272993
 14
0.4519067235000029
 24
0.1785601858529851
 14
0.4532791549507885
 24
0.1749307887470271
 14
0.4546232598869789
 24
0.1712854278094252
 14
0.4559390383085741
 24
0.1676241030401794
 14
0.4572264902155717
 24
0.1639468144392898
 14
0.4584856156079766
 24
0.1602535620067563
 14
0.4597164144857814
 24
0.1565443457425778
 14
0.4609188868489912
 24
0.1528191656467554
 14
0.4620930326976058
 24
0.149078021719288
 14
0.4632388520316252
 24
0.1453209139601778
 14
0.4643563448510517
 24
0.1415478423694239
 14
0.4654455111558806
 24
0.1377588069470249
 14
0.4665063509461098
 24
0.133953807692982
 14
0.4675366731582161
 24
0.1301408265231172
 14
0.4685342867286673
 24
0.1263278453532524
 14
0.469499191657468
 24
0.1225148641833876
 14
0.4704313879446115
 24
0.1187018830135228
 14
0.4713308755901043
 24
0.114888901843658
 14
0.4721976545939399
 24
0.1110759206737932
 14
0.4730317249561226
 24
0.1072629395039284
 14
0.4738330866766479
 24
0.1034499583340648
 14
0.4746017397555228
 24
0.0996369771642012
 14
0.4753376841927401
 24
0.0958239959943364
 14
0.4760409199883072
 24
0.0920110148244715
 14
0.4767114471422169
 24
0.0881980336546068
 14
0.4773492656544737
 24
0.084385052484742
 14
0.4779543755250754
 24
0.0805720713148772
 14
0.4785267767540243
 24
0.0767590901450124
 14
0.4790664693413184
 24
0.0729461089751476
 14
0.4795734532869593
 24
0.0691331278052828
 14
0.4800477285909432
 24
0.065320146635418
 14
0.480489295253274
 24
0.0615071654655532
 14
0.4808981532739522
 24
0.0576941842956884
 14
0.4812743026529754
 24
0.0538812031258236
 14
0.4816177433903432
 24
0.0500682219559588
 14
0.4819284754860587
 24
0.0462552407860941
 14
0.4822064989401187
 24
0.0424422596162292
 14
0.4824518137525237
 24
0.0386292784463644
 14
0.482664419923276
 24
0.0348162972764997
 14
0.4828443174523757
 24
0.0310033161066349
 14
0.48299150633982
 24
0.02719033493677
 14
0.4831059865856093
 24
0.0233773537669053
 14
0.4831877581897458
 24
0.0195643725970405
 14
0.4832368211522274
 24
0.0157513914271757
 14
0.4832531754730537
 24
0.011938410257312
 14
0.4832368211522274
 24
0.0081254290874484
 14
0.4831877581897458
 24
0.0043124479175836
 14
0.4831059865856093
 24
0.0004994667477188
 14
0.48299150633982
 24
-0.003313514422146
 14
0.4828443174523757
 24
-0.0071264955920107
 14
0.482664419923276
 24
-0.0109394767618756
 14
0.4824518137525237
 24
-0.0147524579317404
 14
0.4822064989401187
 24
-0.0185654391016051
 14
0.4819284754860587
 24
-0.02237842027147
 14
0.4816177433903432
 24
-0.0261914014413348
 14
0.4812743026529754
 24
-0.0300043826111995
 14
0.4808981532739522
 24
-0.0338173637810644
 14
0.480489295253274
 24
-0.0376303449509291
 14
0.4800477285909432
 24
-0.0414433261207939
 14
0.4795734532869593
 24
-0.0452563072906588
 14
0.4790664693413184
 24
-0.0490692884605235
 14
0.4785267767540243
 24
-0.0528822696303883
 14
0.4779543755250754
 24
-0.0566952508002531
 14
0.4773492656544737
 24
-0.0605082319701179
 14
0.4767114471422169
 24
-0.0643212131399827
 14
0.4760409199883072
 24
-0.0681341943098475
 14
0.4753376841927401
 24
-0.0719471754797123
 14
0.4746017397555228
 24
-0.0757601566495771
 14
0.4738330866766479
 24
-0.0795731378194419
 14
0.4730317249561226
 24
-0.0833861189893067
 14
0.4721976545939399
 24
-0.0871991001591714
 14
0.4713308755901043
 24
-0.0910120813290363
 14
0.4704313879446115
 24
-0.0948250624989011
 14
0.469499191657468
 24
-0.0986380436687658
 14
0.4685342867286673
 24
-0.1024510248386307
 14
0.4675366731582161
 24
-0.1062640060084955
 14
0.4665063509461098
 24
-0.1100769871783602
 14
0.4654455111558806
 24
-0.1138819864324031
 14
0.4643563448510517
 24
-0.1176710218548022
 14
0.4632388520316252
 24
-0.1214440934455561
 14
0.4620930326976058
 24
-0.1252012012046662
 14
0.4609188868489912
 24
-0.1289423451321337
 14
0.4597164144857814
 24
-0.132667525227956
 14
0.4584856156079766
 24
-0.1363767414921345
 14
0.4572264902155717
 24
-0.140069993924668
 14
0.4559390383085741
 24
-0.1437472825255577
 14
0.4546232598869789
 24
-0.1474086072948034
 14
0.4532791549507885
 24
-0.1510539682324054
 14
0.4519067235000029
 24
-0.1546833653383634
 14
0.4505059655346222
 24
-0.1582967986126775
 14
0.4490768810546439
 24
-0.1618942680553479
 14
0.4476194700600705
 24
-0.1654757736663743
 14
0.4461337325509018
 24
-0.1690413154457557
 14
0.4446196685271379
 24
-0.1725908933934933
 14
0.4430772779887766
 24
-0.1761245075095871
 14
0.4415065609358179
 24
-0.1796421577940369
 14
0.439907517368266
 24
-0.1831438442468429
 14
0.4382801472861189
 24
-0.186629566868005
 14
0.4366244506893745
 24
-0.1900993256575221
 14
0.434940427578035
 24
-0.1935531206153953
 14
0.4332280779520977
 24
-0.1969909517416235
 14
0.4314874018115676
 24
-0.2004128190362079
 14
0.4297183991564401
 24
-0.2038187224991496
 14
0.4279210699867173
 24
-0.2072086621304461
 14
0.4260954143023971
 24
-0.2105826379300989
 14
0.4242414321034815
 24
-0.2139406498981078
 14
0.4223591233899733
 24
-0.2172826980344729
 14
0.4204484881618673
 24
-0.2206087823391928
 14
0.418509526419164
 24
-0.2239189028122701
 14
0.4165422381618676
 24
-0.2272130594537035
 14
0.4145466233899739
 24
-0.230491252263492
 14
0.4125226821034826
 24
-0.2337534812416365
 14
0.4104704143023986
 24
-0.236999746388136
 14
0.4083898199867191
 24
-0.2402300477029917
 14
0.4062808991564423
 24
-0.2434443851862047
 14
0.404143651811568
 24
-0.2466427588377727
 14
0.4019780779520983
 24
-0.2498251686576967
 14
0.3997841775780334
 24
-0.2529916146459769
 14
0.3975619506893735
 24
-0.2561420968026132
 14
0.3953113972861183
 24
-0.2592766151276046
 14
0.3930325173682656
 24
-0.262395169620952
 14
0.3907253109358178
 24
-0.2654977602826556
 14
0.3883897779887771
 24
-0.2685843871127154
 14
0.3860259185271387
 24
-0.2716550501111312
 14
0.3836337325509006
 24
-0.2747097492779033
 14
0.3812132200600696
 24
-0.2777484846130314
 14
0.3787643810546435
 24
-0.2807712561165145
 14
0.3762872155346199
 24
-0.2837780637883538
 14
0.3737817235000033
 24
-0.286768907628548
 14
0.3712479049507892
 24
-0.2897437876370995
 14
0.3686857598869776
 24
-0.2927027038140072
 14
0.3660952883085731
 24
-0.2956456561592699
 14
0.3634764902155712
 24
-0.2985726446728887
 14
0.3608293656079763
 24
-0.3014836693548636
 14
0.3581539144857816
 24
-0.3043787302051946
 14
0.3554501368489916
 24
-0.3072578272238806
 14
0.3527180326976066
 24
-0.3101209604109229
 14
0.3499576020316263
 24
-0.3129681297663223
 14
0.3471688448510485
 24
-0.3157993352900768
 14
0.3443517611558778
 24
-0.3186145769821873
 14
0.3415063509461097
 24
-0.3214138548426528
 14
0.3386386003186319
 24
-0.3241913257035515
 14
0.3357544953703253
 24
-0.3269411463969587
 14
0.3328540361011901
 24
-0.3296633169228758
 14
0.3299372225112308
 24
-0.3323578372813015
 14
0.3270040546004428
 24
-0.3350247074722372
 14
0.3240545323688284
 24
-0.3376639274956804
 14
0.3210886558163854
 24
-0.3402754973516335
 14
0.3181064249431159
 24
-0.3428594170400953
 14
0.31510783974902
 24
-0.3454156865610669
 14
0.3120929002340979
 24
-0.3479443059145461
 14
0.3090616063983469
 24
-0.350445275100535
 14
0.3060139582417673
 24
-0.3529185941190328
 14
0.3029499557643612
 24
-0.3553642629700403
 14
0.2998695989661288
 24
-0.3577822816535554
 14
0.29677288784707
 24
-0.3601726501695804
 14
0.2936598224071848
 24
-0.3625353685181152
 14
0.2905304026464709
 24
-0.3648704366991588
 14
0.2873846285649329
 24
-0.3671778547127098
 14
0.284222500162564
 24
-0.3694576225587719
 14
0.2810440174393709
 24
-0.3717097402373404
 14
0.2778491803953492
 24
-0.3739342077484187
 14
0.2746379890305011
 24
-0.3761310250920057
 14
0.2714104433448266
 24
-0.3783001922681036
 14
0.2681665433383234
 24
-0.3804417092767092
 14
0.2649062890109937
 24
-0.3825555761178235
 14
0.2616296803628377
 24
-0.3846417927914476
 14
0.258336717393853
 24
-0.3867003592975816
 14
0.255027400104042
 24
-0.3887312756362231
 14
0.2517017284934022
 24
-0.3907345418073746
 14
0.248359702561936
 24
-0.3927101578110334
 14
0.2450013223096434
 24
-0.3946581236472022
 14
0.2416265877365245
 24
-0.3965784393158808
 14
0.2382354988425769
 24
-0.3984711048170682
 14
0.2348280556278052
 24
-0.400336120150763
 14
0.2314042580922048
 24
-0.4021734853169689
 14
0.2279641062357757
 24
-0.4039832003156824
 14
0.2245076000585201
 24
-0.4057652651469056
 14
0.2210347395604383
 24
-0.4075196798106365
 14
0.21754552474153
 24
-0.4092464443068783
 14
0.214039955601793
 24
-0.4109455586356277
 14
0.2105180321412297
 24
-0.4126170227968858
 14
0.20697975435984
 24
-0.4142608367906537
 14
0.2034251222576214
 24
-0.4158770006169313
 14
0.1998541358345789
 24
-0.4174655142757179
 14
0.1962667950907054
 24
-0.419026377767013
 14
0.1926631000260078
 24
-0.420559591090817
 14
0.1890430506404816
 24
-0.4220651542471295
 14
0.1854066469341265
 24
-0.423543067235952
 14
0.1817538889069474
 24
-0.4249933300572831
 14
0.178084776558942
 24
-0.4264159427111217
 14
0.1743993098901078
 24
-0.4278109051974715
 14
0.1706974889004449
 24
-0.4291782175163287
 14
0.1669793135899557
 24
-0.4305178796676957
 14
0.1632447839586401
 24
-0.4318298916515716
 14
0.1594939000064957
 24
-0.4331142534679561
 14
0.1557266617335272
 24
-0.4343709651168505
 14
0.1519430691397301
 24
-0.4356000265982535
 14
0.1481431222251066
 24
-0.4368014379121651
 14
0.1443268209896568
 24
-0.4379751990585867
 14
0.1404941654333806
 24
-0.439121310037516
 14
0.1366451555562755
 24
-0.4402397708489549
 14
0.1327797913583442
 24
-0.4413305814929025
 14
0.1288980728395841
 24
-0.4423937419693602
 14
0.1249999999999953
 24
-0.4434292522783263
 14
0.1210937499999933
 24
-0.4444349736719037
 14
0.1171874999999938
 24
-0.4454087674021909
 14
0.1132812499999941
 24
-0.4463506334691917
 14
0.1093749999999945
 24
-0.4472605718729035
 14
0.1054687499999949
 24
-0.4481385826133275
 14
0.1015624999999952
 24
-0.4489846656904627
 14
0.0976562499999956
 24
-0.4497988211043113
 14
0.0937499999999959
 24
-0.4505810488548699
 14
0.0898437499999963
 24
-0.4513313489421408
 14
0.0859374999999967
 24
-0.452049721366124
 14
0.082031249999997
 24
-0.4527361661268193
 14
0.078124999999995
 24
-0.4533906832242258
 14
0.0742187499999931
 24
-0.4540132726583447
 14
0.0703124999999935
 24
-0.4546039344291745
 14
0.0664062499999938
 24
-0.4551626685367167
 14
0.0624999999999942
 24
-0.4556894749809711
 14
0.0585937499999946
 24
-0.4561843537619378
 14
0.0546874999999949
 24
-0.4566473048796157
 14
0.0507812499999952
 24
-0.4570783283340058
 14
0.0468749999999957
 24
-0.4574774241251071
 14
0.042968749999996
 24
-0.4578445922529206
 14
0.0390624999999963
 24
-0.4581798327174463
 14
0.0351562499999968
 24
-0.4584831455186831
 14
0.0312499999999948
 24
-0.4587545306566323
 14
0.0273437499999928
 24
-0.4589939881312938
 14
0.0234374999999931
 24
-0.4592015179426675
 14
0.0195312499999936
 24
-0.4593771200907523
 14
0.0156249999999939
 24
-0.4595207945755482
 14
0.0117187499999942
 24
-0.4596325413970563
 14
0.0078124999999947
 24
-0.459712360555277
 14
0.003906249999995
 24
-0.4597602520502095
 14
-0.0000000000000047
 24
-0.4597762158818536
 14
-0.0039062500000043
 24
-0.4597602520502095
 14
-0.0078125000000039
 24
-0.459712360555277
 14
-0.0117187500000036
 24
-0.4596325413970563
 14
-0.0156250000000056
 24
-0.4595207945755482
 14
-0.0195312500000075
 24
-0.4593771200907523
 14
-0.0234375000000071
 24
-0.4592015179426675
 14
-0.0273437500000068
 24
-0.4589939881312938
 14
-0.0312500000000064
 24
-0.4587545306566323
 14
-0.0351562500000061
 24
-0.4584831455186831
 14
-0.0390625000000057
 24
-0.4581798327174463
 14
-0.0429687500000053
 24
-0.4578445922529206
 14
-0.0468750000000049
 24
-0.4574774241251071
 14
-0.0507812500000046
 24
-0.4570783283340058
 14
-0.0546875000000042
 24
-0.4566473048796157
 14
-0.0585937500000038
 24
-0.4561843537619378
 14
-0.0625000000000058
 24
-0.4556894749809711
 14
-0.0664062500000078
 24
-0.4551626685367167
 14
-0.0703125000000074
 24
-0.4546039344291745
 14
-0.0742187500000071
 24
-0.4540132726583447
 14
-0.0781250000000067
 24
-0.4533906832242258
 14
-0.0820312500000063
 24
-0.4527361661268193
 14
-0.0859375000000059
 24
-0.452049721366124
 14
-0.0898437500000056
 24
-0.4513313489421408
 14
-0.0937500000000052
 24
-0.4505810488548699
 14
-0.0976562500000049
 24
-0.4497988211043113
 14
-0.1015625000000045
 24
-0.4489846656904627
 14
-0.1054687500000042
 24
-0.4481385826133275
 14
-0.1093750000000038
 24
-0.4472605718729035
 14
-0.1132812500000034
 24
-0.4463506334691917
 14
-0.1171875000000031
 24
-0.4454087674021909
 14
-0.1210937500000027
 24
-0.4444349736719037
 14
-0.1250000000000047
 24
-0.4434292522783263
 14
-0.1288980728395934
 24
-0.4423937419693602
 14
-0.1327797913583535
 24
-0.4413305814929025
 14
-0.1366451555562848
 24
-0.4402397708489549
 14
-0.1404941654333898
 24
-0.439121310037516
 14
-0.1443268209896661
 24
-0.4379751990585867
 14
-0.1481431222251159
 24
-0.4368014379121651
 14
-0.1519430691397394
 24
-0.4356000265982535
 14
-0.1557266617335366
 24
-0.4343709651168505
 14
-0.159493900006505
 24
-0.4331142534679561
 14
-0.1632447839586493
 24
-0.4318298916515716
 14
-0.1669793135899649
 24
-0.4305178796676957
 14
-0.1706974889004542
 24
-0.4291782175163287
 14
-0.1743993098901171
 24
-0.4278109051974715
 14
-0.1780847765589513
 24
-0.4264159427111217
 14
-0.1817538889069567
 24
-0.4249933300572831
 14
-0.1854066469341358
 24
-0.423543067235952
 14
-0.1890430506404885
 24
-0.4220651542471295
 14
-0.1926631000260148
 24
-0.420559591090817
 14
-0.1962667950907124
 24
-0.419026377767013
 14
-0.1998541358345836
 24
-0.4174655142757179
 14
-0.2034251222576284
 24
-0.4158770006169313
 14
-0.2069797543598469
 24
-0.4142608367906537
 14
-0.2105180321412366
 24
-0.4126170227968858
 14
-0.2140399556018
 24
-0.4109455586356277
 14
-0.2175455247415369
 24
-0.4092464443068783
 14
-0.2210347395604476
 24
-0.4075196798106365
 14
-0.2245076000585294
 24
-0.4057652651469056
 14
-0.2279641062357826
 24
-0.4039832003156824
 14
-0.2314042580922094
 24
-0.4021734853169689
 14
-0.2348280556278098
 24
-0.400336120150763
 14
-0.2382354988425815
 24
-0.3984711048170682
 14
-0.2416265877365292
 24
-0.3965784393158808
 14
-0.2450013223096481
 24
-0.3946581236472022
 14
-0.2483597025619407
 24
-0.3927101578110334
 14
-0.2517017284934067
 24
-0.3907345418073746
 14
-0.2550274001040466
 24
-0.3887312756362231
 14
-0.2583367173938577
 24
-0.3867003592975816
 14
-0.2616296803628424
 24
-0.3846417927914476
 14
-0.2649062890109984
 24
-0.3825555761178235
 14
-0.2681665433383257
 24
-0.3804417092767092
 14
-0.2714104433448266
 24
-0.3783001922681036
 14
-0.2746379890305034
 24
-0.3761310250920057
 14
-0.2778491803953516
 24
-0.3739342077484187
 14
-0.2810440174393732
 24
-0.3717097402373404
 14
-0.2842225001625663
 24
-0.3694576225587719
 14
-0.2873846285649329
 24
-0.3671778547127098
 14
-0.2905304026464732
 24
-0.3648704366991588
 14
-0.2936598224071871
 24
-0.3625353685181152
 14
-0.2967728878470723
 24
-0.3601726501695804
 14
-0.2998695989661334
 24
-0.3577822816535554
 14
-0.3029499557643658
 24
-0.3553642629700403
 14
-0.3060139582417696
 24
-0.3529185941190328
 14
-0.3090616063983469
 24
-0.350445275100535
 14
-0.3120929002340979
 24
-0.3479443059145461
 14
-0.31510783974902
 24
-0.3454156865610669
 14
-0.3181064249431159
 24
-0.3428594170400953
 14
-0.3210886558163854
 24
-0.3402754973516335
 14
-0.3240545323688284
 24
-0.3376639274956804
 14
-0.3270040546004428
 24
-0.3350247074722372
 14
-0.3299372225112308
 24
-0.3323578372813015
 14
-0.3328540361011901
 24
-0.3296633169228758
 14
-0.3357544953703253
 24
-0.3269411463969587
 14
-0.3386386003186319
 24
-0.3241913257035515
 14
-0.3415063509461097
 24
-0.3214138548426528
  0
SPLINE
  5
85
330
26
100
AcDbEntity
  8
一般
  6
Continuous
 62
     0
370
    25
100
AcDbSpline
210
0.0
220
0.0
230
1.0
 70
    11
 71
     2
 72
    17
 73
    14
 74
     0
 42
0.000001
 43
0.0000000001
 40
0.0
 40
0.0
 40
0.0
 40
1.0
 40
2.0
 40
3.0
 40
4.0
 40
5.0
 40
6.0
 40
7.0
 40
8.0
 40
9.0
 40
10.0
 40
11.0
 40
12.0
 40
12.0
 40
12.0
 10
-77.10598955614748
 20
-41.94521862817449
 30
0.0
 10
-77.66506062513617
 20
-42.49094085759407
 30
0.0
 10
-78.07432905267781
 20
-43.98188171518813
 30
0.0
 10
-77.66506062513617
 20
-45.47282257278215
 30
0.0
 10
-76.54691848715875
 20
-46.56426703162138
 30
0.0
 10
-75.01950792163968
 20
-46.96376343037623
 30
0.0
 10
-73.49209735612055
 20
-46.56426703162129
 30
0.0
 10
-72.37395521814306
 20
-45.47282257278215
 30
0.0
 10
-71.96468679060145
 20
-43.98188171518813
 30
0.0
 10
-72.37395521814306
 20
-42.49094085759407
 30
0.0
 10
-73.49209735612055
 20
-41.39949639875493
 30
0.0
 10
-75.01950792163968
 20
-41.0
 30
0.0
 10
-76.54691848715875
 20
-41.39949639875493
 30
0.0
 10
-77.10598955614748
 20
-41.94521862817449
 30
0.0
  0
WIPEOUT
  5
86
330
26
100
AcDbEntity
  8
一般
  6
Continuous
 62
     0
160
               296
310
28010000030000009400000024000000FBF2CF6ACB6453C0D9611F8FF63C47C0000000000000000000000000000000000000000000000000000000000000F03F000000000000F03F000000000000000000000000000000000000000000000000000000000000F03F0000000000000000410063004400620057006900700065
310
006F00750074002000280057006900700065004F007500740029000000840000000600000005000000FBF2CF6ACB6453C0D9611F8FF63C47C0000000000000000047C77ED1B31D52C0D9611F8FF63C47C0000000000000000047C77ED1B31D52C027E47F0A66BE44C00000000000000000FBF2CF6ACB6453C027E47F0A66BE
310
44C00000000000000000FBF2CF6ACB6453C0D9611F8FF63C47C000000000000000000800000015000000
370
    25
100
AcDbWipeout
 90
        0
 10
-77.57491560275586
 20
-46.47627438576064
 30
0.0
 11
5.110815362232472
 21
0.0
 31
0.0
 12
0.0
 22
5.110815362232472
 32
0.0
 13
1.0
 23
1.0
340
0
 70
     7
280
     1
281
    50
282
    50
283
     0
290
     0
360
0
 71
     2
 91
      769
 14
-0.2500000000000056
 24
-0.4107353250712648
 14
-0.2536138216745021
 24
-0.4086802682849776
 14
-0.2572036989614586
 24
-0.4066018388269956
 14
-0.2607696318608778
 24
-0.4045000366973193
 14
-0.2643116203727625
 24
-0.4023748618959508
 14
-0.2678296644971072
 24
-0.4002263144228879
 14
-0.2713237642339146
 24
-0.3980543942781318
 14
-0.2747939195831847
 24
-0.3958591014616811
 14
-0.2782401305449174
 24
-0.3936404359735358
 14
-0.281662397119113
 24
-0.3913983978136958
 14
-0.2850607193057713
 24
-0.389132986982164
 14
-0.2884350971048922
 24
-0.3868442034789377
 14
-0.2917855305164759
 24
-0.3845320473040181
 14
-0.2951120195405224
 24
-0.3821965184574039
 14
-0.2984145641770315
 24
-0.3798376169390965
 14
-0.3016931644260006
 24
-0.3774553427490944
 14
-0.3049478202874352
 24
-0.3750496958873992
 14
-0.3081785317613325
 24
-0.3726206763540093
 14
-0.3113852988476897
 24
-0.3701682841489262
 14
-0.3145681215465097
 24
-0.3676925192721485
 14
-0.3177269998577952
 24
-0.3651933817236777
 14
-0.3208619337815434
 24
-0.3626708715035122
 14
-0.3239729233177515
 24
-0.3601249886116549
 14
-0.3270599684664224
 24
-0.3575557330481028
 14
-0.3301230692275559
 24
-0.3549631048128563
 14
-0.3331622256011522
 24
-0.3523471039059152
 14
-0.3361774375872113
 24
-0.3497077303272822
 14
-0.3391687051857329
 24
-0.3470449840769546
 14
-0.3421360283967174
 24
-0.3443588651549324
 14
-0.3450794072201646
 24
-0.3416493735612156
 14
-0.3479988416560745
 24
-0.338916509295807
 14
-0.3508943317044472
 24
-0.3361602723587037
 14
-0.3537658773652798
 24
-0.3333806627499059
 14
-0.356613478638575
 24
-0.3305776804694135
 14
-0.3594371355243358
 24
-0.3277513255172292
 14
-0.3622368480225593
 24
-0.3249015978933503
 14
-0.3650126161332428
 24
-0.3220284975977767
 14
-0.3677644398563889
 24
-0.3191320246305101
 14
-0.3704923191920007
 24
-0.3162121789915487
 14
-0.373196254140075
 24
-0.3132689606808942
 14
-0.3758762447006094
 24
-0.3103023696985464
 14
-0.3785322908736064
 24
-0.3073124060445041
 14
-0.381164392659069
 24
-0.3042990697187685
 14
-0.3837725500569915
 24
-0.3012623607213369
 14
-0.3863567630673767
 24
-0.2982022790522135
 14
-0.3889170316902246
 24
-0.2951188247113969
 14
-0.3914533559255353
 24
-0.2920119976988856
 14
-0.3939657357733061
 24
-0.2888817980146798
 14
-0.3964541712335421
 24
-0.2857282256587808
 14
-0.3989186623062409
 24
-0.2825512806311871
 14
-0.4013592089913998
 24
-0.2793509629319002
 14
-0.4037758112890239
 24
-0.2761272725609202
 14
-0.406168469199111
 24
-0.2728802095182454
 14
-0.4085371827216579
 24
-0.2696097738038775
 14
-0.4108819518566703
 24
-0.266315965417815
 14
-0.4132027766041455
 24
-0.2629987843600579
 14
-0.4154996569640805
 24
-0.2596582306306075
 14
-0.4177725929364784
 24
-0.2562943042294639
 14
-0.4200215845213417
 24
-0.2529070051566258
 14
-0.4222466317186678
 24
-0.2494963334120943
 14
-0.4244477345284538
 24
-0.2460622889958684
 14
-0.4266248929507024
 24
-0.2426048719079478
 14
-0.428778106985414
 24
-0.2391240821483353
 14
-0.4309073766325881
 24
-0.2356199197170282
 14
-0.4330127018922222
 24
-0.2320923846140266
 14
-0.4350897006372611
 24
-0.2285488856793815
 14
-0.4371339907406472
 24
-0.2249968317531411
 14
-0.4391455722023802
 24
-0.2214362228353071
 14
-0.4411244450224574
 24
-0.2178670589258805
 14
-0.4430706092008818
 24
-0.2142893400248589
 14
-0.4449840647376531
 24
-0.2107030661322421
 14
-0.4468648116327713
 24
-0.2071082372480315
 14
-0.4487128498862311
 24
-0.2035048533722257
 14
-0.450528179498038
 24
-0.1998929145048262
 14
-0.4523108004681918
 24
-0.1962724206458328
 14
-0.4540607127966926
 24
-0.1926433717952444
 14
-0.4557779164835349
 24
-0.1890057679530621
 14
-0.4574624115287271
 24
-0.1853596091192861
 14
-0.4591141979322635
 24
-0.1817048952939149
 14
-0.4607332756941469
 24
-0.1780416264769499
 14
-0.4623196448143747
 24
-0.1743698026683911
 14
-0.4638733052929466
 24
-0.1706894238682372
 14
-0.4653942571298682
 24
-0.1670004900764894
 14
-0.4668825003251314
 24
-0.163303001293148
 14
-0.4683380348787444
 24
-0.1595969575182114
 14
-0.4697608607907044
 24
-0.1558823587516809
 14
-0.471150978061006
 24
-0.1521592049935567
 14
-0.4725083866896543
 24
-0.1484274962438373
 14
-0.4738330866766499
 24
-0.1446872325025228
 14
-0.4751250780219924
 24
-0.1409384137696145
 14
-0.4763843607256765
 24
-0.1371810400451138
 14
-0.4776109347877074
 24
-0.1334151113290165
 14
-0.4788048002080856
 24
-0.1296406276213268
 14
-0.4799659569868106
 24
-0.125857588922042
 14
-0.48109440512388
 24
-0.1220659952311635
 14
-0.4821901446192963
 24
-0.1182658465486897
 14
-0.4832531754730569
 24
-0.1144571428746221
 14
-0.4842834976851645
 24
-0.1106398842089594
 14
-0.4852811112556165
 24
-0.1068140705517043
 14
-0.4862460161844153
 24
-0.102979701902854
 14
-0.4871782124715585
 24
-0.0991367782624086
 14
-0.4880777001170487
 24
-0.0952852996303694
 14
-0.4889444791208858
 24
-0.0914252660067377
 14
-0.48977854948307
 24
-0.0875566773915096
 14
-0.4905799112035957
 24
-0.0836795337846877
 14
-0.4913485642824684
 24
-0.0797938351862706
 14
-0.4920845087196882
 24
-0.0758995815962611
 14
-0.4927877445152549
 24
-0.0719967730146565
 14
-0.4934582716691632
 24
-0.068085409441458
 14
-0.4940960901814185
 24
-0.0641654908766645
 14
-0.4947012000520236
 24
-0.0602370173202784
 14
-0.49527360128097
 24
-0.0562999887722972
 14
-0.4958132938682664
 24
-0.0523544052327209
 14
-0.496320277813907
 24
-0.0484002667015494
 14
-0.4967945531178918
 24
-0.0444375731787856
 14
-0.4972361197802235
 24
-0.0404663246644266
 14
-0.4976449778008997
 24
-0.0364865211584751
 14
-0.4980211271799256
 24
-0.0324981626609285
 14
-0.4983645679172929
 24
-0.0285012491717868
 14
-0.4986753000130073
 24
-0.0244957806910497
 14
-0.4989533234670687
 24
-0.0204817572187205
 14
-0.4991986382794744
 24
-0.016459178754796
 14
-0.499411244450227
 24
-0.0124280452992777
 14
-0.4995911419793239
 24
-0.0083883568521642
 14
-0.4997383308667679
 24
-0.0043401134134571
 14
-0.4998528111125589
 24
-0.0002833149831547
 14
-0.4999345827166913
 24
0.0037820384387401
 14
-0.4999836456791708
 24
0.00785594685223
 14
-0.5
 24
0.0119384102573137
 14
-0.4999836456791708
 24
0.0160208736623975
 14
-0.4999345827166913
 24
0.0200947820758874
 14
-0.4998528111125589
 24
0.0241601354977822
 14
-0.4997383308667679
 24
0.0282169339280846
 14
-0.4995911419793239
 24
0.0322651773667917
 14
-0.499411244450227
 24
0.0363048658139052
 14
-0.4991986382794744
 24
0.0403359992694235
 14
-0.4989533234670687
 24
0.0443585777333479
 14
-0.4986753000130073
 24
0.0483726012056773
 14
-0.4983645679172929
 24
0.0523780696864142
 14
-0.4980211271799256
 24
0.056374983175556
 14
-0.4976449778008997
 24
0.0603633416731026
 14
-0.4972361197802235
 24
0.064343145179054
 14
-0.4967945531178918
 24
0.0683143936934131
 14
-0.496320277813907
 24
0.0722770872161769
 14
-0.4958132938682664
 24
0.0762312257473484
 14
-0.49527360128097
 24
0.0801768092869248
 14
-0.4947012000520236
 24
0.0841138378349059
 14
-0.4940960901814185
 24
0.0880423113912919
 14
-0.4934582716691632
 24
0.0919622299560855
 14
-0.4927877445152549
 24
0.0958735935292839
 14
-0.4920845087196882
 24
0.0997764021108886
 14
-0.4913485642824684
 24
0.1036706557008981
 14
-0.4905799112035957
 24
0.1075563542993152
 14
-0.48977854948307
 24
0.1114334979061371
 14
-0.4889444791208858
 24
0.1153020865213653
 14
-0.4880777001170487
 24
0.1191621201449969
 14
-0.4871782124715585
 24
0.1230135987770361
 14
-0.4862460161844153
 24
0.1268565224174815
 14
-0.4852811112556165
 24
0.1306908910663318
 14
-0.4842834976851645
 24
0.1345167047235869
 14
-0.4832531754730569
 24
0.1383339633892496
 14
-0.4821901446192963
 24
0.1421426670633171
 14
-0.48109440512388
 24
0.1459428157457909
 14
-0.4799659569868106
 24
0.1497344094366695
 14
-0.4788048002080856
 24
0.1535174481359543
 14
-0.4776109347877074
 24
0.157291931843644
 14
-0.4763843607256765
 24
0.1610578605597413
 14
-0.4751250780219924
 24
0.1648152342842419
 14
-0.4738330866766499
 24
0.1685640530171503
 14
-0.4725083866896543
 24
0.1723043167584648
 14
-0.471150978061006
 24
0.1760360255081842
 14
-0.4697608607907044
 24
0.1797591792663084
 14
-0.4683380348787444
 24
0.1834737780328388
 14
-0.4668825003251314
 24
0.1871798218077755
 14
-0.4653942571298682
 24
0.190877310591117
 14
-0.4638733052929466
 24
0.1945662443828647
 14
-0.4623196448143747
 24
0.1982466231830186
 14
-0.4607332756941469
 24
0.2019184469915774
 14
-0.4591141979322635
 24
0.2055817158085423
 14
-0.4574624115287271
 24
0.2092364296339136
 14
-0.4557779164835349
 24
0.2128825884676896
 14
-0.4540607127966926
 24
0.2165201923098719
 14
-0.4523108004681918
 24
0.2201492411604604
 14
-0.450528179498038
 24
0.2237697350194537
 14
-0.4487128498862311
 24
0.2273816738868532
 14
-0.4468648116327713
 24
0.230985057762659
 14
-0.4449840647376531
 24
0.2345798866468696
 14
-0.4430706092008818
 24
0.2381661605394864
 14
-0.4411244450224574
 24
0.2417438794405081
 14
-0.4391455722023802
 24
0.2453130433499345
 14
-0.4371339907406472
 24
0.2488736522677686
 14
-0.4350897006372611
 24
0.2524257061940089
 14
-0.4330127018922222
 24
0.2559692051286541
 14
-0.4309073766325881
 24
0.2594967402316558
 14
-0.428778106985414
 24
0.2630009026629628
 14
-0.4266248929507024
 24
0.2664816924225752
 14
-0.4244477345284538
 24
0.2699391095104958
 14
-0.4222466317186678
 24
0.2733731539267219
 14
-0.4200215845213417
 24
0.2767838256712533
 14
-0.4177725929364784
 24
0.2801711247440915
 14
-0.4154996569640805
 24
0.283535051145235
 14
-0.4132027766041455
 24
0.2868756048746853
 14
-0.4108819518566703
 24
0.2901927859324425
 14
-0.4085371827216579
 24
0.293486594318505
 14
-0.406168469199111
 24
0.2967570300328729
 14
-0.4037758112890239
 24
0.3000040930755477
 14
-0.4013592089913998
 24
0.3032277834465277
 14
-0.3989186623062409
 24
0.3064281011458147
 14
-0.3964541712335421
 24
0.3096050461734083
 14
-0.3939657357733061
 24
0.3127586185293073
 14
-0.3914533559255353
 24
0.3158888182135132
 14
-0.3889170316902246
 24
0.3189956452260244
 14
-0.3863567630673767
 24
0.322079099566841
 14
-0.3837725500569915
 24
0.3251391812359644
 14
-0.381164392659069
 24
0.328175890233396
 14
-0.3785322908736064
 24
0.3311892265591316
 14
-0.3758762447006094
 24
0.3341791902131739
 14
-0.373196254140075
 24
0.3371457811955217
 14
-0.3704923191920007
 24
0.3400889995061762
 14
-0.3677644398563889
 24
0.3430088451451376
 14
-0.3650126161332428
 24
0.3459053181124043
 14
-0.3622368480225593
 24
0.3487784184079777
 14
-0.3594371355243358
 24
0.3516281460318567
 14
-0.356613478638575
 24
0.354454500984041
 14
-0.3537658773652798
 24
0.3572574832645334
 14
-0.3508943317044472
 24
0.3600370928733312
 14
-0.3479988416560745
 24
0.3627933298104345
 14
-0.3450794072201646
 24
0.3655261940758431
 14
-0.3421360283967174
 24
0.3682356856695599
 14
-0.3391687051857329
 24
0.3709218045915821
 14
-0.3361774375872113
 24
0.3735845508419111
 14
-0.3331622256011522
 24
0.3762239244205455
 14
-0.3301230692275559
 24
0.3788399253274852
 14
-0.3270599684664224
 24
0.3814325535627304
 14
-0.3239729233177515
 24
0.3840018091262837
 14
-0.3208619337815434
 24
0.3865476920181423
 14
-0.3177269998577952
 24
0.3890702022383079
 14
-0.3145681215465097
 24
0.3915693397867789
 14
-0.3113852988476897
 24
0.3940451046635565
 14
-0.3081785317613325
 24
0.3964974968686396
 14
-0.3049478202874352
 24
0.3989265164020295
 14
-0.3016931644260006
 24
0.4013321632637247
 14
-0.2984145641770315
 24
0.4037144374537267
 14
-0.2951120195405224
 24
0.4060733389720343
 14
-0.2917855305164759
 24
0.4084088678186485
 14
-0.2884350971048922
 24
0.410721023993568
 14
-0.2850607193057713
 24
0.4130098074967944
 14
-0.281662397119113
 24
0.4152752183283262
 14
-0.2782401305449174
 24
0.4175172564881662
 14
-0.2747939195831847
 24
0.4197359219763114
 14
-0.2713237642339146
 24
0.4219312147927621
 14
-0.2678296644971072
 24
0.4241031349375197
 14
-0.2643116203727625
 24
0.4262516824105825
 14
-0.2607696318608778
 24
0.4283768572119522
 14
-0.2572036989614586
 24
0.4304786593416274
 14
-0.2536138216745021
 24
0.4325570887996079
 14
-0.2500000000000056
 24
0.4346121455858965
 14
-0.2463698240046826
 24
0.4366395522046944
 14
-0.2427308837552438
 24
0.4386350311602025
 14
-0.2390831792516894
 24
0.4405985824524221
 14
-0.2354267104940165
 24
0.4425302060813547
 14
-0.2317614774822279
 24
0.4444299020469991
 14
-0.2280874802163208
 24
0.446297670349355
 14
-0.224404718696298
 24
0.4481335109884225
 14
-0.2207131929221596
 24
0.4499374239642031
 14
-0.2170129028939054
 24
0.4517094092766938
 14
-0.21330384861153
 24
0.4534494669258976
 14
-0.2095860300750388
 24
0.4551575969118131
 14
-0.2058594472844321
 24
0.45683379923444
 14
-0.2021241002397096
 24
0.4584780738937786
 14
-0.1983799889408686
 24
0.4600904208898302
 14
-0.1946271133879119
 24
0.4616708402225936
 14
-0.1908654735808395
 24
0.4632193318920669
 14
-0.1870950695196514
 24
0.464735895898252
 14
-0.1833159012043449
 24
0.4662205322411516
 14
-0.1795279686349199
 24
0.4676732409207613
 14
-0.1757312718113792
 24
0.469094021937084
 14
-0.1719258107337199
 24
0.4704828752901168
 14
-0.168111585401945
 24
0.4718398009798628
 14
-0.1642885958160544
 24
0.4731647990063217
 14
-0.1604568419760482
 24
0.474457869369491
 14
-0.1566163238819262
 24
0.4757190120693716
 14
-0.1527670415336829
 24
0.4769482271059654
 14
-0.148908994931324
 24
0.4781455144792708
 14
-0.1450421840748494
 24
0.4793108741892878
 14
-0.141166608964259
 24
0.4804443062360165
 14
-0.1372822695995503
 24
0.4815458106194568
 14
-0.1333891659807258
 24
0.4826153873396086
 14
-0.1294872981077855
 24
0.4836530363964734
 14
-0.1255766659807296
 24
0.4846587577900486
 14
-0.1216572695995553
 24
0.4856325515203367
 14
-0.1177291089642624
 24
0.4865744175873364
 14
-0.1137921840748539
 24
0.4874843559910491
 14
-0.1098464949313269
 24
0.4883623667314734
 14
-0.1058920415336841
 24
0.4892084498086079
 14
-0.1019288238819258
 24
0.4900226052224556
 14
-0.0979568419760516
 24
0.490804832973016
 14
-0.093976095816059
 24
0.4915551330602869
 14
-0.0899865854019508
 24
0.4922735054842706
 14
-0.085988310733724
 24
0.4929599502449646
 14
-0.0819812718113815
 24
0.4936144673423731
 14
-0.0779654686349234
 24
0.4942370567764918
 14
-0.0739409012043468
 24
0.4948277185473219
 14
-0.0699075695196545
 24
0.4953864526548652
 14
-0.0658654735808437
 24
0.4959132590991187
 14
-0.0618146133879172
 24
0.4964081378800838
 14
-0.0577549889408722
 24
0.4968710889977619
 14
-0.0536866002397116
 24
0.4973021124521516
 14
-0.0496094472844352
 24
0.4977012082432545
 14
-0.0455235300750431
 24
0.4980683763710674
 14
-0.0414288486115326
 24
0.4984036168355934
 14
-0.0373254028939063
 24
0.4987069296368294
 14
-0.0332131929221616
 24
0.4989783147747787
 14
-0.0290922186963012
 24
0.4992177722494409
 14
-0.0249624802163251
 24
0.4994253020608134
 14
-0.0208239774822306
 24
0.4996009042088974
 14
-0.0166767104940203
 24
0.4997445786936943
 14
-0.0125206792516915
 24
0.499856325515203
 14
-0.0083558837552471
 24
0.4999361446734247
 14
-0.0041823240046869
 24
0.4999840361683566
 14
-0.0000000000000083
 24
0.5
 14
0.0041823240046702
 24
0.4999840361683566
 14
0.0083558837552304
 24
0.4999361446734247
 14
0.0125206792516749
 24
0.499856325515203
 14
0.0166767104940037
 24
0.4997445786936943
 14
0.0208239774822139
 24
0.4996009042088974
 14
0.0249624802163084
 24
0.4994253020608134
 14
0.0290922186962845
 24
0.4992177722494409
 14
0.033213192922145
 24
0.4989783147747787
 14
0.0373254028938896
 24
0.4987069296368294
 14
0.0414288486115159
 24
0.4984036168355934
 14
0.0455235300750264
 24
0.4980683763710674
 14
0.0496094472844185
 24
0.4977012082432545
 14
0.0536866002396948
 24
0.4973021124521516
 14
0.0577549889408555
 24
0.4968710889977619
 14
0.0618146133879005
 24
0.4964081378800838
 14
0.065865473580827
 24
0.4959132590991187
 14
0.0699075695196378
 24
0.4953864526548652
 14
0.0739409012043301
 24
0.4948277185473219
 14
0.0779654686349067
 24
0.4942370567764918
 14
0.0819812718113648
 24
0.4936144673423745
 14
0.0859883107337074
 24
0.4929599502449675
 14
0.089986585401934
 24
0.4922735054842735
 14
0.0939760958160424
 24
0.4915551330602896
 14
0.0979568419760349
 24
0.4908048329730188
 14
0.1019288238819091
 24
0.4900226052224583
 14
0.1058920415336675
 24
0.4892084498086108
 14
0.1098464949313102
 24
0.4883623667314762
 14
0.1137921840748372
 24
0.4874843559910519
 14
0.1177291089642457
 24
0.4865744175873391
 14
0.1216572695995386
 24
0.4856325515203394
 14
0.1255766659807129
 24
0.4846587577900513
 14
0.1294872981077688
 24
0.4836530363964762
 14
0.1333891659807091
 24
0.4826153873396115
 14
0.1372822695995336
 24
0.4815458106194595
 14
0.1411666089642424
 24
0.4804443062360193
 14
0.1450421840748327
 24
0.4793108741892906
 14
0.1489089949313073
 24
0.4781455144792737
 14
0.1527670415336663
 24
0.4769482271059682
 14
0.1566163238819095
 24
0.4757190120693745
 14
0.1604568419760315
 24
0.4744578693694936
 14
0.1642885958160377
 24
0.4731647990063246
 14
0.1681115854019284
 24
0.4718398009798656
 14
0.1719258107337033
 24
0.4704828752901197
 14
0.1757312718113625
 24
0.4690940219370868
 14
0.1795279686349032
 24
0.467673240920764
 14
0.1833159012043282
 24
0.4662205322411543
 14
0.1870950695196347
 24
0.4647358958982549
 14
0.1908654735808228
 24
0.4632193318920697
 14
0.1946271133878952
 24
0.4616708402225963
 14
0.1983799889408519
 24
0.460090420889833
 14
0.2021241002396929
 24
0.4584780738937815
 14
0.2058594472844154
 24
0.4568337992344428
 14
0.2095860300750222
 24
0.4551575969118158
 14
0.2133038486115133
 24
0.4534494669259005
 14
0.2170129028938888
 24
0.4517094092766966
 14
0.2207131929221429
 24
0.4499374239642058
 14
0.2244047186962813
 24
0.4481335109884254
 14
0.2280874802163041
 24
0.4462976703493577
 14
0.2317614774822112
 24
0.4444299020470018
 14
0.2354267104939998
 24
0.442530206081359
 14
0.2390831792516727
 24
0.4405985824524248
 14
0.2427308837552271
 24
0.4386350311602051
 14
0.2463698240046659
 24
0.4366395522046971
 14
0.2499999999999889
 24
0.4346121455859006
 14
0.2536138216744854
 24
0.4325570887996135
 14
0.2572036989614419
 24
0.4304786593416316
 14
0.2607696318608611
 24
0.4283768572119551
 14
0.2643116203727458
 24
0.4262516824105868
 14
0.2678296644970905
 24
0.4241031349375238
 14
0.2713237642338978
 24
0.4219312147927677
 14
0.2747939195831679
 24
0.419735921976317
 14
0.2782401305449007
 24
0.4175172564881717
 14
0.2816623971190964
 24
0.4152752183283317
 14
0.2850607193057546
 24
0.4130098074968
 14
0.2884350971048755
 24
0.4107210239935736
 14
0.2917855305164593
 24
0.4084088678186539
 14
0.2951120195405057
 24
0.4060733389720398
 14
0.2984145641770148
 24
0.4037144374537324
 14
0.3016931644259839
 24
0.4013321632637303
 14
0.3049478202874185
 24
0.3989265164020364
 14
0.3081785317613158
 24
0.3964974968686479
 14
0.3113852988476731
 24
0.3940451046635649
 14
0.3145681215464931
 24
0.3915693397867872
 14
0.3177269998577785
 24
0.3890702022383163
 14
0.3208619337815267
 24
0.3865476920181508
 14
0.3239729233177348
 24
0.3840018091262921
 14
0.3270599684664056
 24
0.3814325535627388
 14
0.3301230692275392
 24
0.3788399253274936
 14
0.3331622256011355
 24
0.3762239244205538
 14
0.3361774375871945
 24
0.3735845508419194
 14
0.3391687051857163
 24
0.3709218045915905
 14
0.3421360283967008
 24
0.3682356856695683
 14
0.345079407220148
 24
0.3655261940758515
 14
0.3479988416560579
 24
0.3627933298104428
 14
0.3508943317044305
 24
0.3600370928733396
 14
0.3537658773652658
 24
0.3572574832645418
 14
0.3566134786385639
 24
0.3544545009840493
 14
0.3594371355243247
 24
0.3516281460318649
 14
0.3622368480225482
 24
0.3487784184079861
 14
0.3650126161332317
 24
0.3459053181124127
 14
0.3677644398563779
 24
0.3430088451451473
 14
0.3704923191919896
 24
0.340088999506186
 14
0.3731962541400611
 24
0.3371457811955329
 14
0.3758762447005954
 24
0.3341791902131837
 14
0.3785322908735953
 24
0.3311892265591413
 14
0.3811643926590551
 24
0.3281758902334058
 14
0.3837725500569776
 24
0.3251391812359755
 14
0.3863567630673656
 24
0.3220790995668522
 14
0.3889170316902135
 24
0.3189956452260355
 14
0.3914533559255242
 24
0.3158888182135229
 14
0.3939657357732949
 24
0.3127586185293185
 14
0.3964541712335309
 24
0.309605046173418
 14
0.3989186623062297
 24
0.3064281011458244
 14
0.4013592089913887
 24
0.3032277834465375
 14
0.4037758112890127
 24
0.300004093075556
 14
0.4061684691990999
 24
0.2967570300328813
 14
0.4085371827216468
 24
0.2934865943185133
 14
0.4108819518566592
 24
0.2901927859324508
 14
0.4132027766041344
 24
0.2868756048746937
 14
0.4154996569640694
 24
0.2835350511452447
 14
0.4177725929364673
 24
0.2801711247441012
 14
0.4200215845213305
 24
0.276783825671263
 14
0.4222466317186566
 24
0.2733731539267302
 14
0.4244477345284426
 24
0.2699391095105056
 14
0.4266248929506914
 24
0.2664816924225864
 14
0.4287781069854029
 24
0.2630009026629725
 14
0.4309073766325769
 24
0.2594967402316641
 14
0.4330127018922138
 24
0.2559692051286638
 14
0.4350897006372555
 24
0.2524257061940187
 14
0.4371339907406416
 24
0.2488736522677797
 14
0.4391455722023745
 24
0.2453130433499456
 14
0.4411244450224518
 24
0.2417438794405178
 14
0.4430706092008761
 24
0.2381661605394947
 14
0.4449840647376475
 24
0.2345798866468779
 14
0.4468648116327657
 24
0.2309850577626673
 14
0.4487128498862255
 24
0.2273816738868615
 14
0.4505281794980325
 24
0.223769735019462
 14
0.4523108004681863
 24
0.2201492411604687
 14
0.4540607127966871
 24
0.2165201923098802
 14
0.4557779164835294
 24
0.212882588467698
 14
0.4574624115287217
 24
0.2092364296339219
 14
0.4591141979322579
 24
0.2055817158085507
 14
0.4607332756941414
 24
0.2019184469915857
 14
0.4623196448143692
 24
0.1982466231830269
 14
0.4638733052929409
 24
0.194566244382873
 14
0.4653942571298626
 24
0.1908773105911253
 14
0.4668825003251258
 24
0.1871798218077838
 14
0.4683380348787388
 24
0.1834737780328472
 14
0.4697608607906988
 24
0.1797591792663167
 14
0.4711509780610003
 24
0.1760360255081925
 14
0.4725083866896488
 24
0.1723043167584732
 14
0.4738330866766443
 24
0.16856405301716
 14
0.4751250780219869
 24
0.1648152342842531
 14
0.476384360725671
 24
0.161057860559751
 14
0.4776109347877019
 24
0.1572919318436551
 14
0.47880480020808
 24
0.1535174481359641
 14
0.4799659569868052
 24
0.1497344094366779
 14
0.4810944051238744
 24
0.1459428157457993
 14
0.4821901446192908
 24
0.1421426670633269
 14
0.4832531754730514
 24
0.1383339633892594
 14
0.484283497685159
 24
0.134516704723598
 14
0.485281111255611
 24
0.1306908910663429
 14
0.4862460161844099
 24
0.1268565224174926
 14
0.4871782124715529
 24
0.1230135987770472
 14
0.4880777001170431
 24
0.1191621201450066
 14
0.4889444791208802
 24
0.1153020865213736
 14
0.4897785494830645
 24
0.1114334979061455
 14
0.4905799112035902
 24
0.1075563542993249
 14
0.4913485642824629
 24
0.1036706557009092
 14
0.4920845087196827
 24
0.0997764021108997
 14
0.4927877445152494
 24
0.0958735935292951
 14
0.4934582716691576
 24
0.0919622299560967
 14
0.4940960901814129
 24
0.088042311391303
 14
0.4947012000520179
 24
0.0841138378349157
 14
0.4952736012809645
 24
0.0801768092869331
 14
0.4958132938682608
 24
0.0762312257473582
 14
0.4963202778139014
 24
0.0722770872161881
 14
0.4967945531178862
 24
0.0683143936934242
 14
0.497236119780218
 24
0.0643431451790651
 14
0.4976449778008942
 24
0.0603633416731123
 14
0.49802112717992
 24
0.0563749831755643
 14
0.4983645679172873
 24
0.0523780696864239
 14
0.4986753000130017
 24
0.0483726012056884
 14
0.4989533234670632
 24
0.0443585777333577
 14
0.4991986382794715
 24
0.0403359992694332
 14
0.4994112444502243
 24
0.0363048658139136
 14
0.4995911419793239
 24
0.0322651773668001
 14
0.4997383308667679
 24
0.0282169339280943
 14
0.4998528111125589
 24
0.0241601354977933
 14
0.4999345827166913
 24
0.0200947820758972
 14
0.4999836456791708
 24
0.0160208736624072
 14
0.5
 24
0.0119384102573221
 14
0.4999836456791708
 24
0.007855946852237
 14
0.4999345827166913
 24
0.003782038438747
 14
0.4998528111125589
 24
-0.0002833149831492
 14
0.4997383308667679
 24
-0.0043401134134501
 14
0.4995911419793239
 24
-0.0083883568521559
 14
0.4994112444502243
 24
-0.0124280452992693
 14
0.4991986382794715
 24
-0.016459178754789
 14
0.4989533234670632
 24
-0.0204817572187135
 14
0.4986753000130017
 24
-0.0244957806910442
 14
0.4983645679172873
 24
-0.0285012491717798
 14
0.49802112717992
 24
-0.0324981626609201
 14
0.4976449778008942
 24
-0.0364865211584682
 14
0.497236119780218
 24
-0.040466324664421
 14
0.4967945531178862
 24
-0.0444375731787801
 14
0.4963202778139014
 24
-0.0484002667015438
 14
0.4958132938682608
 24
-0.052354405232714
 14
0.4952736012809645
 24
-0.0562999887722889
 14
0.4947012000520179
 24
-0.0602370173202714
 14
0.4940960901814129
 24
-0.0641654908766589
 14
0.4934582716691576
 24
-0.0680854094414525
 14
0.4927877445152494
 24
-0.0719967730146509
 14
0.4920845087196827
 24
-0.0758995815962555
 14
0.4913485642824629
 24
-0.079793835186265
 14
0.4905799112035902
 24
-0.0836795337846807
 14
0.4897785494830645
 24
-0.0875566773915013
 14
0.4889444791208802
 24
-0.0914252660067294
 14
0.4880777001170431
 24
-0.0952852996303625
 14
0.4871782124715529
 24
-0.0991367782624031
 14
0.4862460161844099
 24
-0.1029797019028484
 14
0.485281111255611
 24
-0.1068140705516988
 14
0.484283497685159
 24
-0.1106398842089539
 14
0.4832531754730514
 24
-0.1144571428746152
 14
0.4821901446192908
 24
-0.1182658465486827
 14
0.4810944051238744
 24
-0.122065995231155
 14
0.4799659569868052
 24
-0.1258575889220337
 14
0.47880480020808
 24
-0.1296406276213199
 14
0.4776109347877019
 24
-0.133415111329011
 14
0.476384360725671
 24
-0.1371810400451068
 14
0.4751250780219869
 24
-0.1409384137696089
 14
0.4738330866766443
 24
-0.1446872325025158
 14
0.4725083866896488
 24
-0.148427496243829
 14
0.4711509780610003
 24
-0.1521592049935484
 14
0.4697608607906988
 24
-0.1558823587516726
 14
0.4683380348787388
 24
-0.159596957518203
 14
0.4668825003251258
 24
-0.1633030012931397
 14
0.4653942571298626
 24
-0.1670004900764811
 14
0.4638733052929409
 24
-0.1706894238682288
 14
0.4623196448143692
 24
-0.1743698026683828
 14
0.4607332756941414
 24
-0.1780416264769416
 14
0.4591141979322579
 24
-0.1817048952939065
 14
0.4574624115287217
 24
-0.1853596091192777
 14
0.4557779164835294
 24
-0.1890057679530538
 14
0.4540607127966871
 24
-0.1926433717952361
 14
0.4523108004681863
 24
-0.1962724206458245
 14
0.4505281794980325
 24
-0.1998929145048178
 14
0.4487128498862255
 24
-0.2035048533722174
 14
0.4468648116327657
 24
-0.2071082372480232
 14
0.4449840647376475
 24
-0.2107030661322338
 14
0.4430706092008761
 24
-0.2142893400248506
 14
0.4411244450224518
 24
-0.2178670589258736
 14
0.4391455722023745
 24
-0.2214362228353015
 14
0.4371339907406416
 24
-0.2249968317531356
 14
0.4350897006372555
 24
-0.2285488856793745
 14
0.4330127018922138
 24
-0.2320923846140196
 14
0.4309073766325769
 24
-0.2356199197170199
 14
0.4287781069854029
 24
-0.2391240821483284
 14
0.4266248929506914
 24
-0.2426048719079422
 14
0.4244477345284426
 24
-0.2460622889958614
 14
0.4222466317186566
 24
-0.249496333412086
 14
0.4200215845213305
 24
-0.2529070051566188
 14
0.4177725929364673
 24
-0.256294304229457
 14
0.4154996569640694
 24
-0.2596582306306006
 14
0.4132027766041344
 24
-0.2629987843600495
 14
0.4108819518566592
 24
-0.2663159654178067
 14
0.4085371827216468
 24
-0.2696097738038692
 14
0.4061684691990999
 24
-0.2728802095182371
 14
0.4037758112890127
 24
-0.2761272725609119
 14
0.4013592089913887
 24
-0.2793509629318933
 14
0.3989186623062297
 24
-0.2825512806311802
 14
0.3964541712335309
 24
-0.2857282256587739
 14
0.3939657357732949
 24
-0.2888817980146743
 14
0.3914533559255242
 24
-0.2920119976988788
 14
0.3889170316902135
 24
-0.2951188247113914
 14
0.3863567630673656
 24
-0.298202279052208
 14
0.3837725500569776
 24
-0.3012623607213314
 14
0.3811643926590551
 24
-0.304299069718763
 14
0.3785322908735953
 24
-0.3073124060444985
 14
0.3758762447005954
 24
-0.3103023696985409
 14
0.3731962541400611
 24
-0.3132689606808886
 14
0.3704923191919896
 24
-0.3162121789915432
 14
0.3677644398563779
 24
-0.3191320246305045
 14
0.3650126161332317
 24
-0.3220284975977712
 14
0.3622368480225482
 24
-0.3249015978933433
 14
0.3594371355243247
 24
-0.3277513255172236
 14
0.3566134786385639
 24
-0.3305776804694078
 14
0.3537658773652658
 24
-0.333380662749899
 14
0.3508943317044305
 24
-0.3361602723586954
 14
0.3479988416560579
 24
-0.3389165092958001
 14
0.345079407220148
 24
-0.3416493735612101
 14
0.3421360283967008
 24
-0.3443588651549254
 14
0.3391687051857163
 24
-0.3470449840769476
 14
0.3361774375871945
 24
-0.3497077303272752
 14
0.3331622256011355
 24
-0.3523471039059096
 14
0.3301230692275392
 24
-0.3549631048128494
 14
0.3270599684664056
 24
-0.3575557330480945
 14
0.3239729233177348
 24
-0.3601249886116479
 14
0.3208619337815267
 24
-0.3626708715035066
 14
0.3177269998577785
 24
-0.3651933817236721
 14
0.3145681215464931
 24
-0.367692519272143
 14
0.3113852988476731
 24
-0.3701682841489207
 14
0.3081785317613158
 24
-0.3726206763540038
 14
0.3049478202874185
 24
-0.3750496958873936
 14
0.3016931644259839
 24
-0.3774553427490889
 14
0.2984145641770148
 24
-0.3798376169390909
 14
0.2951120195405057
 24
-0.3821965184573983
 14
0.2917855305164593
 24
-0.3845320473040126
 14
0.2884350971048755
 24
-0.3868442034789321
 14
0.2850607193057546
 24
-0.3891329869821585
 14
0.2816623971190964
 24
-0.3913983978136902
 14
0.2782401305449007
 24
-0.3936404359735303
 14
0.2747939195831679
 24
-0.3958591014616756
 14
0.2713237642338978
 24
-0.3980543942781263
 14
0.2678296644970905
 24
-0.4002263144228838
 14
0.2643116203727458
 24
-0.4023748618959468
 14
0.2607696318608611
 24
-0.4045000366973164
 14
0.2572036989614419
 24
-0.4066018388269916
 14
0.2536138216744854
 24
-0.4086802682849721
 14
0.2499999999999889
 24
-0.4107353250712607
 14
0.2463698240046659
 24
-0.4127627316900586
 14
0.2427308837552271
 24
-0.4147582106455666
 14
0.2390831792516727
 24
-0.4167217619377862
 14
0.2354267104939998
 24
-0.4186533855667189
 14
0.2317614774822112
 24
-0.4205530815323633
 14
0.2280874802163041
 24
-0.4224208498347192
 14
0.2244047186962813
 24
-0.4242566904737867
 14
0.2207131929221429
 24
-0.4260606034495673
 14
0.2170129028938888
 24
-0.4278325887620581
 14
0.2133038486115133
 24
-0.4295726464112618
 14
0.2095860300750222
 24
-0.4312807763971771
 14
0.2058594472844154
 24
-0.4329569787198042
 14
0.2021241002396929
 24
-0.4346012533791428
 14
0.1983799889408519
 24
-0.4362136003751944
 14
0.1946271133878952
 24
-0.4377940197079577
 14
0.1908654735808228
 24
-0.4393425113774311
 14
0.1870950695196347
 24
-0.4408590753836161
 14
0.1833159012043282
 24
-0.4423437117265158
 14
0.1795279686349032
 24
-0.4437964204061254
 14
0.1757312718113625
 24
-0.4452172014224481
 14
0.1719258107337033
 24
-0.446606054775481
 14
0.1681115854019284
 24
-0.447962980465227
 14
0.1642885958160377
 24
-0.4492879784916859
 14
0.1604568419760315
 24
-0.4505810488548552
 14
0.1566163238819095
 24
-0.4518421915547358
 14
0.1527670415336663
 24
-0.4530714065913296
 14
0.1489089949313073
 24
-0.454268693964635
 14
0.1450421840748327
 24
-0.4554340536746521
 14
0.1411666089642424
 24
-0.4565674857213807
 14
0.1372822695995336
 24
-0.457668990104821
 14
0.1333891659807091
 24
-0.4587385668249727
 14
0.1294872981077688
 24
-0.4597762158818376
 14
0.1255766659807129
 24
-0.4607819372754127
 14
0.1216572695995386
 24
-0.4617557310057008
 14
0.1177291089642457
 24
-0.4626975970727005
 14
0.1137921840748372
 24
-0.4636075354764132
 14
0.1098464949313102
 24
-0.4644855462168376
 14
0.1058920415336675
 24
-0.4653316292939721
 14
0.1019288238819091
 24
-0.4661457847078196
 14
0.0979568419760349
 24
-0.4669280124583803
 14
0.0939760958160424
 24
-0.467678312545651
 14
0.089986585401934
 24
-0.4683966849696349
 14
0.0859883107337074
 24
-0.4690831297303288
 14
0.0819812718113648
 24
-0.4697376468277373
 14
0.0779654686349067
 24
-0.470360236261856
 14
0.0739409012043301
 24
-0.4709508980326861
 14
0.0699075695196378
 24
-0.4715096321402294
 14
0.065865473580827
 24
-0.4720364385844829
 14
0.0618146133879005
 24
-0.472531317365448
 14
0.0577549889408555
 24
-0.4729942684831262
 14
0.0536866002396948
 24
-0.4734252919375158
 14
0.0496094472844185
 24
-0.4738243877286187
 14
0.0455235300750264
 24
-0.4741915558564316
 14
0.0414288486115159
 24
-0.4745267963209575
 14
0.0373254028938896
 24
-0.4748301091221937
 14
0.033213192922145
 24
-0.4751014942601428
 14
0.0290922186962845
 24
-0.475340951734805
 14
0.0249624802163084
 24
-0.4755484815461774
 14
0.0208239774822139
 24
-0.4757240836942616
 14
0.0166767104940037
 24
-0.4758677581790585
 14
0.0125206792516749
 24
-0.4759795050005672
 14
0.0083558837552304
 24
-0.4760593241587889
 14
0.0041823240046702
 24
-0.4761072156537207
 14
-0.0000000000000083
 24
-0.4761231794853642
 14
-0.0041823240046869
 24
-0.4761072156537207
 14
-0.0083558837552471
 24
-0.4760593241587889
 14
-0.0125206792516915
 24
-0.4759795050005672
 14
-0.0166767104940203
 24
-0.4758677581790585
 14
-0.0208239774822306
 24
-0.4757240836942616
 14
-0.0249624802163251
 24
-0.4755484815461774
 14
-0.0290922186963012
 24
-0.475340951734805
 14
-0.0332131929221616
 24
-0.4751014942601428
 14
-0.0373254028939063
 24
-0.4748301091221937
 14
-0.0414288486115326
 24
-0.4745267963209575
 14
-0.0455235300750431
 24
-0.4741915558564316
 14
-0.0496094472844352
 24
-0.4738243877286187
 14
-0.0536866002397116
 24
-0.4734252919375158
 14
-0.0577549889408722
 24
-0.4729942684831262
 14
-0.0618146133879172
 24
-0.472531317365448
 14
-0.0658654735808437
 24
-0.4720364385844829
 14
-0.0699075695196545
 24
-0.4715096321402294
 14
-0.0739409012043468
 24
-0.4709508980326861
 14
-0.0779654686349234
 24
-0.470360236261856
 14
-0.0819812718113815
 24
-0.4697376468277386
 14
-0.085988310733724
 24
-0.4690831297303317
 14
-0.0899865854019508
 24
-0.4683966849696377
 14
-0.093976095816059
 24
-0.4676783125456537
 14
-0.0979568419760516
 24
-0.466928012458383
 14
-0.1019288238819258
 24
-0.4661457847078224
 14
-0.1058920415336841
 24
-0.465331629293975
 14
-0.1098464949313269
 24
-0.4644855462168404
 14
-0.1137921840748539
 24
-0.4636075354764161
 14
-0.1177291089642624
 24
-0.4626975970727033
 14
-0.1216572695995553
 24
-0.4617557310057036
 14
-0.1255766659807296
 24
-0.4607819372754155
 14
-0.1294872981077855
 24
-0.4597762158818404
 14
-0.1333891659807258
 24
-0.4587385668249756
 14
-0.1372822695995503
 24
-0.4576689901048237
 14
-0.141166608964259
 24
-0.4565674857213834
 14
-0.1450421840748494
 24
-0.4554340536746548
 14
-0.148908994931324
 24
-0.4542686939646379
 14
-0.1527670415336829
 24
-0.4530714065913325
 14
-0.1566163238819262
 24
-0.4518421915547386
 14
-0.1604568419760482
 24
-0.4505810488548578
 14
-0.1642885958160544
 24
-0.4492879784916888
 14
-0.168111585401945
 24
-0.4479629804652296
 14
-0.1719258107337199
 24
-0.4466060547754839
 14
-0.1757312718113792
 24
-0.4452172014224508
 14
-0.1795279686349199
 24
-0.4437964204061281
 14
-0.1833159012043449
 24
-0.4423437117265184
 14
-0.1870950695196514
 24
-0.440859075383619
 14
-0.1908654735808395
 24
-0.4393425113774339
 14
-0.1946271133879119
 24
-0.4377940197079604
 14
-0.1983799889408686
 24
-0.4362136003751972
 14
-0.2021241002397096
 24
-0.4346012533791457
 14
-0.2058594472844321
 24
-0.4329569787198071
 14
-0.2095860300750388
 24
-0.4312807763971799
 14
-0.21330384861153
 24
-0.4295726464112646
 14
-0.2170129028939054
 24
-0.4278325887620608
 14
-0.2207131929221596
 24
-0.4260606034495701
 14
-0.224404718696298
 24
-0.4242566904737894
 14
-0.2280874802163208
 24
-0.4224208498347221
 14
-0.2317614774822279
 24
-0.4205530815323661
 14
-0.2354267104940165
 24
-0.4186533855667232
 14
-0.2390831792516894
 24
-0.4167217619377891
 14
-0.2427308837552438
 24
-0.4147582106455693
 14
-0.2463698240046826
 24
-0.4127627316900613
 14
-0.2500000000000056
 24
-0.4107353250712648
  0
SPLINE
  5
87
330
26
100
AcDbEntity
  8
一般
  6
Continuous
 62
     0
370
    25
100
AcDbSpline
210
0.0
220
0.0
230
1.0
 70
    11
 71
     2
 72
    17
 73
    14
 74
     0
 42
0.000001
 43
0.0000000001
 40
0.0
 40
0.0
 40
0.0
 40
1.0
 40
2.0
 40
3.0
 40
4.0
 40
5.0
 40
6.0
 40
7.0
 40
8.0
 40
9.0
 40
10.0
 40
11.0
 40
12.0
 40
12.0
 40
12.0
 10
-76.29721176219778
 20
-41.82167429545864
 30
0.0
 10
-76.89019617826852
 20
-42.15585954630164
 30
0.0
 10
-77.57491560275586
 20
-43.31351121350208
 30
0.0
 10
-77.57491560275586
 20
-44.65025221687413
 30
0.0
 10
-76.89019617826852
 20
-45.8079038840746
 30
0.0
 10
-75.70422734612701
 20
-46.47627438576064
 30
0.0
 10
-74.3347884971523
 20
-46.47627438576064
 30
0.0
 10
-73.14881966501082
 20
-45.80790388407464
 30
0.0
 10
-72.46410024052337
 20
-44.65025221687417
 30
0.0
 10
-72.46410024052337
 20
-43.31351121350213
 30
0.0
 10
-73.14881966501082
 20
-42.15585954630167
 30
0.0
 10
-74.3347884971523
 20
-41.48748904461564
 30
0.0
 10
-75.70422734612701
 20
-41.48748904461564
 30
0.0
 10
-76.29721176219778
 20
-41.82167429545864
 30
0.0
  0
WIPEOUT
  5
88
330
26
100
AcDbEntity
  8
一般
  6
Continuous
 62
     0
160
               296
310
2801000003000000940000002400000064ACE1A2495453C0AD58062F171446C0000000000000000000000000000000000000000000000000000000000000F03F000000000000F03F000000000000000000000000000000000000000000000000000000000000F03F0000000000000000410063004400620057006900700065
310
006F00750074002000280057006900700065004F00750074002900000084000000060000000500000064ACE1A2495453C0AD58062F171446C000000000000000008062E3B3B63B52C0AD58062F171446C000000000000000008062E3B3B63B52C098F28B3CDFF345C0000000000000000064ACE1A2495453C098F28B3CDFF3
310
45C0000000000000000064ACE1A2495453C0AD58062F171446C000000000000000000800000015000000
370
    25
100
AcDbWipeout
 90
        0
 10
-77.31699440039081
 20
-44.15695751008875
 30
0.0
 11
4.383968113259086
 21
0.0
 31
0.0
 12
0.0
 22
4.383968113259086
 32
0.0
 13
1.0
 23
1.0
340
0
 70
     7
280
     1
281
    50
282
    50
283
     0
290
     0
360
0
 71
     2
 91
        5
 14
-0.5
 24
0.4425845795547569
 14
0.5
 24
0.4425845795547569
 14
0.5
 24
0.5
 14
-0.5
 24
0.5
 14
-0.5
 24
0.4425845795547569
  0
POLYLINE
  5
89
330
26
100
AcDbEntity
  8
一般
  6
Continuous
 62
     0
370
    25
100
AcDb2dPolyline
 66
     1
 10
0.0
 20
0.0
 30
0.0
 70
     1
 75
     5
  0
VERTEX
  5
8A
330
89
100
AcDbEntity
  8
一般
  6
Continuous
 62
     0
370
    25
100
AcDbVertex
100
AcDb2dVertex
 10
-77.31699440039081
 20
-43.90525013764743
 30
0.0
  0
VERTEX
  5
8B
330
89
100
AcDbEntity
  8
一般
  6
Continuous
 62
     0
370
    25
100
AcDbVertex
100
AcDb2dVertex
 10
-72.9330262871317
 20
-43.90525013764743
 30
0.0
  0
VERTEX
  5
8C
330
89
100
AcDbEntity
  8
一般
  6
Continuous
 62
     0
370
    25
100
AcDbVertex
100
AcDb2dVertex
 10
-72.9330262871317
 20
-44.15695751008875
 30
0.0
  0
VERTEX
  5
8D
330
89
100
AcDbEntity
  8
一般
  6
Continuous
 62
     0
370
    25
100
AcDbVertex
100
AcDb2dVertex
 10
-77.31699440039081
 20
-44.15695751008875
 30
0.0
  0
SEQEND
  5
8E
330
89
100
AcDbEntity
  8
一般
  6
Continuous
 62
     0
370
    25
  0
WIPEOUT
  5
90
330
26
100
AcDbEntity
  8
一般
  6
Continuous
 62
     0
160
               296
310
280100000300000094000000240000007987622B00C852C0ED041625DB1547C0000000000000000000000000000000000000000000000000000000000000F03F000000000000F03F000000000000000000000000000000000000000000000000000000000000F03F0000000000000000410063004400620057006900700065
310
006F00750074002000280057006900700065004F0075007400290000008400000006000000050000007987622B00C852C0ED041625DB1547C00000000000000000A772E5517FB752C0ED041625DB1547C00000000000000000A772E5517FB752C061467C461BF244C000000000000000007987622B00C852C061467C461BF2
310
44C000000000000000007987622B00C852C0ED041625DB1547C000000000000000000800000015000000
370
    25
100
AcDbWipeout
 90
        0
 10
-75.12501034376136
 20
-46.1707502706066
 30
0.0
 11
4.279292893476934
 21
0.0
 31
0.0
 12
0.0
 22
4.279292893476934
 32
0.0
 13
1.0
 23
1.0
340
0
 70
     7
280
     1
281
    50
282
    50
283
     0
290
     0
360
0
 71
     2
 91
        5
 14
-0.4397413638791116
 24
-0.5
 14
-0.4397413638791116
 24
0.5
 14
-0.5
 24
0.5
 14
-0.5
 24
-0.5
 14
-0.4397413638791116
 24
-0.5
  0
POLYLINE
  5
91
330
26
100
AcDbEntity
  8
一般
  6
Continuous
 62
     0
370
    25
100
AcDb2dPolyline
 66
     1
 10
0.0
 20
0.0
 30
0.0
 70
     1
 75
     5
  0
VERTEX
  5
92
330
91
100
AcDbEntity
  8
一般
  6
Continuous
 62
     0
370
    25
100
AcDbVertex
100
AcDb2dVertex
 10
-74.86714599043863
 20
-41.89145737712965
 30
0.0
  0
VERTEX
  5
93
330
91
100
AcDbEntity
  8
一般
  6
Continuous
 62
     0
370
    25
100
AcDbVertex
100
AcDb2dVertex
 10
-74.86714599043863
 20
-46.1707502706066
 30
0.0
  0
VERTEX
  5
94
330
91
100
AcDbEntity
  8
一般
  6
Continuous
 62
     0
370
    25
100
AcDbVertex
100
AcDb2dVertex
 10
-75.12501034376136
 20
-46.1707502706066
 30
0.0
  0
VERTEX
  5
95
330
91
100
AcDbEntity
  8
一般
  6
Continuous
 62
     0
370
    25
100
AcDbVertex
100
AcDb2dVertex
 10
-75.12501034376136
 20
-41.89145737712965
 30
0.0
  0
SEQEND
  5
96
330
91
100
AcDbEntity
  8
一般
  6
Continuous
 62
     0
370
    25
  0
WIPEOUT
  5
98
330
26
100
AcDbEntity
  8
一般
  6
Continuous
 62
     0
160
               296
310
2801000003000000940000002400000065ACE1A2495453C0E9041625DB1547C0000000000000000000000000000000000000000000000000000000000000F03F000000000000F03F000000000000000000000000000000000000000000000000000000000000F03F0000000000000000410063004400620057006900700065
310
006F00750074002000280057006900700065004F00750074002900000084000000060000000500000065ACE1A2495453C0E9041625DB1547C000000000000000008762E3B3B63B52C0E9041625DB1547C000000000000000008762E3B3B63B52C05C467C461BF244C0000000000000000065ACE1A2495453C05C467C461BF2
310
44C0000000000000000065ACE1A2495453C0E9041625DB1547C000000000000000000800000015000000
370
    25
100
AcDbWipeout
 90
        0
 10
-77.31699440039081
 20
-46.17075027060656
 30
0.0
 11
4.383968113258987
 21
0.0
 31
0.0
 12
0.0
 22
4.383968113258987
 32
0.0
 13
1.0
 23
1.0
340
0
 70
     7
280
     1
281
    50
282
    50
283
     0
290
     0
360
0
 71
     2
 91
       14
 14
0.0588198514817619
 24
0.0406461204799273
 14
0.0588198514817619
 24
0.5
 14
-0.0000000000000097
 24
0.5
 14
-0.0000000000000097
 24
0.0406461204799273
 14
-0.5
 24
0.0406461204799273
 14
-0.5
 24
0.0007106578174343
 14
-0.5
 24
-0.0167692999653154
 14
-0.0000000000000097
 24
-0.0167692999653154
 14
-0.0000000000000097
 24
-0.476123179485393
 14
0.0588198514817619
 24
-0.476123179485393
 14
0.0588198514817619
 24
-0.0167692999653154
 14
0.5
 24
-0.0167692999653154
 14
0.5
 24
0.0406461204799273
 14
0.0588198514817619
 24
0.0406461204799273
  0
POLYLINE
  5
99
330
26
100
AcDbEntity
  8
一般
  6
Continuous
 62
     0
370
    25
100
AcDb2dPolyline
 66
     1
 10
0.0
 20
0.0
 30
0.0
 70
     1
 75
     5
  0
VERTEX
  5
9A
330
99
100
AcDbEntity
  8
一般
  6
Continuous
 62
     0
370
    25
100
AcDbVertex
100
AcDb2dVertex
 10
-74.86714599043864
 20
-44.15695751008875
 30
0.0
  0
VERTEX
  5
9B
330
99
100
AcDbEntity
  8
一般
  6
Continuous
 62
     0
370
    25
100
AcDbVertex
100
AcDb2dVertex
 10
-74.86714599043864
 20
-46.17075027060656
 30
0.0
  0
VERTEX
  5
9C
330
99
100
AcDbEntity
  8
一般
  6
Continuous
 62
     0
370
    25
100
AcDbVertex
100
AcDb2dVertex
 10
-75.12501034376136
 20
-46.17075027060656
 30
0.0
  0
VERTEX
  5
9D
330
99
100
AcDbEntity
  8
一般
  6
Continuous
 62
     0
370
    25
100
AcDbVertex
100
AcDb2dVertex
 10
-75.12501034376136
 20
-44.15695751008875
 30
0.0
  0
VERTEX
  5
9E
330
99
100
AcDbEntity
  8
一般
  6
Continuous
 62
     0
370
    25
100
AcDbVertex
100
AcDb2dVertex
 10
-77.31699440039081
 20
-44.15695751008875
 30
0.0
  0
VERTEX
  5
9F
330
99
100
AcDbEntity
  8
一般
  6
Continuous
 62
     0
370
    25
100
AcDbVertex
100
AcDb2dVertex
 10
-77.31699440039081
 20
-43.98188171518813
 30
0.0
  0
VERTEX
  5
A0
330
99
100
AcDbEntity
  8
一般
  6
Continuous
 62
     0
370
    25
100
AcDbVertex
100
AcDb2dVertex
 10
-77.31699440039081
 20
-43.90525013764746
 30
0.0
  0
VERTEX
  5
A1
330
99
100
AcDbEntity
  8
一般
  6
Continuous
 62
     0
370
    25
100
AcDbVertex
100
AcDb2dVertex
 10
-75.12501034376136
 20
-43.90525013764746
 30
0.0
  0
VERTEX
  5
A2
330
99
100
AcDbEntity
  8
一般
  6
Continuous
 62
     0
370
    25
100
AcDbVertex
100
AcDb2dVertex
 10
-75.12501034376136
 20
-41.89145737712961
 30
0.0
  0
VERTEX
  5
A3
330
99
100
AcDbEntity
  8
一般
  6
Continuous
 62
     0
370
    25
100
AcDbVertex
100
AcDb2dVertex
 10
-74.86714599043864
 20
-41.89145737712961
 30
0.0
  0
VERTEX
  5
A4
330
99
100
AcDbEntity
  8
一般
  6
Continuous
 62
     0
370
    25
100
AcDbVertex
100
AcDb2dVertex
 10
-74.86714599043864
 20
-43.90525013764746
 30
0.0
  0
VERTEX
  5
A5
330
99
100
AcDbEntity
  8
一般
  6
Continuous
 62
     0
370
    25
100
AcDbVertex
100
AcDb2dVertex
 10
-72.93302628713181
 20
-43.90525013764746
 30
0.0
  0
VERTEX
  5
A6
330
99
100
AcDbEntity
  8
一般
  6
Continuous
 62
     0
370
    25
100
AcDbVertex
100
AcDb2dVertex
 10
-72.93302628713181
 20
-44.15695751008875
 30
0.0
  0
SEQEND
  5
A7
330
99
100
AcDbEntity
  8
一般
  6
Continuous
 62
     0
370
    25
  0
ENDBLK
  5
A9
330
26
100
AcDbEntity
  8
一般
100
AcDbBlockEnd
  0
BLOCK
  5
AA
330
27
100
AcDbEntity
  8
寸法
100
AcDbBlockBegin
  2
*D5
 70
     1
 10
0.0
 20
0.0
 30
0.0
  3
*D5
  1

  0
LINE
  5
AB
330
27
100
AcDbEntity
  8
寸法
  6
Continuous
 62
     0
440
 16777216
370
    -2
100
AcDbLine
 10
-80.0
 20
12.5875
 30
0.0
 11
-80.0
 21
29.175
 31
0.0
  0
LINE
  5
AC
330
27
100
AcDbEntity
  8
寸法
  6
Continuous
 62
     0
440
 16777216
370
    -2
100
AcDbLine
 10
-15.0
 20
12.5875
 30
0.0
 11
-15.0
 21
29.175
 31
0.0
  0
LINE
  5
AD
330
27
100
AcDbEntity
  8
寸法
  6
Continuous
 62
     0
440
 16777216
370
    -2
100
AcDbLine
 10
-81.58750000000001
 20
26.0
 30
0.0
 11
-80.0
 21
26.0
 31
0.0
  0
LINE
  5
AE
330
27
100
AcDbEntity
  8
寸法
  6
Continuous
 62
     0
440
 16777216
370
    -2
100
AcDbLine
 10
-15.0
 20
26.0
 30
0.0
 11
-13.4125
 21
26.0
 31
0.0
  0
LINE
  5
AF
330
27
100
AcDbEntity
  8
寸法
  6
Continuous
 62
     0
440
 16777216
370
    -2
100
AcDbLine
 10
-80.0
 20
26.0
 30
0.0
 11
-15.0
 21
26.0
 31
0.0
  0
POLYLINE
  5
B0
330
27
100
AcDbEntity
  8
一般
  6
Continuous
 62
     0
440
 16777216
370
    20
100
AcDb2dPolyline
 66
     1
 10
0.0
 20
0.0
 30
0.0
 75
     5
  0
VERTEX
  5
B1
330
B0
100
AcDbEntity
  8
一般
  6
Continuous
 62
     0
440
 16777216
370
    20
100
AcDbVertex
100
AcDb2dVertex
 10
-81.12253201513363
 20
24.87746798486636
 30
0.0
  0
VERTEX
  5
B2
330
B0
100
AcDbEntity
  8
一般
  6
Continuous
 62
     0
440
 16777216
370
    20
100
AcDbVertex
100
AcDb2dVertex
 10
-78.87746798486634
 20
27.12253201513365
 30
0.0
  0
SEQEND
  5
B3
330
B0
100
AcDbEntity
  8
一般
  6
Continuous
 62
     0
440
 16777216
370
    20
  0
POLYLINE
  5
B4
330
27
100
AcDbEntity
  8
一般
  6
Continuous
 62
     0
440
 16777216
370
    20
100
AcDb2dPolyline
 66
     1
 10
0.0
 20
0.0
 30
0.0
 75
     5
  0
VERTEX
  5
B5
330
B4
100
AcDbEntity
  8
一般
  6
Continuous
 62
     0
440
 16777216
370
    20
100
AcDbVertex
100
AcDb2dVertex
 10
-13.87746798486635
 20
27.12253201513365
 30
0.0
  0
VERTEX
  5
B6
330
B4
100
AcDbEntity
  8
一般
  6
Continuous
 62
     0
440
 16777216
370
    20
100
AcDbVertex
100
AcDb2dVertex
 10
-16.12253201513365
 20
24.87746798486636
 30
0.0
  0
SEQEND
  5
B7
330
B4
100
AcDbEntity
  8
一般
  6
Continuous
 62
     0
440
 16777216
370
    20
  0
MTEXT
  5
B8
330
27
100
AcDbEntity
  8
寸法
 62
     0
440
 16777216
100
AcDbMText
 10
-51.1958984375
 20
33.36302343750007
 30
0.0
 40
4.886523437500059
 41
0.0
 46
0.0
 71
     1
 72
     1
  1
{\fHGPｺﾞｼｯｸM|b0|i0|c128|p0;\l65}
 73
     1
 44
0.7828267384257844
  0
POINT
  5
B9
330
27
100
AcDbEntity
  8
Defpoints
 62
     0
440
 16777216
370
     0
100
AcDbPoint
 10
-15.0
 20
11.0
 30
0.0
  0
POINT
  5
BA
330
27
100
AcDbEntity
  8
Defpoints
 62
     0
440
 16777216
370
     0
100
AcDbPoint
 10
-80.0
 20
11.0
 30
0.0
  0
POINT
  5
BB
330
27
100
AcDbEntity
  8
Defpoints
 62
     0
440
 16777216
370
     0
100
AcDbPoint
 10
-80.0
 20
26.0
 30
0.0
  0
ENDBLK
  5
BC
330
27
100
AcDbEntity
  8
寸法
100
AcDbBlockEnd
  0
BLOCK
  5
BD
330
28
100
AcDbEntity
  8
一般
100
AcDbBlockBegin
  2
グループ-1
 70
     0
 10
0.0
 20
0.0
 30
0.0
  3
グループ-1
  1

  0
POLYLINE
  5
BE
330
28
100
AcDbEntity
  8
一般
  6
Continuous
 62
     7
370
    18
100
AcDb2dPolyline
 66
     1
 10
0.0
 20
0.0
 30
0.0
 70
     1
 75
     5
  0
VERTEX
  5
BF
330
BE
100
AcDbEntity
  8
一般
  6
Continuous
 62
     7
370
    18
100
AcDbVertex
100
AcDb2dVertex
 10
-68.40729109174403
 20
-83.3576369724801
 30
0.0
  0
VERTEX
  5
C0
330
BE
100
AcDbEntity
  8
一般
  6
Continuous
 62
     7
370
    18
100
AcDbVertex
100
AcDb2dVertex
 10
-68.40729109174403
 20
-33.3576369724801
 30
0.0
  0
VERTEX
  5
C1
330
BE
100
AcDbEntity
  8
一般
  6
Continuous
 62
     7
370
    18
100
AcDbVertex
100
AcDb2dVertex
 10
-58.40729109174402
 20
-33.3576369724801
 30
0.0
  0
VERTEX
  5
C2
330
BE
100
AcDbEntity
  8
一般
  6
Continuous
 62
     7
370
    18
100
AcDbVertex
100
AcDb2dVertex
 10
-58.40729109174402
 20
-83.3576369724801
 30
0.0
  0
SEQEND
  5
C3
330
BE
100
AcDbEntity
  8
一般
  6
Continuous
 62
     7
370
    18
  0
POLYLINE
  5
C5
330
28
100
AcDbEntity
  8
一般
  6
Continuous
 62
     7
370
    18
100
AcDb2dPolyline
 66
     1
 10
0.0
 20
0.0
 30
0.0
 70
     1
 75
     5
  0
VERTEX
  5
C6
330
C5
100
AcDbEntity
  8
一般
  6
Continuous
 62
     7
370
    18
100
AcDbVertex
100
AcDb2dVertex
 10
-67.92006717743085
 20
-82.8704130581668
 30
0.0
  0
VERTEX
  5
C7
330
C5
100
AcDbEntity
  8
一般
  6
Continuous
 62
     7
370
    18
100
AcDbVertex
100
AcDb2dVertex
 10
-67.92006717743085
 20
-33.8704130581668
 30
0.0
  0
VERTEX
  5
C8
330
C5
100
AcDbEntity
  8
一般
  6
Continuous
 62
     7
370
    18
100
AcDbVertex
100
AcDb2dVertex
 10
-58.92006717743085
 20
-33.8704130581668
 30
0.0
  0
VERTEX
  5
C9
330
C5
100
AcDbEntity
  8
一般
  6
Continuous
 62
     7
370
    18
100
AcDbVertex
100
AcDb2dVertex
 10
-58.92006717743085
 20
-82.8704130581668
 30
0.0
  0
SEQEND
  5
CA
330
C5
100
AcDbEntity
  8
一般
  6
Continuous
 62
     7
370
    18
  0
ENDBLK
  5
CC
330
28
100
AcDbEntity
  8
一般
100
AcDbBlockEnd
  0
BLOCK
  5
CD
330
29
100
AcDbEntity
  8
一般
100
AcDbBlockBegin
  2
グループ-2
 70
     0
 10
0.0
 20
0.0
 30
0.0
  3
グループ-2
  1

  0
WIPEOUT
  5
CE
330
29
100
AcDbEntity
  8
一般
  6
Continuous
 62
     0
160
               296
310
28010000030000009400000024000000E0C7DC8403283D4054BC85FEFF1F27C0000000000000000000000000000000000000000000000000000000000000F03F000000000000F03F000000000000000000000000000000000000000000000000000000000000F03F0000000000000000410063004400620057006900700065
310
006F00750074002000280057006900700065004F007500740029000000840000000600000005000000E0C7DC8403283D4054BC85FEFF1F27C00000000000000000F0636EC20114424054BC85FEFF1F27C00000000000000000F0636EC20114424054BC85FEFF1F21C00000000000000000E0C7DC8403283D4054BC85FEFF1F
310
21C00000000000000000E0C7DC8403283D4054BC85FEFF1F27C000000000000000000800000015000000
370
    18
100
AcDbWipeout
 90
        0
 10
29.15630369558483
 20
-11.56249995596423
 30
0.0
 11
7.0
 21
0.0
 31
0.0
 12
0.0
 22
7.0
 32
0.0
 13
1.0
 23
1.0
340
0
 70
     7
280
     1
281
    50
282
    50
283
     0
290
     0
360
0
 71
     2
 91
      262
 14
0.3333333333333327
 24
0.0714285714285715
 14
0.3374235380871511
 24
0.0714500843788426
 14
0.341511279054569
 24
0.0715146102710591
 14
0.3455940939332771
 24
0.0716221102372364
 14
0.3496695233882596
 24
0.0717725195234146
 14
0.3537351125332019
 24
0.0719657475286635
 14
0.3577884124092259
 24
0.0722016778596584
 14
0.3618269814600491
 24
0.07248016840079
 14
0.3658483870026876
 24
0.0728010513997691
 14
0.3698502066928111
 24
0.0731641335686766
 14
0.3738300299838764
 24
0.0735691962003897
 14
0.3777854595791489
 24
0.0740159953003258
 14
0.3817141128757433
 24
0.0745042617334136
 14
0.3856136233998149
 24
0.0750337013862116
 14
0.3894816422320356
 24
0.07560399534407
 14
0.393315839422498
 24
0.0762148000832329
 14
0.3971139053941813
 24
0.0768657476777653
 14
0.4008735523341643
 24
0.0775564460211763
 14
0.4045925155717133
 24
0.0782864790626111
 14
0.4082685549424343
 24
0.0790554070574631
 14
0.4118994561376662
 24
0.0798627668322602
 14
0.4154830320382966
 24
0.0807080720636635
 14
0.4190171240322026
 24
0.0815908135714091
 14
0.4224996033145152
 24
0.0825104596250209
 14
0.4259283721699327
 24
0.0834664562641039
 14
0.4293013652363068
 24
0.0844582276320298
 14
0.4326165507487384
 24
0.0854851763228111
 14
0.4358719317634369
 24
0.0865466837409566
 14
0.4390655473606071
 24
0.0876421104740902
 14
0.4421954738256285
 24
0.0887707966781083
 14
0.4452598258078363
 24
0.0899320624746459
 14
0.4482567574561774
 24
0.0911252083606094
 14
0.4511844635310903
 24
0.0923495156295324
 14
0.4540411804919112
 24
0.0936042468044952
 14
0.4568251875591594
 24
0.0948886460823558
 14
0.4595348077510806
 24
0.096201939789016
 14
0.4621684088937893
 24
0.0975433368454538
 14
0.4647244046044341
 24
0.0989120292442409
 14
0.4672012552467736
 24
0.1003071925362547
 14
0.4695974688585969
 24
0.1017279863272967
 14
0.4719116020504239
 24
0.1031735547843142
 14
0.4741422608749508
 24
0.1046430271509217
 14
0.476288101666712
 24
0.1061355182719129
 14
0.4783478318514511
 24
0.107650129126444
 14
0.4803202107247254
 24
0.1091859473695716
 14
0.4822040501992524
 24
0.1107420478818139
 14
0.4839982155205738
 24
0.1123174933264085
 14
0.4857016259505878
 24
0.1139113347139293
 14
0.4873132554185469
 24
0.1155226119739221
 14
0.4888321331391227
 24
0.117150354533215
 14
0.4902573441971694
 24
0.1187935819005558
 14
0.4915880300988392
 24
0.1204513042572221
 14
0.4928233892887012
 24
0.1221225230532527
 14
0.4939626776325728
 24
0.1238062316089358
 14
0.4950052088657567
 24
0.1255014157211955
 14
0.4959503550064214
 24
0.1272070542745092
 14
0.4967975467338713
 24
0.1289221198559908
 14
0.4975462737314901
 24
0.1306455793742641
 14
0.4981960849941294
 24
0.13237639468176
 14
0.4987465890997841
 24
0.134113523200056
 14
0.4991974544453656
 24
0.1358559185478886
 14
0.4995484094464483
 24
0.1376025311714523
 14
0.4997992427008617
 24
0.139352308976613
 14
0.4999498031160334
 24
0.141104197962649
 14
0.5
 24
0.1428571428571429
 14
0.5
 24
0.4285714285714287
 14
0.4999498031160334
 24
0.4303243734659225
 14
0.4997992427008617
 24
0.4320762624519584
 14
0.4995484094464483
 24
0.4338260402571192
 14
0.4991974544453656
 24
0.435572652880683
 14
0.4987465890997841
 24
0.4373150482285154
 14
0.4981960849941294
 24
0.4390521767468116
 14
0.4975462737314901
 24
0.4407829920543074
 14
0.4967975467338713
 24
0.4425064515725806
 14
0.4959503550064214
 24
0.4442215171540623
 14
0.4950052088657567
 24
0.445927155707376
 14
0.4939626776325728
 24
0.4476223398196356
 14
0.4928233892887012
 24
0.4493060483753187
 14
0.4915880300988392
 24
0.4509772671713494
 14
0.4902573441971694
 24
0.4526349895280157
 14
0.4888321331391227
 24
0.4542782168953564
 14
0.4873132554185469
 24
0.4559059594546495
 14
0.4857016259505878
 24
0.4575172367146421
 14
0.4839982155205738
 24
0.459111078102163
 14
0.4822040501992524
 24
0.4606865235467576
 14
0.4803202107247254
 24
0.462242624059
 14
0.4783478318514511
 24
0.4637784423021275
 14
0.476288101666712
 24
0.4652930531566586
 14
0.4741422608749508
 24
0.4667855442776498
 14
0.4719116020504239
 24
0.4682550166442573
 14
0.4695974688585969
 24
0.4697005851012748
 14
0.4672012552467736
 24
0.4711213788923169
 14
0.4647244046044341
 24
0.4725165421843305
 14
0.4621684088937893
 24
0.4738852345831176
 14
0.4595348077510806
 24
0.4752266316395554
 14
0.4568251875591594
 24
0.4765399253462156
 14
0.4540411804919112
 24
0.4778243246240762
 14
0.4511844635310903
 24
0.4790790557990391
 14
0.4482567574561774
 24
0.480303363067962
 14
0.4452598258078363
 24
0.4814965089539255
 14
0.4421954738256285
 24
0.4826577747504631
 14
0.4390655473606071
 24
0.4837864609544812
 14
0.4358719317634369
 24
0.4848818876876149
 14
0.4326165507487384
 24
0.4859433951057605
 14
0.4293013652363068
 24
0.4869703437965418
 14
0.4259283721699327
 24
0.4879621151644676
 14
0.4224996033145152
 24
0.4889181118035505
 14
0.4190171240322026
 24
0.4898377578571624
 14
0.4154830320382966
 24
0.490720499364908
 14
0.4118994561376662
 24
0.4915658045963112
 14
0.4082685549424343
 24
0.4923731643711083
 14
0.4045925155717133
 24
0.4931420923659604
 14
0.4008735523341643
 24
0.4938721254073952
 14
0.3971139053941813
 24
0.4945628237508062
 14
0.393315839422498
 24
0.4952137713453385
 14
0.3894816422320356
 24
0.4958245760845015
 14
0.3856136233998149
 24
0.4963948700423599
 14
0.3817141128757433
 24
0.4969243096951578
 14
0.3777854595791489
 24
0.4974125761282457
 14
0.3738300299838764
 24
0.4978593752281819
 14
0.3698502066928111
 24
0.4982644378598949
 14
0.3658483870026876
 24
0.4986275200288023
 14
0.3618269814600491
 24
0.4989484030277814
 14
0.3577884124092259
 24
0.499226893568913
 14
0.3537351125332019
 24
0.499462823899908
 14
0.3496695233882596
 24
0.4996560519051569
 14
0.3455940939332771
 24
0.4998064611913351
 14
0.341511279054569
 24
0.4999139611575125
 14
0.3374235380871511
 24
0.4999784870497289
 14
0.3333333333333327
 24
0.5
 14
-0.3333333333333332
 24
0.5
 14
-0.3333333333333337
 24
0.5
 14
-0.3374235380871526
 24
0.4999784870497289
 14
-0.34151127905457
 24
0.4999139611575125
 14
-0.3455940939332781
 24
0.4998064611913351
 14
-0.3496695233882607
 24
0.4996560519051569
 14
-0.3537351125332029
 24
0.499462823899908
 14
-0.3577884124092274
 24
0.499226893568913
 14
-0.3618269814600507
 24
0.4989484030277814
 14
-0.3658483870026882
 24
0.4986275200288023
 14
-0.369850206692812
 24
0.4982644378598949
 14
-0.3738300299838779
 24
0.4978593752281819
 14
-0.37778545957915
 24
0.4974125761282457
 14
-0.3817141128757439
 24
0.4969243096951578
 14
-0.3856136233998154
 24
0.4963948700423599
 14
-0.3894816422320372
 24
0.4958245760845015
 14
-0.3933158394224984
 24
0.4952137713453385
 14
-0.3971139053941819
 24
0.4945628237508062
 14
-0.4008735523341655
 24
0.4938721254073952
 14
-0.4045925155717138
 24
0.4931420923659604
 14
-0.4082685549424349
 24
0.4923731643711083
 14
-0.4118994561376665
 24
0.4915658045963112
 14
-0.4154830320382976
 24
0.490720499364908
 14
-0.4190171240322042
 24
0.4898377578571624
 14
-0.4224996033145163
 24
0.4889181118035505
 14
-0.4259283721699342
 24
0.4879621151644676
 14
-0.4293013652363078
 24
0.4869703437965418
 14
-0.4326165507487393
 24
0.4859433951057605
 14
-0.4358719317634384
 24
0.4848818876876149
 14
-0.439065547360608
 24
0.4837864609544812
 14
-0.4421954738256297
 24
0.4826577747504631
 14
-0.4452598258078367
 24
0.4814965089539255
 14
-0.4482567574561779
 24
0.480303363067962
 14
-0.4511844635310917
 24
0.4790790557990391
 14
-0.4540411804919116
 24
0.4778243246240762
 14
-0.4568251875591604
 24
0.4765399253462156
 14
-0.4595348077510809
 24
0.4752266316395554
 14
-0.4621684088937898
 24
0.4738852345831176
 14
-0.4647244046044347
 24
0.4725165421843305
 14
-0.4672012552467746
 24
0.4711213788923169
 14
-0.4695974688585974
 24
0.4697005851012748
 14
-0.4719116020504244
 24
0.4682550166442573
 14
-0.4741422608749514
 24
0.4667855442776498
 14
-0.4762881016667125
 24
0.4652930531566586
 14
-0.4783478318514521
 24
0.4637784423021275
 14
-0.4803202107247264
 24
0.462242624059
 14
-0.4822040501992529
 24
0.4606865235467576
 14
-0.4839982155205744
 24
0.459111078102163
 14
-0.4857016259505887
 24
0.4575172367146421
 14
-0.4873132554185479
 24
0.4559059594546495
 14
-0.4888321331391233
 24
0.4542782168953564
 14
-0.4902573441971703
 24
0.4526349895280157
 14
-0.4915880300988397
 24
0.4509772671713494
 14
-0.4928233892887017
 24
0.4493060483753187
 14
-0.4939626776325733
 24
0.4476223398196356
 14
-0.4950052088657578
 24
0.445927155707376
 14
-0.4959503550064218
 24
0.4442215171540623
 14
-0.4967975467338723
 24
0.4425064515725806
 14
-0.4975462737314906
 24
0.4407829920543074
 14
-0.4981960849941304
 24
0.4390521767468116
 14
-0.4987465890997851
 24
0.4373150482285154
 14
-0.4991974544453666
 24
0.435572652880683
 14
-0.4995484094464488
 24
0.4338260402571192
 14
-0.4997992427008624
 24
0.4320762624519584
 14
-0.4999498031160345
 24
0.4303243734659225
 14
-0.5
 24
0.4285714285714287
 14
-0.5
 24
0.1428571428571429
 14
-0.4999498031160345
 24
0.141104197962649
 14
-0.4997992427008624
 24
0.139352308976613
 14
-0.4995484094464488
 24
0.1376025311714523
 14
-0.4991974544453666
 24
0.1358559185478886
 14
-0.4987465890997851
 24
0.134113523200056
 14
-0.4981960849941304
 24
0.13237639468176
 14
-0.4975462737314906
 24
0.1306455793742641
 14
-0.4967975467338723
 24
0.1289221198559908
 14
-0.4959503550064218
 24
0.1272070542745092
 14
-0.4950052088657578
 24
0.1255014157211955
 14
-0.4939626776325733
 24
0.1238062316089358
 14
-0.4928233892887017
 24
0.1221225230532527
 14
-0.4915880300988397
 24
0.1204513042572221
 14
-0.4902573441971703
 24
0.1187935819005558
 14
-0.4888321331391233
 24
0.117150354533215
 14
-0.4873132554185479
 24
0.1155226119739221
 14
-0.4857016259505887
 24
0.1139113347139293
 14
-0.4839982155205744
 24
0.1123174933264085
 14
-0.4822040501992529
 24
0.1107420478818139
 14
-0.4803202107247264
 24
0.1091859473695716
 14
-0.4783478318514521
 24
0.107650129126444
 14
-0.4762881016667125
 24
0.1061355182719129
 14
-0.4741422608749514
 24
0.1046430271509217
 14
-0.4719116020504244
 24
0.1031735547843142
 14
-0.4695974688585974
 24
0.1017279863272967
 14
-0.4672012552467746
 24
0.1003071925362547
 14
-0.4647244046044347
 24
0.0989120292442409
 14
-0.4621684088937898
 24
0.0975433368454538
 14
-0.4595348077510809
 24
0.096201939789016
 14
-0.4568251875591604
 24
0.0948886460823558
 14
-0.4540411804919116
 24
0.0936042468044952
 14
-0.4511844635310917
 24
0.0923495156295324
 14
-0.4482567574561779
 24
0.0911252083606094
 14
-0.4452598258078367
 24
0.0899320624746459
 14
-0.4421954738256297
 24
0.0887707966781083
 14
-0.439065547360608
 24
0.0876421104740902
 14
-0.4358719317634384
 24
0.0865466837409566
 14
-0.4326165507487393
 24
0.0854851763228111
 14
-0.4293013652363078
 24
0.0844582276320298
 14
-0.4259283721699342
 24
0.0834664562641039
 14
-0.4224996033145163
 24
0.0825104596250209
 14
-0.4190171240322042
 24
0.0815908135714091
 14
-0.4154830320382976
 24
0.0807080720636635
 14
-0.4118994561376665
 24
0.0798627668322602
 14
-0.4082685549424349
 24
0.0790554070574631
 14
-0.4045925155717138
 24
0.0782864790626111
 14
-0.4008735523341655
 24
0.0775564460211763
 14
-0.3971139053941819
 24
0.0768657476777653
 14
-0.3933158394224984
 24
0.0762148000832329
 14
-0.3894816422320372
 24
0.07560399534407
 14
-0.3856136233998154
 24
0.0750337013862116
 14
-0.3817141128757439
 24
0.0745042617334136
 14
-0.37778545957915
 24
0.0740159953003258
 14
-0.3738300299838779
 24
0.0735691962003897
 14
-0.369850206692812
 24
0.0731641335686766
 14
-0.3658483870026882
 24
0.0728010513997691
 14
-0.3618269814600507
 24
0.07248016840079
 14
-0.3577884124092274
 24
0.0722016778596584
 14
-0.3537351125332029
 24
0.0719657475286635
 14
-0.3496695233882607
 24
0.0717725195234146
 14
-0.3455940939332781
 24
0.0716221102372364
 14
-0.34151127905457
 24
0.0715146102710591
 14
-0.3374235380871526
 24
0.0714500843788426
 14
-0.3333333333333337
 24
0.0714285714285715
 14
0.3333333333333327
 24
0.0714285714285715
  0
SPLINE
  5
CF
330
29
100
AcDbEntity
  8
一般
  6
Continuous
 62
     0
370
    18
100
AcDbSpline
210
0.0
220
0.0
230
1.0
 70
     9
 71
     2
 72
    28
 73
    25
 74
     0
 42
0.000001
 43
0.0000000001
 40
0.0
 40
0.0
 40
0.0
 40
1.0
 40
2.0
 40
3.0
 40
3.0
 40
4.0
 40
4.0
 40
5.0
 40
6.0
 40
7.0
 40
7.0
 40
8.0
 40
8.0
 40
9.0
 40
10.0
 40
11.0
 40
11.0
 40
12.0
 40
12.0
 40
13.0
 40
14.0
 40
15.0
 40
15.0
 40
16.0
 40
16.0
 40
16.0
 10
34.98963702891816
 20
-8.562499955964232
 30
0.0
 10
35.3022444200878
 20
-8.562499955964232
 30
0.0
 10
35.84369630441519
 20
-8.696474552179795
 30
0.0
 10
36.15630369558483
 20
-8.928525359748674
 30
0.0
 10
36.15630369558483
 20
-9.062499955964232
 30
0.0
 10
36.15630369558483
 20
-10.06249995596423
 30
0.0
 10
36.15630369558483
 20
-11.06249995596424
 30
0.0
 10
36.15630369558483
 20
-11.1964745521798
 30
0.0
 10
35.84369630441519
 20
-11.42852535974867
 30
0.0
 10
35.3022444200878
 20
-11.56249995596423
 30
0.0
 10
34.98963702891816
 20
-11.56249995596423
 30
0.0
 10
32.65630369558483
 20
-11.56249995596423
 30
0.0
 10
30.32297036225149
 20
-11.56249995596423
 30
0.0
 10
30.01036297108186
 20
-11.56249995596423
 30
0.0
 10
29.46891108675447
 20
-11.42852535974867
 30
0.0
 10
29.15630369558483
 20
-11.1964745521798
 30
0.0
 10
29.15630369558483
 20
-11.06249995596424
 30
0.0
 10
29.15630369558483
 20
-10.06249995596423
 30
0.0
 10
29.15630369558483
 20
-9.062499955964232
 30
0.0
 10
29.15630369558483
 20
-8.928525359748674
 30
0.0
 10
29.46891108675447
 20
-8.696474552179797
 30
0.0
 10
30.01036297108186
 20
-8.562499955964232
 30
0.0
 10
30.32297036225149
 20
-8.562499955964232
 30
0.0
 10
32.65630369558483
 20
-8.562499955964232
 30
0.0
 10
34.98963702891816
 20
-8.562499955964232
 30
0.0
  0
WIPEOUT
  5
D0
330
29
100
AcDbEntity
  8
一般
  6
Continuous
 62
     0
160
               296
310
28010000030000009400000024000000F0636EC20194404055BC85FEFF1F26C0000000000000000000000000000000000000000000000000000000000000F03F000000000000F03F000000000000000000000000000000000000000000000000000000000000F03F0000000000000000410063004400620057006900700065
310
006F00750074002000280057006900700065004F007500740029000000840000000600000005000000F0636EC20194404055BC85FEFF1F26C00000000000000000F0636EC20114424055BC85FEFF1F26C00000000000000000F0636EC20114424055BC85FEFF1F22C00000000000000000F0636EC20194404055BC85FEFF1F
310
22C00000000000000000F0636EC20194404055BC85FEFF1F26C000000000000000000800000015000000
370
    18
100
AcDbWipeout
 90
        0
 10
33.15630369558483
 20
-11.06249995596424
 30
0.0
 11
3.0
 21
0.0
 31
0.0
 12
0.0
 22
3.0
 32
0.0
 13
1.0
 23
1.0
340
0
 70
     7
280
     1
281
    50
282
    50
283
     0
290
     0
360
0
 71
     2
 91
        5
 14
-0.5
 24
-0.1666666666666666
 14
0.5
 24
-0.1666666666666666
 14
0.5
 24
0.5
 14
-0.5
 24
0.5
 14
-0.5
 24
-0.1666666666666666
  0
POLYLINE
  5
D1
330
29
100
AcDbEntity
  8
一般
  6
Continuous
 62
     0
370
    18
100
AcDb2dPolyline
 66
     1
 10
0.0
 20
0.0
 30
0.0
 70
     1
 75
     5
  0
VERTEX
  5
D2
330
D1
100
AcDbEntity
  8
一般
  6
Continuous
 62
     0
370
    18
100
AcDbVertex
100
AcDb2dVertex
 10
33.15630369558483
 20
-9.062499955964232
 30
0.0
  0
VERTEX
  5
D3
330
D1
100
AcDbEntity
  8
一般
  6
Continuous
 62
     0
370
    18
100
AcDbVertex
100
AcDb2dVertex
 10
36.15630369558483
 20
-9.062499955964232
 30
0.0
  0
VERTEX
  5
D4
330
D1
100
AcDbEntity
  8
一般
  6
Continuous
 62
     0
370
    18
100
AcDbVertex
100
AcDb2dVertex
 10
36.15630369558483
 20
-11.06249995596424
 30
0.0
  0
VERTEX
  5
D5
330
D1
100
AcDbEntity
  8
一般
  6
Continuous
 62
     0
370
    18
100
AcDbVertex
100
AcDb2dVertex
 10
33.15630369558483
 20
-11.06249995596424
 30
0.0
  0
SEQEND
  5
D6
330
D1
100
AcDbEntity
  8
一般
  6
Continuous
 62
     0
370
    18
  0
ENDBLK
  5
D8
330
29
100
AcDbEntity
  8
一般
100
AcDbBlockEnd
  0
BLOCK
  5
D9
330
2A
100
AcDbEntity
  8
一般
100
AcDbBlockBegin
  2
グループ-3
 70
     0
 10
0.0
 20
0.0
 30
0.0
  3
グループ-3
  1

  0
WIPEOUT
  5
DA
330
2A
100
AcDbEntity
  8
一般
  6
Continuous
 62
     0
160
               296
310
28010000030000009400000024000000E0C7DC8403283D4012F23D350BEB2DC0000000000000000000000000000000000000000000000000000000000000F03F000000000000F03F000000000000000000000000000000000000000000000000000000000000F03F0000000000000000410063004400620057006900700065
310
006F00750074002000280057006900700065004F007500740029000000840000000600000005000000E0C7DC8403283D4012F23D350BEB2DC00000000000000000F0636EC20114424012F23D350BEB2DC00000000000000000F0636EC20114424012F23D350BEB27C00000000000000000E0C7DC8403283D4012F23D350BEB
310
27C00000000000000000E0C7DC8403283D4012F23D350BEB2DC000000000000000000800000015000000
370
    18
100
AcDbWipeout
 90
        0
 10
29.15630369558483
 20
-14.95906988507434
 30
0.0
 11
7.0
 21
0.0
 31
0.0
 12
0.0
 22
7.0
 32
0.0
 13
1.0
 23
1.0
340
0
 70
     7
280
     1
281
    50
282
    50
283
     0
290
     0
360
0
 71
     2
 91
      262
 14
0.3333333333333327
 24
0.0714285714285715
 14
0.3374235380871511
 24
0.0714500843788426
 14
0.341511279054569
 24
0.0715146102710591
 14
0.3455940939332771
 24
0.0716221102372364
 14
0.3496695233882596
 24
0.0717725195234146
 14
0.3537351125332019
 24
0.0719657475286635
 14
0.3577884124092259
 24
0.0722016778596584
 14
0.3618269814600491
 24
0.07248016840079
 14
0.3658483870026876
 24
0.0728010513997691
 14
0.3698502066928111
 24
0.0731641335686766
 14
0.3738300299838764
 24
0.0735691962003897
 14
0.3777854595791489
 24
0.0740159953003258
 14
0.3817141128757433
 24
0.0745042617334136
 14
0.3856136233998149
 24
0.0750337013862116
 14
0.3894816422320356
 24
0.07560399534407
 14
0.393315839422498
 24
0.0762148000832329
 14
0.3971139053941813
 24
0.0768657476777653
 14
0.4008735523341643
 24
0.0775564460211763
 14
0.4045925155717133
 24
0.0782864790626111
 14
0.4082685549424343
 24
0.0790554070574631
 14
0.4118994561376662
 24
0.0798627668322602
 14
0.4154830320382966
 24
0.0807080720636635
 14
0.4190171240322026
 24
0.0815908135714091
 14
0.4224996033145152
 24
0.0825104596250209
 14
0.4259283721699327
 24
0.0834664562641039
 14
0.4293013652363068
 24
0.0844582276320298
 14
0.4326165507487384
 24
0.0854851763228111
 14
0.4358719317634369
 24
0.0865466837409566
 14
0.4390655473606071
 24
0.0876421104740902
 14
0.4421954738256285
 24
0.0887707966781083
 14
0.4452598258078363
 24
0.0899320624746459
 14
0.4482567574561774
 24
0.0911252083606094
 14
0.4511844635310903
 24
0.0923495156295324
 14
0.4540411804919112
 24
0.0936042468044952
 14
0.4568251875591594
 24
0.0948886460823558
 14
0.4595348077510806
 24
0.096201939789016
 14
0.4621684088937893
 24
0.0975433368454538
 14
0.4647244046044341
 24
0.0989120292442409
 14
0.4672012552467736
 24
0.1003071925362547
 14
0.4695974688585969
 24
0.1017279863272967
 14
0.4719116020504239
 24
0.1031735547843142
 14
0.4741422608749508
 24
0.1046430271509217
 14
0.476288101666712
 24
0.1061355182719129
 14
0.4783478318514511
 24
0.107650129126444
 14
0.4803202107247254
 24
0.1091859473695716
 14
0.4822040501992524
 24
0.1107420478818139
 14
0.4839982155205738
 24
0.1123174933264085
 14
0.4857016259505878
 24
0.1139113347139293
 14
0.4873132554185469
 24
0.1155226119739221
 14
0.4888321331391227
 24
0.117150354533215
 14
0.4902573441971694
 24
0.1187935819005558
 14
0.4915880300988392
 24
0.1204513042572221
 14
0.4928233892887012
 24
0.1221225230532527
 14
0.4939626776325728
 24
0.1238062316089358
 14
0.4950052088657567
 24
0.1255014157211955
 14
0.4959503550064214
 24
0.1272070542745092
 14
0.4967975467338713
 24
0.1289221198559908
 14
0.4975462737314901
 24
0.1306455793742641
 14
0.4981960849941294
 24
0.13237639468176
 14
0.4987465890997841
 24
0.134113523200056
 14
0.4991974544453656
 24
0.1358559185478886
 14
0.4995484094464483
 24
0.1376025311714523
 14
0.4997992427008617
 24
0.139352308976613
 14
0.4999498031160334
 24
0.141104197962649
 14
0.5
 24
0.1428571428571429
 14
0.5
 24
0.4285714285714287
 14
0.4999498031160334
 24
0.4303243734659225
 14
0.4997992427008617
 24
0.4320762624519584
 14
0.4995484094464483
 24
0.4338260402571192
 14
0.4991974544453656
 24
0.435572652880683
 14
0.4987465890997841
 24
0.4373150482285154
 14
0.4981960849941294
 24
0.4390521767468116
 14
0.4975462737314901
 24
0.4407829920543074
 14
0.4967975467338713
 24
0.4425064515725806
 14
0.4959503550064214
 24
0.4442215171540623
 14
0.4950052088657567
 24
0.445927155707376
 14
0.4939626776325728
 24
0.4476223398196356
 14
0.4928233892887012
 24
0.4493060483753187
 14
0.4915880300988392
 24
0.4509772671713494
 14
0.4902573441971694
 24
0.4526349895280157
 14
0.4888321331391227
 24
0.4542782168953564
 14
0.4873132554185469
 24
0.4559059594546495
 14
0.4857016259505878
 24
0.4575172367146421
 14
0.4839982155205738
 24
0.459111078102163
 14
0.4822040501992524
 24
0.4606865235467576
 14
0.4803202107247254
 24
0.462242624059
 14
0.4783478318514511
 24
0.4637784423021275
 14
0.476288101666712
 24
0.4652930531566586
 14
0.4741422608749508
 24
0.4667855442776498
 14
0.4719116020504239
 24
0.4682550166442573
 14
0.4695974688585969
 24
0.4697005851012748
 14
0.4672012552467736
 24
0.4711213788923169
 14
0.4647244046044341
 24
0.4725165421843305
 14
0.4621684088937893
 24
0.4738852345831176
 14
0.4595348077510806
 24
0.4752266316395554
 14
0.4568251875591594
 24
0.4765399253462156
 14
0.4540411804919112
 24
0.4778243246240762
 14
0.4511844635310903
 24
0.4790790557990391
 14
0.4482567574561774
 24
0.480303363067962
 14
0.4452598258078363
 24
0.4814965089539255
 14
0.4421954738256285
 24
0.4826577747504631
 14
0.4390655473606071
 24
0.4837864609544812
 14
0.4358719317634369
 24
0.4848818876876149
 14
0.4326165507487384
 24
0.4859433951057605
 14
0.4293013652363068
 24
0.4869703437965418
 14
0.4259283721699327
 24
0.4879621151644676
 14
0.4224996033145152
 24
0.4889181118035505
 14
0.4190171240322026
 24
0.4898377578571624
 14
0.4154830320382966
 24
0.490720499364908
 14
0.4118994561376662
 24
0.4915658045963112
 14
0.4082685549424343
 24
0.4923731643711083
 14
0.4045925155717133
 24
0.4931420923659604
 14
0.4008735523341643
 24
0.4938721254073952
 14
0.3971139053941813
 24
0.4945628237508062
 14
0.393315839422498
 24
0.4952137713453385
 14
0.3894816422320356
 24
0.4958245760845015
 14
0.3856136233998149
 24
0.4963948700423599
 14
0.3817141128757433
 24
0.4969243096951578
 14
0.3777854595791489
 24
0.4974125761282457
 14
0.3738300299838764
 24
0.4978593752281819
 14
0.3698502066928111
 24
0.4982644378598949
 14
0.3658483870026876
 24
0.4986275200288023
 14
0.3618269814600491
 24
0.4989484030277814
 14
0.3577884124092259
 24
0.499226893568913
 14
0.3537351125332019
 24
0.499462823899908
 14
0.3496695233882596
 24
0.4996560519051569
 14
0.3455940939332771
 24
0.4998064611913351
 14
0.341511279054569
 24
0.4999139611575125
 14
0.3374235380871511
 24
0.4999784870497289
 14
0.3333333333333327
 24
0.5
 14
-0.3333333333333332
 24
0.5
 14
-0.3333333333333337
 24
0.5
 14
-0.3374235380871526
 24
0.4999784870497289
 14
-0.34151127905457
 24
0.4999139611575125
 14
-0.3455940939332781
 24
0.4998064611913351
 14
-0.3496695233882607
 24
0.4996560519051569
 14
-0.3537351125332029
 24
0.499462823899908
 14
-0.3577884124092274
 24
0.499226893568913
 14
-0.3618269814600507
 24
0.4989484030277814
 14
-0.3658483870026882
 24
0.4986275200288023
 14
-0.369850206692812
 24
0.4982644378598949
 14
-0.3738300299838779
 24
0.4978593752281819
 14
-0.37778545957915
 24
0.4974125761282457
 14
-0.3817141128757439
 24
0.4969243096951578
 14
-0.3856136233998154
 24
0.4963948700423599
 14
-0.3894816422320372
 24
0.4958245760845015
 14
-0.3933158394224984
 24
0.4952137713453385
 14
-0.3971139053941819
 24
0.4945628237508062
 14
-0.4008735523341655
 24
0.4938721254073952
 14
-0.4045925155717138
 24
0.4931420923659604
 14
-0.4082685549424349
 24
0.4923731643711083
 14
-0.4118994561376665
 24
0.4915658045963112
 14
-0.4154830320382976
 24
0.490720499364908
 14
-0.4190171240322042
 24
0.4898377578571624
 14
-0.4224996033145163
 24
0.4889181118035505
 14
-0.4259283721699342
 24
0.4879621151644676
 14
-0.4293013652363078
 24
0.4869703437965418
 14
-0.4326165507487393
 24
0.4859433951057605
 14
-0.4358719317634384
 24
0.4848818876876149
 14
-0.439065547360608
 24
0.4837864609544812
 14
-0.4421954738256297
 24
0.4826577747504631
 14
-0.4452598258078367
 24
0.4814965089539255
 14
-0.4482567574561779
 24
0.480303363067962
 14
-0.4511844635310917
 24
0.4790790557990391
 14
-0.4540411804919116
 24
0.4778243246240762
 14
-0.4568251875591604
 24
0.4765399253462156
 14
-0.4595348077510809
 24
0.4752266316395554
 14
-0.4621684088937898
 24
0.4738852345831176
 14
-0.4647244046044347
 24
0.4725165421843305
 14
-0.4672012552467746
 24
0.4711213788923169
 14
-0.4695974688585974
 24
0.4697005851012748
 14
-0.4719116020504244
 24
0.4682550166442573
 14
-0.4741422608749514
 24
0.4667855442776498
 14
-0.4762881016667125
 24
0.4652930531566586
 14
-0.4783478318514521
 24
0.4637784423021275
 14
-0.4803202107247264
 24
0.462242624059
 14
-0.4822040501992529
 24
0.4606865235467576
 14
-0.4839982155205744
 24
0.459111078102163
 14
-0.4857016259505887
 24
0.4575172367146421
 14
-0.4873132554185479
 24
0.4559059594546495
 14
-0.4888321331391233
 24
0.4542782168953564
 14
-0.4902573441971703
 24
0.4526349895280157
 14
-0.4915880300988397
 24
0.4509772671713494
 14
-0.4928233892887017
 24
0.4493060483753187
 14
-0.4939626776325733
 24
0.4476223398196356
 14
-0.4950052088657578
 24
0.445927155707376
 14
-0.4959503550064218
 24
0.4442215171540623
 14
-0.4967975467338723
 24
0.4425064515725806
 14
-0.4975462737314906
 24
0.4407829920543074
 14
-0.4981960849941304
 24
0.4390521767468116
 14
-0.4987465890997851
 24
0.4373150482285154
 14
-0.4991974544453666
 24
0.435572652880683
 14
-0.4995484094464488
 24
0.4338260402571192
 14
-0.4997992427008624
 24
0.4320762624519584
 14
-0.4999498031160345
 24
0.4303243734659225
 14
-0.5
 24
0.4285714285714287
 14
-0.5
 24
0.1428571428571429
 14
-0.4999498031160345
 24
0.141104197962649
 14
-0.4997992427008624
 24
0.139352308976613
 14
-0.4995484094464488
 24
0.1376025311714523
 14
-0.4991974544453666
 24
0.1358559185478886
 14
-0.4987465890997851
 24
0.134113523200056
 14
-0.4981960849941304
 24
0.13237639468176
 14
-0.4975462737314906
 24
0.1306455793742641
 14
-0.4967975467338723
 24
0.1289221198559908
 14
-0.4959503550064218
 24
0.1272070542745092
 14
-0.4950052088657578
 24
0.1255014157211955
 14
-0.4939626776325733
 24
0.1238062316089358
 14
-0.4928233892887017
 24
0.1221225230532527
 14
-0.4915880300988397
 24
0.1204513042572221
 14
-0.4902573441971703
 24
0.1187935819005558
 14
-0.4888321331391233
 24
0.117150354533215
 14
-0.4873132554185479
 24
0.1155226119739221
 14
-0.4857016259505887
 24
0.1139113347139293
 14
-0.4839982155205744
 24
0.1123174933264085
 14
-0.4822040501992529
 24
0.1107420478818139
 14
-0.4803202107247264
 24
0.1091859473695716
 14
-0.4783478318514521
 24
0.107650129126444
 14
-0.4762881016667125
 24
0.1061355182719129
 14
-0.4741422608749514
 24
0.1046430271509217
 14
-0.4719116020504244
 24
0.1031735547843142
 14
-0.4695974688585974
 24
0.1017279863272967
 14
-0.4672012552467746
 24
0.1003071925362547
 14
-0.4647244046044347
 24
0.0989120292442409
 14
-0.4621684088937898
 24
0.0975433368454538
 14
-0.4595348077510809
 24
0.096201939789016
 14
-0.4568251875591604
 24
0.0948886460823558
 14
-0.4540411804919116
 24
0.0936042468044952
 14
-0.4511844635310917
 24
0.0923495156295324
 14
-0.4482567574561779
 24
0.0911252083606094
 14
-0.4452598258078367
 24
0.0899320624746459
 14
-0.4421954738256297
 24
0.0887707966781083
 14
-0.439065547360608
 24
0.0876421104740902
 14
-0.4358719317634384
 24
0.0865466837409566
 14
-0.4326165507487393
 24
0.0854851763228111
 14
-0.4293013652363078
 24
0.0844582276320298
 14
-0.4259283721699342
 24
0.0834664562641039
 14
-0.4224996033145163
 24
0.0825104596250209
 14
-0.4190171240322042
 24
0.0815908135714091
 14
-0.4154830320382976
 24
0.0807080720636635
 14
-0.4118994561376665
 24
0.0798627668322602
 14
-0.4082685549424349
 24
0.0790554070574631
 14
-0.4045925155717138
 24
0.0782864790626111
 14
-0.4008735523341655
 24
0.0775564460211763
 14
-0.3971139053941819
 24
0.0768657476777653
 14
-0.3933158394224984
 24
0.0762148000832329
 14
-0.3894816422320372
 24
0.07560399534407
 14
-0.3856136233998154
 24
0.0750337013862116
 14
-0.3817141128757439
 24
0.0745042617334136
 14
-0.37778545957915
 24
0.0740159953003258
 14
-0.3738300299838779
 24
0.0735691962003897
 14
-0.369850206692812
 24
0.0731641335686766
 14
-0.3658483870026882
 24
0.0728010513997691
 14
-0.3618269814600507
 24
0.07248016840079
 14
-0.3577884124092274
 24
0.0722016778596584
 14
-0.3537351125332029
 24
0.0719657475286635
 14
-0.3496695233882607
 24
0.0717725195234146
 14
-0.3455940939332781
 24
0.0716221102372364
 14
-0.34151127905457
 24
0.0715146102710591
 14
-0.3374235380871526
 24
0.0714500843788426
 14
-0.3333333333333337
 24
0.0714285714285715
 14
0.3333333333333327
 24
0.0714285714285715
  0
SPLINE
  5
DB
330
2A
100
AcDbEntity
  8
一般
  6
Continuous
 62
     0
370
    18
100
AcDbSpline
210
0.0
220
0.0
230
1.0
 70
     9
 71
     2
 72
    28
 73
    25
 74
     0
 42
0.000001
 43
0.0000000001
 40
0.0
 40
0.0
 40
0.0
 40
1.0
 40
2.0
 40
3.0
 40
3.0
 40
4.0
 40
4.0
 40
5.0
 40
6.0
 40
7.0
 40
7.0
 40
8.0
 40
8.0
 40
9.0
 40
10.0
 40
11.0
 40
11.0
 40
12.0
 40
12.0
 40
13.0
 40
14.0
 40
15.0
 40
15.0
 40
16.0
 40
16.0
 40
16.0
 10
34.98963702891816
 20
-11.95906988507434
 30
0.0
 10
35.3022444200878
 20
-11.95906988507434
 30
0.0
 10
35.84369630441519
 20
-12.0930444812899
 30
0.0
 10
36.15630369558483
 20
-12.32509528885878
 30
0.0
 10
36.15630369558483
 20
-12.45906988507434
 30
0.0
 10
36.15630369558483
 20
-13.45906988507434
 30
0.0
 10
36.15630369558483
 20
-14.45906988507434
 30
0.0
 10
36.15630369558483
 20
-14.5930444812899
 30
0.0
 10
35.84369630441519
 20
-14.82509528885878
 30
0.0
 10
35.3022444200878
 20
-14.95906988507434
 30
0.0
 10
34.98963702891816
 20
-14.95906988507434
 30
0.0
 10
32.65630369558483
 20
-14.95906988507434
 30
0.0
 10
30.32297036225149
 20
-14.95906988507434
 30
0.0
 10
30.01036297108186
 20
-14.95906988507434
 30
0.0
 10
29.46891108675447
 20
-14.82509528885878
 30
0.0
 10
29.15630369558483
 20
-14.59304448128991
 30
0.0
 10
29.15630369558483
 20
-14.45906988507434
 30
0.0
 10
29.15630369558483
 20
-13.45906988507434
 30
0.0
 10
29.15630369558483
 20
-12.45906988507434
 30
0.0
 10
29.15630369558483
 20
-12.32509528885878
 30
0.0
 10
29.46891108675447
 20
-12.09304448128991
 30
0.0
 10
30.01036297108186
 20
-11.95906988507434
 30
0.0
 10
30.32297036225149
 20
-11.95906988507434
 30
0.0
 10
32.65630369558483
 20
-11.95906988507434
 30
0.0
 10
34.98963702891816
 20
-11.95906988507434
 30
0.0
  0
WIPEOUT
  5
DC
330
2A
100
AcDbEntity
  8
一般
  6
Continuous
 62
     0
160
               296
310
28010000030000009400000024000000F0636EC20194404012F23D350BEB2CC0000000000000000000000000000000000000000000000000000000000000F03F000000000000F03F000000000000000000000000000000000000000000000000000000000000F03F0000000000000000410063004400620057006900700065
310
006F00750074002000280057006900700065004F007500740029000000840000000600000005000000F0636EC20194404012F23D350BEB2CC00000000000000000F0636EC20114424012F23D350BEB2CC00000000000000000F0636EC20114424012F23D350BEB28C00000000000000000F0636EC20194404012F23D350BEB
310
28C00000000000000000F0636EC20194404012F23D350BEB2CC000000000000000000800000015000000
370
    18
100
AcDbWipeout
 90
        0
 10
33.15630369558483
 20
-14.45906988507434
 30
0.0
 11
3.0
 21
0.0
 31
0.0
 12
0.0
 22
3.0
 32
0.0
 13
1.0
 23
1.0
340
0
 70
     7
280
     1
281
    50
282
    50
283
     0
290
     0
360
0
 71
     2
 91
        5
 14
-0.5
 24
-0.1666666666666666
 14
0.5
 24
-0.1666666666666666
 14
0.5
 24
0.5
 14
-0.5
 24
0.5
 14
-0.5
 24
-0.1666666666666666
  0
POLYLINE
  5
DD
330
2A
100
AcDbEntity
  8
一般
  6
Continuous
 62
     0
370
    18
100
AcDb2dPolyline
 66
     1
 10
0.0
 20
0.0
 30
0.0
 70
     1
 75
     5
  0
VERTEX
  5
DE
330
DD
100
AcDbEntity
  8
一般
  6
Continuous
 62
     0
370
    18
100
AcDbVertex
100
AcDb2dVertex
 10
33.15630369558483
 20
-12.45906988507434
 30
0.0
  0
VERTEX
  5
DF
330
DD
100
AcDbEntity
  8
一般
  6
Continuous
 62
     0
370
    18
100
AcDbVertex
100
AcDb2dVertex
 10
36.15630369558483
 20
-12.45906988507434
 30
0.0
  0
VERTEX
  5
E0
330
DD
100
AcDbEntity
  8
一般
  6
Continuous
 62
     0
370
    18
100
AcDbVertex
100
AcDb2dVertex
 10
36.15630369558483
 20
-14.45906988507434
 30
0.0
  0
VERTEX
  5
E1
330
DD
100
AcDbEntity
  8
一般
  6
Continuous
 62
     0
370
    18
100
AcDbVertex
100
AcDb2dVertex
 10
33.15630369558483
 20
-14.45906988507434
 30
0.0
  0
SEQEND
  5
E2
330
DD
100
AcDbEntity
  8
一般
  6
Continuous
 62
     0
370
    18
  0
ENDBLK
  5
E4
330
2A
100
AcDbEntity
  8
一般
100
AcDbBlockEnd
  0
BLOCK
  5
E5
330
2B
100
AcDbEntity
  8
一般
100
AcDbBlockBegin
  2
グループ-4
 70
     0
 10
0.0
 20
0.0
 30
0.0
  3
グループ-4
  1

  0
WIPEOUT
  5
E6
330
2B
100
AcDbEntity
  8
一般
  6
Continuous
 62
     0
160
               296
310
28010000030000009400000024000000E0C7DC8403283D40FAAA0FCCCC5C32C0000000000000000000000000000000000000000000000000000000000000F03F000000000000F03F000000000000000000000000000000000000000000000000000000000000F03F0000000000000000410063004400620057006900700065
310
006F00750074002000280057006900700065004F007500740029000000840000000600000005000000E0C7DC8403283D40FAAA0FCCCC5C32C00000000000000000F0636EC201144240FAAA0FCCCC5C32C00000000000000000F0636EC201144240F4551F9899B92EC00000000000000000E0C7DC8403283D40F4551F9899B9
310
2EC00000000000000000E0C7DC8403283D40FAAA0FCCCC5C32C000000000000000000800000015000000
370
    18
100
AcDbWipeout
 90
        0
 10
29.15630369558483
 20
-18.36249995596424
 30
0.0
 11
7.0
 21
0.0
 31
0.0
 12
0.0
 22
7.0
 32
0.0
 13
1.0
 23
1.0
340
0
 70
     7
280
     1
281
    50
282
    50
283
     0
290
     0
360
0
 71
     2
 91
      262
 14
0.3333333333333327
 24
0.0714285714285715
 14
0.3374235380871511
 24
0.0714500843788426
 14
0.341511279054569
 24
0.0715146102710591
 14
0.3455940939332771
 24
0.0716221102372364
 14
0.3496695233882596
 24
0.0717725195234146
 14
0.3537351125332019
 24
0.0719657475286635
 14
0.3577884124092259
 24
0.0722016778596584
 14
0.3618269814600491
 24
0.07248016840079
 14
0.3658483870026876
 24
0.0728010513997691
 14
0.3698502066928111
 24
0.0731641335686766
 14
0.3738300299838764
 24
0.0735691962003897
 14
0.3777854595791489
 24
0.0740159953003258
 14
0.3817141128757433
 24
0.0745042617334136
 14
0.3856136233998149
 24
0.0750337013862116
 14
0.3894816422320356
 24
0.07560399534407
 14
0.393315839422498
 24
0.0762148000832329
 14
0.3971139053941813
 24
0.0768657476777653
 14
0.4008735523341643
 24
0.0775564460211763
 14
0.4045925155717133
 24
0.0782864790626111
 14
0.4082685549424343
 24
0.0790554070574631
 14
0.4118994561376662
 24
0.0798627668322602
 14
0.4154830320382966
 24
0.0807080720636635
 14
0.4190171240322026
 24
0.0815908135714091
 14
0.4224996033145152
 24
0.0825104596250209
 14
0.4259283721699327
 24
0.0834664562641039
 14
0.4293013652363068
 24
0.0844582276320298
 14
0.4326165507487384
 24
0.0854851763228111
 14
0.4358719317634369
 24
0.0865466837409566
 14
0.4390655473606071
 24
0.0876421104740902
 14
0.4421954738256285
 24
0.0887707966781083
 14
0.4452598258078363
 24
0.0899320624746459
 14
0.4482567574561774
 24
0.0911252083606094
 14
0.4511844635310903
 24
0.0923495156295324
 14
0.4540411804919112
 24
0.0936042468044952
 14
0.4568251875591594
 24
0.0948886460823558
 14
0.4595348077510806
 24
0.096201939789016
 14
0.4621684088937893
 24
0.0975433368454538
 14
0.4647244046044341
 24
0.0989120292442409
 14
0.4672012552467736
 24
0.1003071925362547
 14
0.4695974688585969
 24
0.1017279863272967
 14
0.4719116020504239
 24
0.1031735547843142
 14
0.4741422608749508
 24
0.1046430271509217
 14
0.476288101666712
 24
0.1061355182719129
 14
0.4783478318514511
 24
0.107650129126444
 14
0.4803202107247254
 24
0.1091859473695716
 14
0.4822040501992524
 24
0.1107420478818139
 14
0.4839982155205738
 24
0.1123174933264085
 14
0.4857016259505878
 24
0.1139113347139293
 14
0.4873132554185469
 24
0.1155226119739221
 14
0.4888321331391227
 24
0.117150354533215
 14
0.4902573441971694
 24
0.1187935819005558
 14
0.4915880300988392
 24
0.1204513042572221
 14
0.4928233892887012
 24
0.1221225230532527
 14
0.4939626776325728
 24
0.1238062316089358
 14
0.4950052088657567
 24
0.1255014157211955
 14
0.4959503550064214
 24
0.1272070542745092
 14
0.4967975467338713
 24
0.1289221198559908
 14
0.4975462737314901
 24
0.1306455793742641
 14
0.4981960849941294
 24
0.13237639468176
 14
0.4987465890997841
 24
0.134113523200056
 14
0.4991974544453656
 24
0.1358559185478886
 14
0.4995484094464483
 24
0.1376025311714523
 14
0.4997992427008617
 24
0.139352308976613
 14
0.4999498031160334
 24
0.141104197962649
 14
0.5
 24
0.1428571428571429
 14
0.5
 24
0.4285714285714287
 14
0.4999498031160334
 24
0.4303243734659225
 14
0.4997992427008617
 24
0.4320762624519584
 14
0.4995484094464483
 24
0.4338260402571192
 14
0.4991974544453656
 24
0.435572652880683
 14
0.4987465890997841
 24
0.4373150482285157
 14
0.4981960849941294
 24
0.4390521767468116
 14
0.4975462737314901
 24
0.4407829920543074
 14
0.4967975467338713
 24
0.4425064515725806
 14
0.4959503550064214
 24
0.4442215171540619
 14
0.4950052088657567
 24
0.445927155707376
 14
0.4939626776325728
 24
0.4476223398196356
 14
0.4928233892887012
 24
0.4493060483753187
 14
0.4915880300988392
 24
0.4509772671713494
 14
0.4902573441971694
 24
0.4526349895280159
 14
0.4888321331391227
 24
0.4542782168953563
 14
0.4873132554185469
 24
0.4559059594546495
 14
0.4857016259505878
 24
0.4575172367146421
 14
0.4839982155205738
 24
0.4591110781021633
 14
0.4822040501992524
 24
0.4606865235467578
 14
0.4803202107247254
 24
0.4622426240589996
 14
0.4783478318514511
 24
0.4637784423021273
 14
0.476288101666712
 24
0.465293053156659
 14
0.4741422608749508
 24
0.4667855442776501
 14
0.4719116020504239
 24
0.4682550166442573
 14
0.4695974688585969
 24
0.4697005851012744
 14
0.4672012552467736
 24
0.4711213788923169
 14
0.4647244046044341
 24
0.4725165421843305
 14
0.4621684088937893
 24
0.4738852345831174
 14
0.4595348077510806
 24
0.4752266316395556
 14
0.4568251875591594
 24
0.4765399253462154
 14
0.4540411804919112
 24
0.477824324624076
 14
0.4511844635310903
 24
0.4790790557990391
 14
0.4482567574561774
 24
0.4803033630679617
 14
0.4452598258078363
 24
0.4814965089539259
 14
0.4421954738256285
 24
0.4826577747504633
 14
0.4390655473606071
 24
0.4837864609544812
 14
0.4358719317634369
 24
0.4848818876876149
 14
0.4326165507487384
 24
0.4859433951057605
 14
0.4293013652363068
 24
0.4869703437965418
 14
0.4259283721699327
 24
0.4879621151644679
 14
0.4224996033145152
 24
0.4889181118035505
 14
0.4190171240322026
 24
0.4898377578571624
 14
0.4154830320382966
 24
0.4907204993649081
 14
0.4118994561376662
 24
0.4915658045963112
 14
0.4082685549424343
 24
0.4923731643711083
 14
0.4045925155717133
 24
0.4931420923659604
 14
0.4008735523341643
 24
0.4938721254073952
 14
0.3971139053941813
 24
0.4945628237508062
 14
0.393315839422498
 24
0.4952137713453385
 14
0.3894816422320356
 24
0.4958245760845017
 14
0.3856136233998149
 24
0.4963948700423596
 14
0.3817141128757433
 24
0.4969243096951577
 14
0.3777854595791489
 24
0.497412576128246
 14
0.3738300299838764
 24
0.4978593752281816
 14
0.3698502066928111
 24
0.4982644378598949
 14
0.3658483870026876
 24
0.4986275200288023
 14
0.3618269814600491
 24
0.4989484030277817
 14
0.3577884124092259
 24
0.4992268935689128
 14
0.3537351125332019
 24
0.4994628238999077
 14
0.3496695233882596
 24
0.4996560519051572
 14
0.3455940939332771
 24
0.4998064611913351
 14
0.341511279054569
 24
0.4999139611575125
 14
0.3374235380871511
 24
0.4999784870497289
 14
0.3333333333333327
 24
0.5
 14
-0.3333333333333332
 24
0.5
 14
-0.3333333333333337
 24
0.5
 14
-0.3374235380871526
 24
0.4999784870497289
 14
-0.34151127905457
 24
0.4999139611575125
 14
-0.3455940939332781
 24
0.4998064611913351
 14
-0.3496695233882607
 24
0.4996560519051572
 14
-0.3537351125332029
 24
0.4994628238999077
 14
-0.3577884124092274
 24
0.4992268935689128
 14
-0.3618269814600507
 24
0.4989484030277817
 14
-0.3658483870026882
 24
0.4986275200288023
 14
-0.369850206692812
 24
0.4982644378598949
 14
-0.3738300299838779
 24
0.4978593752281816
 14
-0.37778545957915
 24
0.497412576128246
 14
-0.3817141128757439
 24
0.4969243096951577
 14
-0.3856136233998154
 24
0.4963948700423596
 14
-0.3894816422320372
 24
0.4958245760845017
 14
-0.3933158394224984
 24
0.4952137713453385
 14
-0.3971139053941819
 24
0.4945628237508062
 14
-0.4008735523341655
 24
0.4938721254073952
 14
-0.4045925155717138
 24
0.4931420923659604
 14
-0.4082685549424349
 24
0.4923731643711083
 14
-0.4118994561376665
 24
0.4915658045963112
 14
-0.4154830320382976
 24
0.4907204993649081
 14
-0.4190171240322042
 24
0.4898377578571624
 14
-0.4224996033145163
 24
0.4889181118035505
 14
-0.4259283721699342
 24
0.4879621151644679
 14
-0.4293013652363078
 24
0.4869703437965418
 14
-0.4326165507487393
 24
0.4859433951057605
 14
-0.4358719317634384
 24
0.4848818876876149
 14
-0.439065547360608
 24
0.4837864609544812
 14
-0.4421954738256297
 24
0.4826577747504633
 14
-0.4452598258078367
 24
0.4814965089539259
 14
-0.4482567574561779
 24
0.4803033630679617
 14
-0.4511844635310917
 24
0.4790790557990391
 14
-0.4540411804919116
 24
0.477824324624076
 14
-0.4568251875591604
 24
0.4765399253462154
 14
-0.4595348077510809
 24
0.4752266316395556
 14
-0.4621684088937898
 24
0.4738852345831174
 14
-0.4647244046044347
 24
0.4725165421843305
 14
-0.4672012552467746
 24
0.4711213788923169
 14
-0.4695974688585974
 24
0.4697005851012744
 14
-0.4719116020504244
 24
0.4682550166442573
 14
-0.4741422608749514
 24
0.4667855442776501
 14
-0.4762881016667125
 24
0.465293053156659
 14
-0.4783478318514521
 24
0.4637784423021273
 14
-0.4803202107247264
 24
0.4622426240589996
 14
-0.4822040501992529
 24
0.4606865235467578
 14
-0.4839982155205744
 24
0.4591110781021633
 14
-0.4857016259505887
 24
0.4575172367146421
 14
-0.4873132554185479
 24
0.4559059594546495
 14
-0.4888321331391233
 24
0.4542782168953563
 14
-0.4902573441971703
 24
0.4526349895280159
 14
-0.4915880300988397
 24
0.4509772671713494
 14
-0.4928233892887017
 24
0.4493060483753187
 14
-0.4939626776325733
 24
0.4476223398196356
 14
-0.4950052088657578
 24
0.445927155707376
 14
-0.4959503550064218
 24
0.4442215171540619
 14
-0.4967975467338723
 24
0.4425064515725806
 14
-0.4975462737314906
 24
0.4407829920543074
 14
-0.4981960849941304
 24
0.4390521767468116
 14
-0.4987465890997851
 24
0.4373150482285157
 14
-0.4991974544453666
 24
0.435572652880683
 14
-0.4995484094464488
 24
0.4338260402571192
 14
-0.4997992427008624
 24
0.4320762624519584
 14
-0.4999498031160345
 24
0.4303243734659225
 14
-0.5
 24
0.4285714285714287
 14
-0.5
 24
0.1428571428571429
 14
-0.4999498031160345
 24
0.141104197962649
 14
-0.4997992427008624
 24
0.139352308976613
 14
-0.4995484094464488
 24
0.1376025311714523
 14
-0.4991974544453666
 24
0.1358559185478886
 14
-0.4987465890997851
 24
0.134113523200056
 14
-0.4981960849941304
 24
0.13237639468176
 14
-0.4975462737314906
 24
0.1306455793742641
 14
-0.4967975467338723
 24
0.1289221198559908
 14
-0.4959503550064218
 24
0.1272070542745092
 14
-0.4950052088657578
 24
0.1255014157211955
 14
-0.4939626776325733
 24
0.1238062316089358
 14
-0.4928233892887017
 24
0.1221225230532527
 14
-0.4915880300988397
 24
0.1204513042572221
 14
-0.4902573441971703
 24
0.1187935819005558
 14
-0.4888321331391233
 24
0.117150354533215
 14
-0.4873132554185479
 24
0.1155226119739221
 14
-0.4857016259505887
 24
0.1139113347139293
 14
-0.4839982155205744
 24
0.1123174933264085
 14
-0.4822040501992529
 24
0.1107420478818139
 14
-0.4803202107247264
 24
0.1091859473695716
 14
-0.4783478318514521
 24
0.107650129126444
 14
-0.4762881016667125
 24
0.1061355182719129
 14
-0.4741422608749514
 24
0.1046430271509217
 14
-0.4719116020504244
 24
0.1031735547843142
 14
-0.4695974688585974
 24
0.1017279863272967
 14
-0.4672012552467746
 24
0.1003071925362547
 14
-0.4647244046044347
 24
0.0989120292442409
 14
-0.4621684088937898
 24
0.0975433368454538
 14
-0.4595348077510809
 24
0.096201939789016
 14
-0.4568251875591604
 24
0.0948886460823558
 14
-0.4540411804919116
 24
0.0936042468044952
 14
-0.4511844635310917
 24
0.0923495156295324
 14
-0.4482567574561779
 24
0.0911252083606094
 14
-0.4452598258078367
 24
0.0899320624746459
 14
-0.4421954738256297
 24
0.0887707966781083
 14
-0.439065547360608
 24
0.0876421104740902
 14
-0.4358719317634384
 24
0.0865466837409566
 14
-0.4326165507487393
 24
0.0854851763228111
 14
-0.4293013652363078
 24
0.0844582276320298
 14
-0.4259283721699342
 24
0.0834664562641039
 14
-0.4224996033145163
 24
0.0825104596250209
 14
-0.4190171240322042
 24
0.0815908135714091
 14
-0.4154830320382976
 24
0.0807080720636635
 14
-0.4118994561376665
 24
0.0798627668322602
 14
-0.4082685549424349
 24
0.0790554070574631
 14
-0.4045925155717138
 24
0.0782864790626111
 14
-0.4008735523341655
 24
0.0775564460211763
 14
-0.3971139053941819
 24
0.0768657476777653
 14
-0.3933158394224984
 24
0.0762148000832329
 14
-0.3894816422320372
 24
0.07560399534407
 14
-0.3856136233998154
 24
0.0750337013862116
 14
-0.3817141128757439
 24
0.0745042617334136
 14
-0.37778545957915
 24
0.0740159953003258
 14
-0.3738300299838779
 24
0.0735691962003897
 14
-0.369850206692812
 24
0.0731641335686766
 14
-0.3658483870026882
 24
0.0728010513997691
 14
-0.3618269814600507
 24
0.07248016840079
 14
-0.3577884124092274
 24
0.0722016778596584
 14
-0.3537351125332029
 24
0.0719657475286635
 14
-0.3496695233882607
 24
0.0717725195234146
 14
-0.3455940939332781
 24
0.0716221102372364
 14
-0.34151127905457
 24
0.0715146102710591
 14
-0.3374235380871526
 24
0.0714500843788426
 14
-0.3333333333333337
 24
0.0714285714285715
 14
0.3333333333333327
 24
0.0714285714285715
  0
SPLINE
  5
E7
330
2B
100
AcDbEntity
  8
一般
  6
Continuous
 62
     0
370
    18
100
AcDbSpline
210
0.0
220
0.0
230
1.0
 70
     9
 71
     2
 72
    28
 73
    25
 74
     0
 42
0.000001
 43
0.0000000001
 40
0.0
 40
0.0
 40
0.0
 40
1.0
 40
2.0
 40
3.0
 40
3.0
 40
4.0
 40
4.0
 40
5.0
 40
6.0
 40
7.0
 40
7.0
 40
8.0
 40
8.0
 40
9.0
 40
10.0
 40
11.0
 40
11.0
 40
12.0
 40
12.0
 40
13.0
 40
14.0
 40
15.0
 40
15.0
 40
16.0
 40
16.0
 40
16.0
 10
34.98963702891816
 20
-15.36249995596424
 30
0.0
 10
35.3022444200878
 20
-15.36249995596424
 30
0.0
 10
35.84369630441519
 20
-15.4964745521798
 30
0.0
 10
36.15630369558483
 20
-15.72852535974868
 30
0.0
 10
36.15630369558483
 20
-15.86249995596424
 30
0.0
 10
36.15630369558483
 20
-16.86249995596424
 30
0.0
 10
36.15630369558483
 20
-17.86249995596424
 30
0.0
 10
36.15630369558483
 20
-17.9964745521798
 30
0.0
 10
35.84369630441519
 20
-18.22852535974868
 30
0.0
 10
35.3022444200878
 20
-18.36249995596424
 30
0.0
 10
34.98963702891816
 20
-18.36249995596424
 30
0.0
 10
32.65630369558483
 20
-18.36249995596424
 30
0.0
 10
30.32297036225149
 20
-18.36249995596424
 30
0.0
 10
30.01036297108186
 20
-18.36249995596424
 30
0.0
 10
29.46891108675447
 20
-18.22852535974868
 30
0.0
 10
29.15630369558483
 20
-17.9964745521798
 30
0.0
 10
29.15630369558483
 20
-17.86249995596424
 30
0.0
 10
29.15630369558483
 20
-16.86249995596424
 30
0.0
 10
29.15630369558483
 20
-15.86249995596424
 30
0.0
 10
29.15630369558483
 20
-15.72852535974868
 30
0.0
 10
29.46891108675447
 20
-15.4964745521798
 30
0.0
 10
30.01036297108186
 20
-15.36249995596424
 30
0.0
 10
30.32297036225149
 20
-15.36249995596424
 30
0.0
 10
32.65630369558483
 20
-15.36249995596424
 30
0.0
 10
34.98963702891816
 20
-15.36249995596424
 30
0.0
  0
WIPEOUT
  5
E8
330
2B
100
AcDbEntity
  8
一般
  6
Continuous
 62
     0
160
               296
310
28010000030000009400000024000000F0636EC201944040FAAA0FCCCCDC31C0000000000000000000000000000000000000000000000000000000000000F03F000000000000F03F000000000000000000000000000000000000000000000000000000000000F03F0000000000000000410063004400620057006900700065
310
006F00750074002000280057006900700065004F007500740029000000840000000600000005000000F0636EC201944040FAAA0FCCCCDC31C00000000000000000F0636EC201144240FAAA0FCCCCDC31C00000000000000000F0636EC201144240F4551F9899B92FC00000000000000000F0636EC201944040F4551F9899B9
310
2FC00000000000000000F0636EC201944040FAAA0FCCCCDC31C000000000000000000800000015000000
370
    18
100
AcDbWipeout
 90
        0
 10
33.15630369558483
 20
-17.86249995596424
 30
0.0
 11
3.0
 21
0.0
 31
0.0
 12
0.0
 22
3.0
 32
0.0
 13
1.0
 23
1.0
340
0
 70
     7
280
     1
281
    50
282
    50
283
     0
290
     0
360
0
 71
     2
 91
        5
 14
-0.5
 24
-0.1666666666666666
 14
0.5
 24
-0.1666666666666666
 14
0.5
 24
0.5
 14
-0.5
 24
0.5
 14
-0.5
 24
-0.1666666666666666
  0
POLYLINE
  5
E9
330
2B
100
AcDbEntity
  8
一般
  6
Continuous
 62
     0
370
    18
100
AcDb2dPolyline
 66
     1
 10
0.0
 20
0.0
 30
0.0
 70
     1
 75
     5
  0
VERTEX
  5
EA
330
E9
100
AcDbEntity
  8
一般
  6
Continuous
 62
     0
370
    18
100
AcDbVertex
100
AcDb2dVertex
 10
33.15630369558483
 20
-15.86249995596424
 30
0.0
  0
VERTEX
  5
EB
330
E9
100
AcDbEntity
  8
一般
  6
Continuous
 62
     0
370
    18
100
AcDbVertex
100
AcDb2dVertex
 10
36.15630369558483
 20
-15.86249995596424
 30
0.0
  0
VERTEX
  5
EC
330
E9
100
AcDbEntity
  8
一般
  6
Continuous
 62
     0
370
    18
100
AcDbVertex
100
AcDb2dVertex
 10
36.15630369558483
 20
-17.86249995596424
 30
0.0
  0
VERTEX
  5
ED
330
E9
100
AcDbEntity
  8
一般
  6
Continuous
 62
     0
370
    18
100
AcDbVertex
100
AcDb2dVertex
 10
33.15630369558483
 20
-17.86249995596424
 30
0.0
  0
SEQEND
  5
EE
330
E9
100
AcDbEntity
  8
一般
  6
Continuous
 62
     0
370
    18
  0
ENDBLK
  5
F0
330
2B
100
AcDbEntity
  8
一般
100
AcDbBlockEnd
  0
BLOCK
  5
F1
330
2C
100
AcDbEntity
  8
一般
100
AcDbBlockBegin
  2
グループ-5
 70
     0
 10
0.0
 20
0.0
 30
0.0
  3
グループ-5
  1

  0
WIPEOUT
  5
F2
330
2C
100
AcDbEntity
  8
一般
  6
Continuous
 62
     0
160
               296
310
2801000003000000940000002400000020001ABFE68A3D40FAAA0FCCCC5C32C0000000000000000000000000000000000000000000000000000000000000F03F000000000000F03F000000000000000000000000000000000000000000000000000000000000F03F0000000000000000410063004400620057006900700065
310
006F00750074002000280057006900700065004F00750074002900000084000000060000000500000020001ABFE68A3D40FAAA0FCCCC5C32C00000000000000000A44D07CEC3AD4340FAAA0FCCCC5C32C00000000000000000A44D07CEC3AD4340F4551F9899B920C0000000000000000020001ABFE68A3D40F4551F9899B9
310
20C0000000000000000020001ABFE68A3D40FAAA0FCCCC5C32C000000000000000000800000015000000
370
    18
100
AcDbWipeout
 90
        0
 10
29.54258341202524
 20
-18.36249995596424
 30
0.0
 11
10.0
 21
0.0
 31
0.0
 12
0.0
 22
10.0
 32
0.0
 13
1.0
 23
1.0
340
0
 70
     7
280
     1
281
    50
282
    50
283
     0
290
     0
360
0
 71
     2
 91
        5
 14
-0.5
 24
-0.5
 14
0.4814954576223642
 24
-0.5
 14
0.4814954576223642
 24
0.5
 14
-0.5
 24
0.5
 14
-0.5
 24
-0.5
  0
POLYLINE
  5
F3
330
2C
100
AcDbEntity
  8
一般
  6
Continuous
 62
     0
370
    18
100
AcDb2dPolyline
 66
     1
 10
0.0
 20
0.0
 30
0.0
 70
     1
 75
     5
  0
VERTEX
  5
F4
330
F3
100
AcDbEntity
  8
一般
  6
Continuous
 62
     0
370
    18
100
AcDbVertex
100
AcDb2dVertex
 10
29.54258341202524
 20
-8.36249995596424
 30
0.0
  0
VERTEX
  5
F5
330
F3
100
AcDbEntity
  8
一般
  6
Continuous
 62
     0
370
    18
100
AcDbVertex
100
AcDb2dVertex
 10
39.35753798824888
 20
-8.36249995596424
 30
0.0
  0
VERTEX
  5
F6
330
F3
100
AcDbEntity
  8
一般
  6
Continuous
 62
     0
370
    18
100
AcDbVertex
100
AcDb2dVertex
 10
39.35753798824888
 20
-18.36249995596424
 30
0.0
  0
VERTEX
  5
F7
330
F3
100
AcDbEntity
  8
一般
  6
Continuous
 62
     0
370
    18
100
AcDbVertex
100
AcDb2dVertex
 10
29.54258341202524
 20
-18.36249995596424
 30
0.0
  0
SEQEND
  5
F8
330
F3
100
AcDbEntity
  8
一般
  6
Continuous
 62
     0
370
    18
  0
WIPEOUT
  5
FA
330
2C
100
AcDbEntity
  8
一般
  6
Continuous
 62
     0
160
               296
310
2801000003000000940000002400000020001ABFE68A3D40C522EC64668627C0000000000000000000000000000000000000000000000000000000000000F03F000000000000F03F000000000000000000000000000000000000000000000000000000000000F03F0000000000000000410063004400620057006900700065
310
006F00750074002000280057006900700065004F00750074002900000084000000060000000500000020001ABFE68A3D40C522EC64668627C00000000000000000A44D07CEC3AD4340C522EC64668627C00000000000000000A44D07CEC3AD4340F5551F9899B920C0000000000000000020001ABFE68A3D40F5551F9899B9
310
20C0000000000000000020001ABFE68A3D40C522EC64668627C000000000000000000800000015000000
370
    18
100
AcDbWipeout
 90
        0
 10
29.54258341202524
 20
-11.76249995596425
 30
0.0
 11
9.814954576223639
 21
0.0
 31
0.0
 12
0.0
 22
9.814954576223639
 32
0.0
 13
1.0
 23
1.0
340
0
 70
     7
280
     1
281
    50
282
    50
283
     0
290
     0
360
0
 71
     2
 91
        5
 14
-0.5
 24
0.1535898384862241
 14
0.5
 24
0.1535898384862241
 14
0.5
 24
0.5
 14
-0.5
 24
0.5
 14
-0.5
 24
0.1535898384862241
  0
POLYLINE
  5
FB
330
2C
100
AcDbEntity
  8
一般
  6
Continuous
 62
     0
370
    18
100
AcDb2dPolyline
 66
     1
 10
0.0
 20
0.0
 30
0.0
 70
     1
 75
     5
  0
VERTEX
  5
FC
330
FB
100
AcDbEntity
  8
一般
  6
Continuous
 62
     0
370
    18
100
AcDbVertex
100
AcDb2dVertex
 10
29.54258341202524
 20
-8.362499955964246
 30
0.0
  0
VERTEX
  5
FD
330
FB
100
AcDbEntity
  8
一般
  6
Continuous
 62
     0
370
    18
100
AcDbVertex
100
AcDb2dVertex
 10
39.35753798824888
 20
-8.362499955964246
 30
0.0
  0
VERTEX
  5
FE
330
FB
100
AcDbEntity
  8
一般
  6
Continuous
 62
     0
370
    18
100
AcDbVertex
100
AcDb2dVertex
 10
39.35753798824888
 20
-11.76249995596425
 30
0.0
  0
VERTEX
  5
FF
330
FB
100
AcDbEntity
  8
一般
  6
Continuous
 62
     0
370
    18
100
AcDbVertex
100
AcDb2dVertex
 10
29.54258341202524
 20
-11.76249995596425
 30
0.0
  0
SEQEND
  5
100
330
FB
100
AcDbEntity
  8
一般
  6
Continuous
 62
     0
370
    18
  0
WIPEOUT
  5
102
330
2C
100
AcDbEntity
  8
一般
  6
Continuous
 62
     0
160
               296
310
2801000003000000940000002400000020001ABFE68A3D4094EFB83133532EC0000000000000000000000000000000000000000000000000000000000000F03F000000000000F03F000000000000000000000000000000000000000000000000000000000000F03F0000000000000000410063004400620057006900700065
310
006F00750074002000280057006900700065004F00750074002900000084000000060000000500000020001ABFE68A3D4094EFB83133532EC00000000000000000A44D07CEC3AD434094EFB83133532EC00000000000000000A44D07CEC3AD4340C422EC64668627C0000000000000000020001ABFE68A3D40C422EC646686
310
27C0000000000000000020001ABFE68A3D4094EFB83133532EC000000000000000000800000015000000
370
    18
100
AcDbWipeout
 90
        0
 10
29.54258341202524
 20
-15.16249995596425
 30
0.0
 11
9.814954576223639
 21
0.0
 31
0.0
 12
0.0
 22
9.814954576223639
 32
0.0
 13
1.0
 23
1.0
340
0
 70
     7
280
     1
281
    50
282
    50
283
     0
290
     0
360
0
 71
     2
 91
        5
 14
-0.5
 24
0.1535898384862241
 14
0.5
 24
0.1535898384862241
 14
0.5
 24
0.5
 14
-0.5
 24
0.5
 14
-0.5
 24
0.1535898384862241
  0
POLYLINE
  5
103
330
2C
100
AcDbEntity
  8
一般
  6
Continuous
 62
     0
370
    18
100
AcDb2dPolyline
 66
     1
 10
0.0
 20
0.0
 30
0.0
 70
     1
 75
     5
  0
VERTEX
  5
104
330
103
100
AcDbEntity
  8
一般
  6
Continuous
 62
     0
370
    18
100
AcDbVertex
100
AcDb2dVertex
 10
29.54258341202524
 20
-11.76249995596425
 30
0.0
  0
VERTEX
  5
105
330
103
100
AcDbEntity
  8
一般
  6
Continuous
 62
     0
370
    18
100
AcDbVertex
100
AcDb2dVertex
 10
39.35753798824888
 20
-11.76249995596425
 30
0.0
  0
VERTEX
  5
106
330
103
100
AcDbEntity
  8
一般
  6
Continuous
 62
     0
370
    18
100
AcDbVertex
100
AcDb2dVertex
 10
39.35753798824888
 20
-15.16249995596425
 30
0.0
  0
VERTEX
  5
107
330
103
100
AcDbEntity
  8
一般
  6
Continuous
 62
     0
370
    18
100
AcDbVertex
100
AcDb2dVertex
 10
29.54258341202524
 20
-15.16249995596425
 30
0.0
  0
SEQEND
  5
108
330
103
100
AcDbEntity
  8
一般
  6
Continuous
 62
     0
370
    18
  0
WIPEOUT
  5
10A
330
2C
100
AcDbEntity
  8
一般
  6
Continuous
 62
     0
160
               296
310
2801000003000000940000002400000020001ABFE68A3D4032DE42FFFF8F32C0000000000000000000000000000000000000000000000000000000000000F03F000000000000F03F000000000000000000000000000000000000000000000000000000000000F03F0000000000000000410063004400620057006900700065
310
006F00750074002000280057006900700065004F00750074002900000084000000060000000500000020001ABFE68A3D4032DE42FFFF8F32C00000000000000000A44D07CEC3AD434032DE42FFFF8F32C00000000000000000A44D07CEC3AD434094EFB83133532EC0000000000000000020001ABFE68A3D4094EFB8313353
310
2EC0000000000000000020001ABFE68A3D4032DE42FFFF8F32C000000000000000000800000015000000
370
    18
100
AcDbWipeout
 90
        0
 10
29.54258341202524
 20
-18.56249995596426
 30
0.0
 11
9.814954576223639
 21
0.0
 31
0.0
 12
0.0
 22
9.814954576223639
 32
0.0
 13
1.0
 23
1.0
340
0
 70
     7
280
     1
281
    50
282
    50
283
     0
290
     0
360
0
 71
     2
 91
        5
 14
-0.5
 24
0.1535898384862241
 14
0.5
 24
0.1535898384862241
 14
0.5
 24
0.5
 14
-0.5
 24
0.5
 14
-0.5
 24
0.1535898384862241
  0
POLYLINE
  5
10B
330
2C
100
AcDbEntity
  8
一般
  6
Continuous
 62
     0
370
    18
100
AcDb2dPolyline
 66
     1
 10
0.0
 20
0.0
 30
0.0
 70
     1
 75
     5
  0
VERTEX
  5
10C
330
10B
100
AcDbEntity
  8
一般
  6
Continuous
 62
     0
370
    18
100
AcDbVertex
100
AcDb2dVertex
 10
29.54258341202524
 20
-15.16249995596425
 30
0.0
  0
VERTEX
  5
10D
330
10B
100
AcDbEntity
  8
一般
  6
Continuous
 62
     0
370
    18
100
AcDbVertex
100
AcDb2dVertex
 10
39.35753798824888
 20
-15.16249995596425
 30
0.0
  0
VERTEX
  5
10E
330
10B
100
AcDbEntity
  8
一般
  6
Continuous
 62
     0
370
    18
100
AcDbVertex
100
AcDb2dVertex
 10
39.35753798824888
 20
-18.56249995596426
 30
0.0
  0
VERTEX
  5
10F
330
10B
100
AcDbEntity
  8
一般
  6
Continuous
 62
     0
370
    18
100
AcDbVertex
100
AcDb2dVertex
 10
29.54258341202524
 20
-18.56249995596426
 30
0.0
  0
SEQEND
  5
110
330
10B
100
AcDbEntity
  8
一般
  6
Continuous
 62
     0
370
    18
  0
INSERT
  5
112
330
2C
100
AcDbEntity
  8
一般
 62
     7
100
AcDbBlockReference
  2
グループ-2
 10
0.0
 20
0.0
 30
0.0
  0
INSERT
  5
113
330
2C
100
AcDbEntity
  8
一般
 62
     7
100
AcDbBlockReference
  2
グループ-3
 10
0.0
 20
0.0
 30
0.0
  0
INSERT
  5
114
330
2C
100
AcDbEntity
  8
一般
 62
     7
100
AcDbBlockReference
  2
グループ-4
 10
0.0
 20
0.0
 30
0.0
  0
LINE
  5
115
330
2C
100
AcDbEntity
  8
一般
  6
Continuous
 62
     0
370
    18
100
AcDbLine
 10
37.54258341202524
 20
-8.362499955964256
 30
0.0
 11
37.54258341202524
 21
-18.56249995596426
 31
0.0
  0
ENDBLK
  5
116
330
2C
100
AcDbEntity
  8
一般
100
AcDbBlockEnd
  0
BLOCK
  5
117
330
2D
100
AcDbEntity
  8
一般
100
AcDbBlockBegin
  2
グループ-6
 70
     0
 10
0.0
 20
0.0
 30
0.0
  3
グループ-6
  1

  0
POLYLINE
  5
118
330
2D
100
AcDbEntity
  8
一般
  6
Continuous
 62
     7
370
    18
100
AcDb2dPolyline
 66
     1
 10
0.0
 20
0.0
 30
0.0
 70
     1
 75
     5
  0
VERTEX
  5
119
330
118
100
AcDbEntity
  8
一般
  6
Continuous
 62
     7
370
    18
100
AcDbVertex
100
AcDb2dVertex
 10
83.49999999999999
 20
-3.686410444250938
 30
0.0
  0
VERTEX
  5
11A
330
118
100
AcDbEntity
  8
一般
  6
Continuous
 62
     7
370
    18
100
AcDbVertex
100
AcDb2dVertex
 10
97.5
 20
-3.686410444250938
 30
0.0
  0
VERTEX
  5
11B
330
118
100
AcDbEntity
  8
一般
  6
Continuous
 62
     7
370
    18
100
AcDbVertex
100
AcDb2dVertex
 10
97.5
 20
-82.68641044425093
 30
0.0
  0
VERTEX
  5
11C
330
118
100
AcDbEntity
  8
一般
  6
Continuous
 62
     7
370
    18
100
AcDbVertex
100
AcDb2dVertex
 10
83.49999999999999
 20
-82.68641044425093
 30
0.0
  0
SEQEND
  5
11D
330
118
100
AcDbEntity
  8
一般
  6
Continuous
 62
     7
370
    18
  0
LINE
  5
11F
330
2D
100
AcDbEntity
  8
一般
  6
Continuous
 62
     7
370
    18
100
AcDbLine
 10
83.49999999999999
 20
-78.20227649697925
 30
0.0
 11
94.0
 21
-78.18641044425094
 31
0.0
  0
LINE
  5
120
330
2D
100
AcDbEntity
  8
一般
  6
Continuous
 62
     7
370
    18
100
AcDbLine
 10
83.49999999999999
 20
-73.68641044425094
 30
0.0
 11
97.5
 21
-73.68641044425094
 31
0.0
  0
LINE
  5
121
330
2D
100
AcDbEntity
  8
一般
  6
Continuous
 62
     7
370
    18
100
AcDbLine
 10
94.0
 20
-82.68641044425093
 30
0.0
 11
94.0
 21
-73.68641044425094
 31
0.0
  0
LINE
  5
122
330
2D
100
AcDbEntity
  8
一般
  6
Continuous
 62
     7
370
    18
100
AcDbLine
 10
89.0
 20
-82.68641044425093
 30
0.0
 11
89.0
 21
-73.68641044425094
 31
0.0
  0
MTEXT
  5
123
330
2D
100
AcDbEntity
  8
一般
 62
     1
100
AcDbMText
 10
83.81216940468259
 20
-77.82093007588787
 30
0.0
 40
4.886523437500059
 41
0.0
 46
0.0
 71
     1
 72
     1
  1
{\fHGPｺﾞｼｯｸM|b0|i0|c128|p0;\l+}
 11
0.0
 21
1.0
 31
0.0
 73
     1
 44
0.7828267384257844
  0
MTEXT
  5
124
330
2D
100
AcDbEntity
  8
一般
 62
     7
100
AcDbMText
 10
83.74870519376933
 20
-82.32801324190964
 30
0.0
 40
4.886523437500059
 41
0.0
 46
0.0
 71
     1
 72
     1
  1
{\fHGPｺﾞｼｯｸM|b0|i0|c128|p0;\l-}
 11
0.0
 21
1.0
 31
0.0
 73
     1
 44
0.7828267384257844
  0
MTEXT
  5
125
330
2D
100
AcDbEntity
  8
一般
 62
     7
100
AcDbMText
 10
90.53292718372032
 20
-82.37689081261395
 30
0.0
 40
1.900314670138888
 41
0.0
 46
0.0
 71
     1
 72
     1
  1
{\fHGPｺﾞｼｯｸM|b0|i0|c128|p0;\lシロ}
 11
0.0
 21
1.0
 31
0.0
 73
     1
 44
0.7828267384257844
  0
MTEXT
  5
126
330
2D
100
AcDbEntity
  8
一般
 62
     1
100
AcDbMText
 10
90.42975397317466
 20
-78.17054439152262
 30
0.0
 40
1.900314670138888
 41
0.0
 46
0.0
 71
     1
 72
     1
  1
{\fHGPｺﾞｼｯｸM|b0|i0|c128|p0;\lアカ}
 11
0.0
 21
1.0
 31
0.0
 73
     1
 44
0.7828267384257844
  0
MTEXT
  5
127
330
2D
100
AcDbEntity
  8
一般
 62
     7
100
AcDbMText
 10
94.84421180555555
 20
-81.16297294425093
 30
0.0
 40
2.171788194444444
 41
0.0
 46
0.0
 71
     1
 72
     1
  1
{\fHGPｺﾞｼｯｸM|b0|i0|c128|p0;\lPWM}
 11
0.0
 21
1.0
 31
0.0
 73
     1
 44
0.7828267384257844
  0
LINE
  5
128
330
2D
100
AcDbEntity
  8
一般
  6
Continuous
 62
     7
370
    18
100
AcDbLine
 10
83.49999999999999
 20
-39.68641044425094
 30
0.0
 11
97.5
 21
-39.68641044425094
 31
0.0
  0
LINE
  5
129
330
2D
100
AcDbEntity
  8
一般
  6
Continuous
 62
     7
370
    18
100
AcDbLine
 10
88.0
 20
-39.68641044425094
 30
0.0
 11
88.0
 21
-3.686410444250956
 31
0.0
  0
LINE
  5
12A
330
2D
100
AcDbEntity
  8
一般
  6
Continuous
 62
     7
370
    18
100
AcDbLine
 10
92.0
 20
-39.68641044425094
 30
0.0
 11
92.0
 21
-3.686410444250956
 31
0.0
  0
LINE
  5
12B
330
2D
100
AcDbEntity
  8
一般
  6
Continuous
 62
     7
370
    18
100
AcDbLine
 10
83.49999999999999
 20
-30.68641044425096
 30
0.0
 11
97.5
 21
-30.68641044425096
 31
0.0
  0
LINE
  5
12C
330
2D
100
AcDbEntity
  8
一般
  6
Continuous
 62
     7
370
    18
100
AcDbLine
 10
83.49999999999999
 20
-17.27371760206831
 30
0.0
 11
97.5
 21
-17.27371760206831
 31
0.0
  0
MTEXT
  5
12D
330
2D
100
AcDbEntity
  8
一般
 62
     7
100
AcDbMText
 10
85.12023434153766
 20
-37.68641044425094
 30
0.0
 40
1.900314670138888
 41
0.0
 46
0.0
 71
     1
 72
     1
  1
{\fHGPｺﾞｼｯｸM|b0|i0|c128|p0;\lLed-}
 11
0.0
 21
1.0
 31
0.0
 73
     1
 44
0.7828267384257844
  0
MTEXT
  5
12E
330
2D
100
AcDbEntity
  8
一般
 62
     1
100
AcDbMText
 10
84.95173831850429
 20
-13.30054889911207
 30
0.0
 40
1.900314670138888
 41
0.0
 46
0.0
 71
     1
 72
     1
  1
{\fHGPｺﾞｼｯｸM|b0|i0|c128|p0;\lLed+}
 11
0.0
 21
1.0
 31
0.0
 73
     1
 44
0.7828267384257844
  0
MTEXT
  5
12F
330
2D
100
AcDbEntity
  8
一般
 62
     7
100
AcDbMText
 10
88.97399582703386
 20
-25.5608815752092
 30
0.0
 40
1.900314670138888
 41
0.0
 46
0.0
 71
     1
 72
     1
  1
{\fHGPｺﾞｼｯｸM|b0|i0|c128|p0;\lV-}
 11
0.0
 21
1.0
 31
0.0
 73
     1
 44
0.7828267384257844
  0
MTEXT
  5
130
330
2D
100
AcDbEntity
  8
一般
 62
     1
100
AcDbMText
 10
88.98868532986108
 20
-12.18158188522318
 30
0.0
 40
1.900314670138888
 41
0.0
 46
0.0
 71
     1
 72
     1
  1
{\fHGPｺﾞｼｯｸM|b0|i0|c128|p0;\lV+}
 11
0.0
 21
1.0
 31
0.0
 73
     1
 44
0.7828267384257844
  0
MTEXT
  5
131
330
2D
100
AcDbEntity
  8
一般
 62
     7
100
AcDbMText
 10
93.98868532986112
 20
-26.57707901524629
 30
0.0
 40
1.900314670138888
 41
0.0
 46
0.0
 71
     1
 72
     1
  1
{\fHGPｺﾞｼｯｸM|b0|i0|c128|p0;\lシロ}
 11
0.0
 21
1.0
 31
0.0
 73
     1
 44
0.7828267384257844
  0
MTEXT
  5
132
330
2D
100
AcDbEntity
  8
一般
 62
     1
100
AcDbMText
 10
93.53292718372031
 20
-12.65467833879432
 30
0.0
 40
1.900314670138888
 41
0.0
 46
0.0
 71
     1
 72
     1
  1
{\fHGPｺﾞｼｯｸM|b0|i0|c128|p0;\lアカ}
 11
0.0
 21
1.0
 31
0.0
 73
     1
 44
0.7828267384257844
  0
MTEXT
  5
133
330
2D
100
AcDbEntity
  8
一般
 62
     7
100
AcDbMText
 10
93.98868532986112
 20
-37.46614694059349
 30
0.0
 40
1.900314670138888
 41
0.0
 46
0.0
 71
     1
 72
     1
  1
{\fHGPｺﾞｼｯｸM|b0|i0|c128|p0;\lクロ}
 11
0.0
 21
1.0
 31
0.0
 73
     1
 44
0.7828267384257844
  0
MTEXT
  5
134
330
2D
100
AcDbEntity
  8
一般
 62
     7
100
AcDbMText
 10
87.97737065972219
 20
-62.62529966957493
 30
0.0
 40
3.800629340277777
 41
0.0
 46
0.0
 71
     1
 72
     1
  1
{\fHGPｺﾞｼｯｸM|b0|i0|c128|p0;\l接続}
 11
0.0
 21
1.0
 31
0.0
 73
     1
 44
0.7828267384257844
  0
ENDBLK
  5
135
330
2D
100
AcDbEntity
  8
一般
100
AcDbBlockEnd
  0
BLOCK
  5
266
330
265
100
AcDbEntity
  8
0
370
     0
100
AcDbBlockBegin
  2
*D12
 70
     1
 10
0.0
 20
0.0
 30
0.0
  3
*D12
  1

  0
LINE
  5
281
330
265
100
AcDbEntity
  8
一般
  6
Continuous
 62
     0
440
 16777216
370
    -2
100
AcDbLine
 10
-81.58750000000003
 20
11.0
 30
0.0
 11
-97.39878465269534
 21
11.0
 31
0.0
  0
LINE
  5
282
330
265
100
AcDbEntity
  8
一般
  6
Continuous
 62
     0
440
 16777216
370
    -2
100
AcDbLine
 10
-81.58750000000004
 20
-88.00000000000002
 30
0.0
 11
-97.39878465269534
 21
-88.00000000000004
 31
0.0
  0
LINE
  5
283
330
265
100
AcDbEntity
  8
一般
  6
Continuous
 62
     0
440
 16777216
370
    -2
100
AcDbLine
 10
-94.22378465269533
 20
7.825
 30
0.0
 11
-94.22378465269531
 21
-84.82500000000003
 31
0.0
  0
INSERT
  5
284
330
265
100
AcDbEntity
  8
一般
  6
Continuous
 62
     0
440
 16777216
370
    -2
100
AcDbBlockReference
  2
VW_SLASH
 10
-94.22378465269533
 20
11.0
 30
0.0
 41
3.174999999999999
 42
3.174999999999999
 43
3.174999999999999
 50
90.0
  0
INSERT
  5
285
330
265
100
AcDbEntity
  8
一般
  6
Continuous
 62
     0
440
 16777216
370
    -2
100
AcDbBlockReference
  2
VW_SLASH
 10
-94.22378465269531
 20
-88.00000000000002
 30
0.0
 41
3.174999999999999
 42
3.174999999999999
 43
3.174999999999999
 50
270.0
  0
MTEXT
  5
286
330
265
100
AcDbEntity
  8
一般
  6
Continuous
 62
     0
440
 16777216
370
     0
100
AcDbMText
 10
-98.25454637144535
 20
-38.49999999999999
 30
0.0
 40
4.886523437500059
 41
0.0
 46
0.0
 71
     5
 72
     1
  1
\A1;99
  7
HGPｺﾞｼｯｸM
 11
0.0000000000000001
 21
1.0
 31
0.0
 73
     1
 44
1.0
  0
POINT
  5
287
330
265
100
AcDbEntity
  8
Defpoints
  6
Continuous
 62
     0
440
 16777216
370
     0
100
AcDbPoint
 10
-80.00000000000003
 20
11.0
 30
0.0
  0
POINT
  5
288
330
265
100
AcDbEntity
  8
Defpoints
  6
Continuous
 62
     0
440
 16777216
370
     0
100
AcDbPoint
 10
-80.00000000000005
 20
-88.00000000000002
 30
0.0
  0
POINT
  5
289
330
265
100
AcDbEntity
  8
Defpoints
  6
Continuous
 62
     0
440
 16777216
370
     0
100
AcDbPoint
 10
-94.22378465269531
 20
-88.00000000000002
 30
0.0
  0
ENDBLK
  5
267
330
265
100
AcDbEntity
  8
0
370
     0
100
AcDbBlockEnd
  0
BLOCK
  5
273
330
272
100
AcDbEntity
  8
0
370
     0
100
AcDbBlockBegin
  2
*D13
 70
     1
 10
0.0
 20
0.0
 30
0.0
  3
*D13
  1

  0
LINE
  5
28A
330
272
100
AcDbEntity
  8
一般
  6
Continuous
 62
     0
440
 16777216
370
    -2
100
AcDbLine
 10
-80.0
 20
12.5875
 30
0.0
 11
-80.0
 21
22.51453062304966
 31
0.0
  0
LINE
  5
28B
330
272
100
AcDbEntity
  8
一般
  6
Continuous
 62
     0
440
 16777216
370
    -2
100
AcDbLine
 10
-15.0
 20
12.5875
 30
0.0
 11
-15.0
 21
22.51453062304966
 31
0.0
  0
LINE
  5
28C
330
272
100
AcDbEntity
  8
一般
  6
Continuous
 62
     0
440
 16777216
370
    -2
100
AcDbLine
 10
-76.825
 20
19.33953062304965
 30
0.0
 11
-18.175
 21
19.33953062304965
 31
0.0
  0
INSERT
  5
28D
330
272
100
AcDbEntity
  8
一般
  6
Continuous
 62
     0
440
 16777216
370
    -2
100
AcDbBlockReference
  2
VW_SLASH
 10
-80.0
 20
19.33953062304965
 30
0.0
 41
3.174999999999999
 42
3.174999999999999
 43
3.174999999999999
 50
180.0
  0
INSERT
  5
28E
330
272
100
AcDbEntity
  8
一般
  6
Continuous
 62
     0
440
 16777216
370
    -2
100
AcDbBlockReference
  2
VW_SLASH
 10
-15.0
 20
19.33953062304965
 30
0.0
 41
3.174999999999999
 42
3.174999999999999
 43
3.174999999999999
  0
MTEXT
  5
28F
330
272
100
AcDbEntity
  8
一般
  6
Continuous
 62
     0
440
 16777216
370
     0
100
AcDbMText
 10
-47.5
 20
23.37029234179968
 30
0.0
 40
4.886523437500059
 41
0.0
 46
0.0
 71
     5
 72
     1
  1
\A1;65
  7
HGPｺﾞｼｯｸM
 73
     1
 44
1.0
  0
POINT
  5
290
330
272
100
AcDbEntity
  8
Defpoints
  6
Continuous
 62
     0
440
 16777216
370
     0
100
AcDbPoint
 10
-80.0
 20
11.0
 30
0.0
  0
POINT
  5
291
330
272
100
AcDbEntity
  8
Defpoints
  6
Continuous
 62
     0
440
 16777216
370
     0
100
AcDbPoint
 10
-15.0
 20
11.0
 30
0.0
  0
POINT
  5
292
330
272
100
AcDbEntity
  8
Defpoints
  6
Continuous
 62
     0
440
 16777216
370
     0
100
AcDbPoint
 10
-15.0
 20
19.33953062304965
 30
0.0
  0
ENDBLK
  5
274
330
272
100
AcDbEntity
  8
0
370
     0
100
AcDbBlockEnd
  0
BLOCK
  5
295
330
294
100
AcDbEntity
  8
0
370
     0
100
AcDbBlockBegin
  2
*D14
 70
     1
 10
0.0
 20
0.0
 30
0.0
  3
*D14
  1

  0
LINE
  5
297
330
294
100
AcDbEntity
  8
一般
  6
Continuous
 62
     0
440
 16777216
370
    -2
100
AcDbLine
 10
-81.58750000000003
 20
76.09556090166845
 30
0.0
 11
-97.39878465269537
 21
76.09556090166844
 31
0.0
  0
LINE
  5
298
330
294
100
AcDbEntity
  8
一般
  6
Continuous
 62
     0
440
 16777216
370
    -2
100
AcDbLine
 10
-81.58750000000003
 20
41.09556090166856
 30
0.0
 11
-97.39878465269537
 21
41.09556090166856
 31
0.0
  0
LINE
  5
299
330
294
100
AcDbEntity
  8
一般
  6
Continuous
 62
     0
440
 16777216
370
    -2
100
AcDbLine
 10
-94.22378465269536
 20
72.92056090166845
 30
0.0
 11
-94.22378465269536
 21
44.27056090166856
 31
0.0
  0
INSERT
  5
29A
330
294
100
AcDbEntity
  8
一般
  6
Continuous
 62
     0
440
 16777216
370
    -2
100
AcDbBlockReference
  2
VW_SLASH
 10
-94.22378465269536
 20
76.09556090166845
 30
0.0
 41
3.174999999999999
 42
3.174999999999999
 43
3.174999999999999
 50
90.0
  0
INSERT
  5
29B
330
294
100
AcDbEntity
  8
一般
  6
Continuous
 62
     0
440
 16777216
370
    -2
100
AcDbBlockReference
  2
VW_SLASH
 10
-94.22378465269536
 20
41.09556090166856
 30
0.0
 41
3.174999999999999
 42
3.174999999999999
 43
3.174999999999999
 50
270.0
  0
MTEXT
  5
29C
330
294
100
AcDbEntity
  8
一般
  6
Continuous
 62
     0
440
 16777216
370
     0
100
AcDbMText
 10
-98.25454637144536
 20
58.59556090166852
 30
0.0
 40
4.886523437500059
 41
0.0
 46
0.0
 71
     5
 72
     1
  1
\A1;35
  7
HGPｺﾞｼｯｸM
 11
0.0000000000000001
 21
1.0
 31
0.0
 73
     1
 44
1.0
  0
POINT
  5
29D
330
294
100
AcDbEntity
  8
Defpoints
  6
Continuous
 62
     0
440
 16777216
370
     0
100
AcDbPoint
 10
-80.00000000000003
 20
76.09556090166845
 30
0.0
  0
POINT
  5
29E
330
294
100
AcDbEntity
  8
Defpoints
  6
Continuous
 62
     0
440
 16777216
370
     0
100
AcDbPoint
 10
-80.00000000000003
 20
41.09556090166856
 30
0.0
  0
POINT
  5
29F
330
294
100
AcDbEntity
  8
Defpoints
  6
Continuous
 62
     0
440
 16777216
370
     0
100
AcDbPoint
 10
-94.22378465269536
 20
41.09556090166856
 30
0.0
  0
ENDBLK
  5
296
330
294
100
AcDbEntity
  8
0
370
     0
100
AcDbBlockEnd
  0
ENDSEC
  0
SECTION
  2
ENTITIES
  0
WIPEOUT
  5
143
330
A
100
AcDbEntity
  8
一般
  6
Continuous
 62
     7
160
               296
310
2801000003000000940000002400000000000000000054C000000000000056C0000000000000000000000000000000000000000000000000000000000000F03F000000000000F03F000000000000000000000000000000000000000000000000000000000000F03F0000000000000000410063004400620057006900700065
310
006F00750074002000280057006900700065004F00750074002900000084000000060000000500000000000000000054C000000000000056C00000000000000000FEFFFFFFFFFF2DC000000000000056C00000000000000000FEFFFFFFFFFF2DC00000000000002640000000000000000000000000000054C0000000000000
310
2640000000000000000000000000000054C000000000000056C000000000000000000800000015000000
370
    18
100
AcDbWipeout
 90
        0
 10
-80.0
 20
-88.0
 30
0.0
 11
99.0
 21
0.0
 31
0.0
 12
0.0
 22
99.0
 32
0.0
 13
1.0
 23
1.0
340
0
 70
     7
280
     1
281
    50
282
    50
283
     0
290
     0
360
0
 71
     2
 91
        5
 14
-0.5
 24
-0.5
 14
0.1565656565656566
 24
-0.5
 14
0.1565656565656566
 24
0.5
 14
-0.5
 24
0.5
 14
-0.5
 24
-0.5
  0
POLYLINE
  5
144
330
A
100
AcDbEntity
  8
一般
  6
Continuous
 62
     7
370
    18
100
AcDb2dPolyline
 66
     1
 10
0.0
 20
0.0
 30
0.0
 70
     1
 75
     5
  0
VERTEX
  5
145
330
144
100
AcDbEntity
  8
一般
  6
Continuous
 62
     7
370
    18
100
AcDbVertex
100
AcDb2dVertex
 10
-80.0
 20
11.0
 30
0.0
  0
VERTEX
  5
146
330
144
100
AcDbEntity
  8
一般
  6
Continuous
 62
     7
370
    18
100
AcDbVertex
100
AcDb2dVertex
 10
-15.0
 20
11.0
 30
0.0
  0
VERTEX
  5
147
330
144
100
AcDbEntity
  8
一般
  6
Continuous
 62
     7
370
    18
100
AcDbVertex
100
AcDb2dVertex
 10
-15.0
 20
-88.0
 30
0.0
  0
VERTEX
  5
148
330
144
100
AcDbEntity
  8
一般
  6
Continuous
 62
     7
370
    18
100
AcDbVertex
100
AcDb2dVertex
 10
-80.0
 20
-88.0
 30
0.0
  0
SEQEND
  5
149
330
144
100
AcDbEntity
  8
一般
  6
Continuous
 62
     7
370
    18
  0
WIPEOUT
  5
14B
330
A
100
AcDbEntity
  8
一般
  6
Continuous
 62
     7
160
               296
310
2801000003000000940000002400000000000000000054C0AAB8F1563B8C4440000000000000000000000000000000000000000000000000000000000000F03F000000000000F03F000000000000000000000000000000000000000000000000000000000000F03F0000000000000000410063004400620057006900700065
310
006F00750074002000280057006900700065004F00750074002900000084000000060000000500000000000000000054C0AAB8F1563B8C444000000000000000000000000000002EC0AAB8F1563B8C444000000000000000000000000000002EC04CDC78AB1D065340000000000000000000000000000054C04CDC78AB1D06
310
5340000000000000000000000000000054C0AAB8F1563B8C444000000000000000000800000015000000
370
    18
100
AcDbWipeout
 90
        0
 10
-80.0
 20
41.09556090166854
 30
0.0
 11
65.0
 21
0.0
 31
0.0
 12
0.0
 22
65.0
 32
0.0
 13
1.0
 23
1.0
340
0
 70
     7
280
     1
281
    50
282
    50
283
     0
290
     0
360
0
 71
     2
 91
        5
 14
-0.5
 24
-0.0384615384615365
 14
0.5
 24
-0.0384615384615365
 14
0.5
 24
0.5
 14
-0.5
 24
0.5
 14
-0.5
 24
-0.0384615384615365
  0
POLYLINE
  5
14C
330
A
100
AcDbEntity
  8
一般
  6
Continuous
 62
     7
370
    18
100
AcDb2dPolyline
 66
     1
 10
0.0
 20
0.0
 30
0.0
 70
     1
 75
     5
  0
VERTEX
  5
14D
330
14C
100
AcDbEntity
  8
一般
  6
Continuous
 62
     7
370
    18
100
AcDbVertex
100
AcDb2dVertex
 10
-80.0
 20
76.09556090166842
 30
0.0
  0
VERTEX
  5
14E
330
14C
100
AcDbEntity
  8
一般
  6
Continuous
 62
     7
370
    18
100
AcDbVertex
100
AcDb2dVertex
 10
-15.0
 20
76.09556090166842
 30
0.0
  0
VERTEX
  5
14F
330
14C
100
AcDbEntity
  8
一般
  6
Continuous
 62
     7
370
    18
100
AcDbVertex
100
AcDb2dVertex
 10
-15.0
 20
41.09556090166854
 30
0.0
  0
VERTEX
  5
150
330
14C
100
AcDbEntity
  8
一般
  6
Continuous
 62
     7
370
    18
100
AcDbVertex
100
AcDb2dVertex
 10
-80.0
 20
41.09556090166854
 30
0.0
  0
SEQEND
  5
151
330
14C
100
AcDbEntity
  8
一般
  6
Continuous
 62
     7
370
    18
  0
WIPEOUT
  5
153
330
A
100
AcDbEntity
  8
一般
  6
Continuous
 62
     7
160
               296
310
28010000030000009400000024000000B6B82AD9ECDB534000000000000056C0000000000000000000000000000000000000000000000000000000000000F03F000000000000F03F000000000000000000000000000000000000000000000000000000000000F03F0000000000000000410063004400620057006900700065
310
006F00750074002000280057006900700065004F007500740029000000840000000600000005000000B6B82AD9ECDB534000000000000056C00000000000000000ADB82AD9EC9B5C4000000000000056C00000000000000000ADB82AD9EC9B5C4000000000000026400000000000000000B6B82AD9ECDB5340000000000000
310
26400000000000000000B6B82AD9ECDB534000000000000056C000000000000000000800000015000000
370
    18
100
AcDbWipeout
 90
        0
 10
79.43633107349419
 20
-88.0
 30
0.0
 11
99.0
 21
0.0
 31
0.0
 12
0.0
 22
99.0
 32
0.0
 13
1.0
 23
1.0
340
0
 70
     7
280
     1
281
    50
282
    50
283
     0
290
     0
360
0
 71
     2
 91
        5
 14
-0.5
 24
-0.5
 14
-0.1464646464646477
 24
-0.5
 14
-0.1464646464646477
 24
0.5
 14
-0.5
 24
0.5
 14
-0.5
 24
-0.5
  0
POLYLINE
  5
154
330
A
100
AcDbEntity
  8
一般
  6
Continuous
 62
     7
370
    18
100
AcDb2dPolyline
 66
     1
 10
0.0
 20
0.0
 30
0.0
 70
     1
 75
     5
  0
VERTEX
  5
155
330
154
100
AcDbEntity
  8
一般
  6
Continuous
 62
     7
370
    18
100
AcDbVertex
100
AcDb2dVertex
 10
79.43633107349419
 20
11.0
 30
0.0
  0
VERTEX
  5
156
330
154
100
AcDbEntity
  8
一般
  6
Continuous
 62
     7
370
    18
100
AcDbVertex
100
AcDb2dVertex
 10
114.436331073494
 20
11.0
 30
0.0
  0
VERTEX
  5
157
330
154
100
AcDbEntity
  8
一般
  6
Continuous
 62
     7
370
    18
100
AcDbVertex
100
AcDb2dVertex
 10
114.436331073494
 20
-88.0
 30
0.0
  0
VERTEX
  5
158
330
154
100
AcDbEntity
  8
一般
  6
Continuous
 62
     7
370
    18
100
AcDbVertex
100
AcDb2dVertex
 10
79.43633107349419
 20
-88.0
 30
0.0
  0
SEQEND
  5
159
330
154
100
AcDbEntity
  8
一般
  6
Continuous
 62
     7
370
    18
  0
LINE
  5
15F
330
A
100
AcDbEntity
  8
一般
  6
Continuous
 62
     7
370
    18
100
AcDbLine
 10
-80.0
 20
42.0
 30
0.0
 11
-15.0
 21
42.0
 31
0.0
  0
POLYLINE
  5
160
330
A
100
AcDbEntity
  8
一般
  6
Continuous
 62
     7
370
    18
100
AcDb2dPolyline
 66
     1
 10
0.0
 20
0.0
 30
0.0
 70
     1
 75
     5
  0
VERTEX
  5
161
330
160
100
AcDbEntity
  8
一般
  6
Continuous
 62
     7
370
    18
100
AcDbVertex
100
AcDb2dVertex
 10
-24.0
 20
43.5
 30
0.0
  0
VERTEX
  5
162
330
160
100
AcDbEntity
  8
一般
  6
Continuous
 62
     7
370
    18
100
AcDbVertex
100
AcDb2dVertex
 10
-19.0
 20
43.5
 30
0.0
  0
VERTEX
  5
163
330
160
100
AcDbEntity
  8
一般
  6
Continuous
 62
     7
370
    18
100
AcDbVertex
100
AcDb2dVertex
 10
-19.0
 20
42.0
 30
0.0
  0
VERTEX
  5
164
330
160
100
AcDbEntity
  8
一般
  6
Continuous
 62
     7
370
    18
100
AcDbVertex
100
AcDb2dVertex
 10
-24.0
 20
42.0
 30
0.0
  0
SEQEND
  5
165
330
160
100
AcDbEntity
  8
一般
  6
Continuous
 62
     7
370
    18
  0
POLYLINE
  5
167
330
A
100
AcDbEntity
  8
一般
  6
Continuous
 62
     7
370
    18
100
AcDb2dPolyline
 66
     1
 10
0.0
 20
0.0
 30
0.0
 70
     1
 75
     5
  0
VERTEX
  5
168
330
167
100
AcDbEntity
  8
一般
  6
Continuous
 62
     7
370
    18
100
AcDbVertex
100
AcDb2dVertex
 10
-75.99904834944027
 20
43.5
 30
0.0
  0
VERTEX
  5
169
330
167
100
AcDbEntity
  8
一般
  6
Continuous
 62
     7
370
    18
100
AcDbVertex
100
AcDb2dVertex
 10
-70.99904834944027
 20
43.5
 30
0.0
  0
VERTEX
  5
16A
330
167
100
AcDbEntity
  8
一般
  6
Continuous
 62
     7
370
    18
100
AcDbVertex
100
AcDb2dVertex
 10
-70.99904834944027
 20
42.0
 30
0.0
  0
VERTEX
  5
16B
330
167
100
AcDbEntity
  8
一般
  6
Continuous
 62
     7
370
    18
100
AcDbVertex
100
AcDb2dVertex
 10
-75.99904834944027
 20
42.0
 30
0.0
  0
SEQEND
  5
16C
330
167
100
AcDbEntity
  8
一般
  6
Continuous
 62
     7
370
    18
  0
POLYLINE
  5
16E
102
{ACAD_REACTORS
330
175
102
}
330
A
100
AcDbEntity
  8
一般
  6
Continuous
 62
     7
370
    18
100
AcDb2dPolyline
 66
     1
 10
0.0
 20
0.0
 30
0.0
 70
     1
 75
     5
  0
VERTEX
  5
16F
330
16E
100
AcDbEntity
  8
一般
  6
Continuous
 62
     7
370
    18
100
AcDbVertex
100
AcDb2dVertex
 10
-15.0
 20
-73.89860223920646
 30
0.0
  0
VERTEX
  5
170
330
16E
100
AcDbEntity
  8
一般
  6
Continuous
 62
     7
370
    18
100
AcDbVertex
100
AcDb2dVertex
 10
32.97139646339438
 20
-73.89860223920646
 30
0.0
  0
VERTEX
  5
171
330
16E
100
AcDbEntity
  8
一般
  6
Continuous
 62
     7
370
    18
100
AcDbVertex
100
AcDb2dVertex
 10
32.97139646339438
 20
-74.89860223920645
 30
0.0
  0
VERTEX
  5
172
330
16E
100
AcDbEntity
  8
一般
  6
Continuous
 62
     7
370
    18
100
AcDbVertex
100
AcDb2dVertex
 10
-15.0
 20
-74.89860223920645
 30
0.0
  0
SEQEND
  5
173
330
16E
100
AcDbEntity
  8
一般
  6
Continuous
 62
     7
370
    18
  0
HATCH
  5
175
330
A
100
AcDbEntity
  8
一般
  6
Continuous
 62
     1
370
     0
100
AcDbHatch
 10
0.0
 20
0.0
 30
0.0
210
0.0
220
0.0
230
1.0
  2
SOLID
 70
     1
 71
     1
 91
        1
 92
        1
 93
        4
 72
     1
 10
-15.0
 20
-73.89860223920646
 11
32.97139646339438
 21
-73.89860223920646
 72
     1
 10
32.97139646339438
 20
-73.89860223920646
 11
32.97139646339438
 21
-74.89860223920645
 72
     1
 10
32.97139646339438
 20
-74.89860223920645
 11
-15.0
 21
-74.89860223920645
 72
     1
 10
-15.0
 20
-74.89860223920645
 11
-15.0
 21
-73.89860223920646
 97
        1
330
16E
 75
     0
 76
     1
 98
        1
 10
0.0
 20
0.0
450
        0
451
        0
460
0.0
461
0.0
452
        0
462
0.0
453
        0
470

  0
POLYLINE
  5
176
330
A
100
AcDbEntity
  8
一般
  6
Continuous
 62
     7
370
    18
100
AcDb2dPolyline
 66
     1
 10
0.0
 20
0.0
 30
0.0
 70
     1
 75
     5
  0
VERTEX
  5
177
330
176
100
AcDbEntity
  8
一般
  6
Continuous
 62
     7
370
    18
100
AcDbVertex
100
AcDb2dVertex
 10
-15.0
 20
-76.89860223920645
 30
0.0
  0
VERTEX
  5
178
330
176
100
AcDbEntity
  8
一般
  6
Continuous
 62
     7
370
    18
100
AcDbVertex
100
AcDb2dVertex
 10
32.97139646339438
 20
-76.89860223920645
 30
0.0
  0
VERTEX
  5
179
330
176
100
AcDbEntity
  8
一般
  6
Continuous
 62
     7
370
    18
100
AcDbVertex
100
AcDb2dVertex
 10
32.97139646339438
 20
-77.99999999999998
 30
0.0
  0
VERTEX
  5
17A
330
176
100
AcDbEntity
  8
一般
  6
Continuous
 62
     7
370
    18
100
AcDbVertex
100
AcDb2dVertex
 10
-15.0
 20
-77.99999999999998
 30
0.0
  0
SEQEND
  5
17B
330
176
100
AcDbEntity
  8
一般
  6
Continuous
 62
     7
370
    18
  0
POLYLINE
  5
17D
330
A
100
AcDbEntity
  8
一般
  6
Continuous
 62
     7
370
    18
100
AcDb2dPolyline
 66
     1
 10
0.0
 20
0.0
 30
0.0
 70
     1
 75
     5
  0
VERTEX
  5
17E
330
17D
100
AcDbEntity
  8
一般
  6
Continuous
 62
     7
370
    18
100
AcDbVertex
100
AcDb2dVertex
 10
32.97139646339438
 20
-74.14860223920645
 30
0.0
  0
VERTEX
  5
17F
330
17D
100
AcDbEntity
  8
一般
  6
Continuous
 62
     7
370
    18
100
AcDbVertex
100
AcDb2dVertex
 10
39.97139646339439
 20
-74.14860223920645
 30
0.0
  0
VERTEX
  5
180
330
17D
100
AcDbEntity
  8
一般
  6
Continuous
 62
     7
370
    18
100
AcDbVertex
100
AcDb2dVertex
 10
39.97139646339439
 20
-74.64860223920645
 30
0.0
  0
VERTEX
  5
181
330
17D
100
AcDbEntity
  8
一般
  6
Continuous
 62
     7
370
    18
100
AcDbVertex
100
AcDb2dVertex
 10
32.97139646339438
 20
-74.64860223920645
 30
0.0
  0
SEQEND
  5
182
330
17D
100
AcDbEntity
  8
一般
  6
Continuous
 62
     7
370
    18
  0
POLYLINE
  5
184
330
A
100
AcDbEntity
  8
一般
  6
Continuous
 62
     7
370
    18
100
AcDb2dPolyline
 66
     1
 10
0.0
 20
0.0
 30
0.0
 70
     1
 75
     5
  0
VERTEX
  5
185
330
184
100
AcDbEntity
  8
一般
  6
Continuous
 62
     7
370
    18
100
AcDbVertex
100
AcDb2dVertex
 10
32.97139646339438
 20
-77.24999999999998
 30
0.0
  0
VERTEX
  5
186
330
184
100
AcDbEntity
  8
一般
  6
Continuous
 62
     7
370
    18
100
AcDbVertex
100
AcDb2dVertex
 10
39.97139646339439
 20
-77.24999999999998
 30
0.0
  0
VERTEX
  5
187
330
184
100
AcDbEntity
  8
一般
  6
Continuous
 62
     7
370
    18
100
AcDbVertex
100
AcDb2dVertex
 10
39.97139646339439
 20
-77.74999999999998
 30
0.0
  0
VERTEX
  5
188
330
184
100
AcDbEntity
  8
一般
  6
Continuous
 62
     7
370
    18
100
AcDbVertex
100
AcDb2dVertex
 10
32.97139646339438
 20
-77.74999999999998
 30
0.0
  0
SEQEND
  5
189
330
184
100
AcDbEntity
  8
一般
  6
Continuous
 62
     7
370
    18
  0
LINE
  5
18B
330
A
100
AcDbEntity
  8
一般
  6
Continuous
 62
     7
370
    18
100
AcDbLine
 10
80.33633107349414
 20
11.0
 30
0.0
 11
80.33633107349414
 21
-88.0
 31
0.0
  0
CIRCLE
  5
18C
102
{ACAD_REACTORS
330
18D
102
}
330
A
100
AcDbEntity
  8
一般
  6
Continuous
 62
     7
370
    18
100
AcDbCircle
 10
100.6723124552409
 20
-9.551272629633794
 30
0.0
 40
0.8935577649095771
  0
HATCH
  5
18D
330
A
100
AcDbEntity
  8
一般
  6
Continuous
 62
     1
370
     0
100
AcDbHatch
 10
0.0
 20
0.0
 30
0.0
210
0.0
220
0.0
230
1.0
  2
SOLID
 70
     1
 71
     1
 91
        1
 92
        1
 93
        1
 72
     2
 10
100.6723124552409
 20
-9.551272629633794
 40
0.8935577649095771
 50
0.0
 51
360.0
 73
     0
 97
        1
330
18C
 75
     0
 76
     1
 98
        1
 10
0.0
 20
0.0
450
        0
451
        0
460
0.0
461
0.0
452
        0
462
0.0
453
        0
470

  0
CIRCLE
  5
18E
330
A
100
AcDbEntity
  8
一般
  6
Continuous
 62
     7
370
    18
100
AcDbCircle
 10
100.6723124552409
 20
-29.0
 30
0.0
 40
0.8935577649095771
  0
CIRCLE
  5
18F
102
{ACAD_REACTORS
330
190
102
}
330
A
100
AcDbEntity
  8
一般
  6
Continuous
 62
     7
370
    18
100
AcDbCircle
 10
100.6723124552409
 20
-32.87322178466768
 30
0.0
 40
0.8935577649095733
  0
HATCH
  5
190
330
A
100
AcDbEntity
  8
一般
  6
Continuous
 62
     7
370
     0
100
AcDbHatch
 10
0.0
 20
0.0
 30
0.0
210
0.0
220
0.0
230
1.0
  2
SOLID
 70
     1
 71
     1
 91
        1
 92
        1
 93
        1
 72
     2
 10
100.6723124552409
 20
-32.87322178466768
 40
0.8935577649095733
 50
0.0
 51
360.0
 73
     0
 97
        1
330
18F
 75
     0
 76
     1
 98
        1
 10
0.0
 20
0.0
450
        0
451
        0
460
0.0
461
0.0
452
        0
462
0.0
453
        0
470

  0
CIRCLE
  5
191
330
A
100
AcDbEntity
  8
一般
  6
Continuous
 62
     7
370
    18
100
AcDbCircle
 10
100.5790472093684
 20
-80.59999999999998
 30
0.0
 40
0.4000000000000057
  0
CIRCLE
  5
192
102
{ACAD_REACTORS
330
193
102
}
330
A
100
AcDbEntity
  8
一般
  6
Continuous
 62
     7
370
    18
100
AcDbCircle
 10
100.599392023959
 20
-76.0
 30
0.0
 40
0.4000000000000057
  0
HATCH
  5
193
330
A
100
AcDbEntity
  8
一般
  6
Continuous
 62
     1
370
     0
100
AcDbHatch
 10
0.0
 20
0.0
 30
0.0
210
0.0
220
0.0
230
1.0
  2
SOLID
 70
     1
 71
     1
 91
        1
 92
        1
 93
        1
 72
     2
 10
100.599392023959
 20
-76.0
 40
0.4000000000000057
 50
0.0
 51
360.0
 73
     0
 97
        1
330
192
 75
     0
 76
     1
 98
        1
 10
0.0
 20
0.0
450
        0
451
        0
460
0.0
461
0.0
452
        0
462
0.0
453
        0
470

  0
POLYLINE
  5
194
330
A
100
AcDbEntity
  8
一般
  6
Continuous
 62
     7
370
    18
100
AcDb2dPolyline
 66
     1
 10
0.0
 20
0.0
 30
0.0
 70
     1
 75
     5
  0
VERTEX
  5
195
330
194
100
AcDbEntity
  8
一般
  6
Continuous
 62
     7
370
    18
100
AcDbVertex
100
AcDb2dVertex
 10
114.4881166787247
 20
-0.5
 30
0.0
  0
VERTEX
  5
196
330
194
100
AcDbEntity
  8
一般
  6
Continuous
 62
     7
370
    18
100
AcDbVertex
100
AcDb2dVertex
 10
116.4881166787247
 20
-0.5
 30
0.0
  0
VERTEX
  5
197
330
194
100
AcDbEntity
  8
一般
  6
Continuous
 62
     7
370
    18
100
AcDbVertex
100
AcDb2dVertex
 10
116.4881166787247
 20
-5.5
 30
0.0
  0
VERTEX
  5
198
330
194
100
AcDbEntity
  8
一般
  6
Continuous
 62
     7
370
    18
100
AcDbVertex
100
AcDb2dVertex
 10
114.4881166787247
 20
-5.5
 30
0.0
  0
SEQEND
  5
199
330
194
100
AcDbEntity
  8
一般
  6
Continuous
 62
     7
370
    18
  0
POLYLINE
  5
19B
330
A
100
AcDbEntity
  8
一般
  6
Continuous
 62
     7
370
    18
100
AcDb2dPolyline
 66
     1
 10
0.0
 20
0.0
 30
0.0
 70
     1
 75
     5
  0
VERTEX
  5
19C
330
19B
100
AcDbEntity
  8
一般
  6
Continuous
 62
     7
370
    18
100
AcDbVertex
100
AcDb2dVertex
 10
114.4361801446629
 20
-41.5
 30
0.0
  0
VERTEX
  5
19D
330
19B
100
AcDbEntity
  8
一般
  6
Continuous
 62
     7
370
    18
100
AcDbVertex
100
AcDb2dVertex
 10
116.4361801446629
 20
-41.5
 30
0.0
  0
VERTEX
  5
19E
330
19B
100
AcDbEntity
  8
一般
  6
Continuous
 62
     7
370
    18
100
AcDbVertex
100
AcDb2dVertex
 10
116.4361801446629
 20
-46.5
 30
0.0
  0
VERTEX
  5
19F
330
19B
100
AcDbEntity
  8
一般
  6
Continuous
 62
     7
370
    18
100
AcDbVertex
100
AcDb2dVertex
 10
114.4361801446629
 20
-46.5
 30
0.0
  0
SEQEND
  5
1A0
330
19B
100
AcDbEntity
  8
一般
  6
Continuous
 62
     7
370
    18
  0
POLYLINE
  5
1A2
330
A
100
AcDbEntity
  8
一般
  6
Continuous
 62
     7
370
    18
100
AcDb2dPolyline
 66
     1
 10
0.0
 20
0.0
 30
0.0
 70
     1
 75
     5
  0
VERTEX
  5
1A3
330
1A2
100
AcDbEntity
  8
一般
  6
Continuous
 62
     7
370
    18
100
AcDbVertex
100
AcDb2dVertex
 10
114.436331073494
 20
-71.5
 30
0.0
  0
VERTEX
  5
1A4
330
1A2
100
AcDbEntity
  8
一般
  6
Continuous
 62
     7
370
    18
100
AcDbVertex
100
AcDb2dVertex
 10
116.436331073494
 20
-71.5
 30
0.0
  0
VERTEX
  5
1A5
330
1A2
100
AcDbEntity
  8
一般
  6
Continuous
 62
     7
370
    18
100
AcDbVertex
100
AcDb2dVertex
 10
116.436331073494
 20
-76.5
 30
0.0
  0
VERTEX
  5
1A6
330
1A2
100
AcDbEntity
  8
一般
  6
Continuous
 62
     7
370
    18
100
AcDbVertex
100
AcDb2dVertex
 10
114.436331073494
 20
-76.5
 30
0.0
  0
SEQEND
  5
1A7
330
1A2
100
AcDbEntity
  8
一般
  6
Continuous
 62
     7
370
    18
  0
LINE
  5
1B4
330
A
100
AcDbEntity
  8
一般
  6
Continuous
 62
     7
370
    18
100
AcDbLine
 10
12.97139646339438
 20
-77.0
 30
0.0
 11
12.97139646339438
 21
-65.0
 31
0.0
  0
LINE
  5
1B5
330
A
100
AcDbEntity
  8
一般
  6
Continuous
 62
     7
370
    18
100
AcDbLine
 10
12.97139646339438
 20
-65.0
 30
0.0
 11
50.97139646339439
 21
-65.0
 31
0.0
  0
MTEXT
  5
1B6
330
A
100
AcDbEntity
  8
一般
 62
     7
100
AcDbMText
 10
12.9206578238404
 20
-61.60390942762408
 30
0.0
 40
2.714735243055555
 41
0.0
 46
0.0
 71
     1
 72
     1
  1
{\fHGPｺﾞｼｯｸM|b0|i0|c128|p0;\l調光器に接続する通信線}
 73
     1
 44
0.7828267384257844
  0
MTEXT
  5
1C5
330
A
100
AcDbEntity
  8
一般
 62
     7
100
AcDbMText
 10
5.340885580338265
 20
-38.38665939643135
 30
0.0
 40
3.257682291666666
 41
0.0
 46
0.0
 71
     1
 72
     1
  1
{\fHGPｺﾞｼｯｸM|b0|i0|c128|p0;\l-L(黒）}
 73
     1
 44
0.7828267384257844
  0
POLYLINE
  5
1C6
102
{ACAD_REACTORS
330
1CD
102
}
330
A
100
AcDbEntity
  8
一般
  6
Continuous
 62
     7
370
    18
100
AcDb2dPolyline
 66
     1
 10
0.0
 20
0.0
 30
0.0
 70
     1
 75
     5
  0
VERTEX
  5
1C7
330
1C6
100
AcDbEntity
  8
一般
  6
Continuous
 62
     7
370
    18
100
AcDbVertex
100
AcDb2dVertex
 10
-15.0
 20
-9.272824487158878
 30
0.0
  0
VERTEX
  5
1C8
330
1C6
100
AcDbEntity
  8
一般
  6
Continuous
 62
     7
370
    18
100
AcDbVertex
100
AcDb2dVertex
 10
29.15630369558483
 20
-9.272824487158878
 30
0.0
  0
VERTEX
  5
1C9
330
1C6
100
AcDbEntity
  8
一般
  6
Continuous
 62
     7
370
    18
100
AcDbVertex
100
AcDb2dVertex
 10
29.15630369558483
 20
-11.19647455217978
 30
0.0
  0
VERTEX
  5
1CA
330
1C6
100
AcDbEntity
  8
一般
  6
Continuous
 62
     7
370
    18
100
AcDbVertex
100
AcDb2dVertex
 10
-15.0
 20
-11.19647455217978
 30
0.0
  0
SEQEND
  5
1CB
330
1C6
100
AcDbEntity
  8
一般
  6
Continuous
 62
     7
370
    18
  0
HATCH
  5
1CD
330
A
100
AcDbEntity
  8
一般
  6
Continuous
 62
     1
370
     0
100
AcDbHatch
 10
0.0
 20
0.0
 30
0.0
210
0.0
220
0.0
230
1.0
  2
SOLID
 70
     1
 71
     1
 91
        1
 92
        1
 93
        4
 72
     1
 10
-15.0
 20
-9.272824487158878
 11
29.15630369558483
 21
-9.272824487158878
 72
     1
 10
29.15630369558483
 20
-9.272824487158878
 11
29.15630369558483
 21
-11.19647455217978
 72
     1
 10
29.15630369558483
 20
-11.19647455217978
 11
-15.0
 21
-11.19647455217978
 72
     1
 10
-15.0
 20
-11.19647455217978
 11
-15.0
 21
-9.272824487158878
 97
        1
330
1C6
 75
     0
 76
     1
 98
        1
 10
0.0
 20
0.0
450
        0
451
        0
460
0.0
461
0.0
452
        0
462
0.0
453
        0
470

  0
POLYLINE
  5
1CE
330
A
100
AcDbEntity
  8
一般
  6
Continuous
 62
     7
370
    18
100
AcDb2dPolyline
 66
     1
 10
0.0
 20
0.0
 30
0.0
 70
     1
 75
     5
  0
VERTEX
  5
1CF
330
1CE
100
AcDbEntity
  8
一般
  6
Continuous
 62
     7
370
    18
100
AcDbVertex
100
AcDb2dVertex
 10
-15.0
 20
-29.27282448715886
 30
0.0
  0
VERTEX
  5
1D0
330
1CE
100
AcDbEntity
  8
一般
  6
Continuous
 62
     7
370
    18
100
AcDbVertex
100
AcDb2dVertex
 10
17.0
 20
-29.27282448715886
 30
0.0
  0
VERTEX
  5
1D1
330
1CE
100
AcDbEntity
  8
一般
  6
Continuous
 62
     7
370
    18
100
AcDbVertex
100
AcDb2dVertex
 10
17.0
 20
-31.27282448715886
 30
0.0
  0
VERTEX
  5
1D2
330
1CE
100
AcDbEntity
  8
一般
  6
Continuous
 62
     7
370
    18
100
AcDbVertex
100
AcDb2dVertex
 10
-15.0
 20
-31.27282448715886
 30
0.0
  0
SEQEND
  5
1D3
330
1CE
100
AcDbEntity
  8
一般
  6
Continuous
 62
     7
370
    18
  0
SOLID
  5
1D5
330
A
100
AcDbEntity
  8
一般
  6
Continuous
 62
     7
370
    18
100
AcDbTrace
 10
-15.0
 20
-35.14604627182657
 30
0.0
 11
-15.0
 21
-33.14604627182657
 31
0.0
 12
17.0
 22
-35.14604627182657
 32
0.0
 13
17.0
 23
-33.14604627182657
 33
0.0
  0
POLYLINE
  5
1D6
330
A
100
AcDbEntity
  8
一般
  6
Continuous
 62
     7
370
    18
100
AcDb2dPolyline
 66
     1
 10
0.0
 20
0.0
 30
0.0
 70
     1
 75
     5
  0
VERTEX
  5
1D7
330
1D6
100
AcDbEntity
  8
一般
  6
Continuous
 62
     7
370
    18
100
AcDbVertex
100
AcDb2dVertex
 10
17.0
 20
-29.77282448715886
 30
0.0
  0
VERTEX
  5
1D8
330
1D6
100
AcDbEntity
  8
一般
  6
Continuous
 62
     7
370
    18
100
AcDbVertex
100
AcDb2dVertex
 10
26.0
 20
-29.77282448715886
 30
0.0
  0
VERTEX
  5
1D9
330
1D6
100
AcDbEntity
  8
一般
  6
Continuous
 62
     7
370
    18
100
AcDbVertex
100
AcDb2dVertex
 10
26.0
 20
-30.77282448715886
 30
0.0
  0
VERTEX
  5
1DA
330
1D6
100
AcDbEntity
  8
一般
  6
Continuous
 62
     7
370
    18
100
AcDbVertex
100
AcDb2dVertex
 10
17.0
 20
-30.77282448715886
 30
0.0
  0
SEQEND
  5
1DB
330
1D6
100
AcDbEntity
  8
一般
  6
Continuous
 62
     7
370
    18
  0
POLYLINE
  5
1DD
330
A
100
AcDbEntity
  8
一般
  6
Continuous
 62
     7
370
    18
100
AcDb2dPolyline
 66
     1
 10
0.0
 20
0.0
 30
0.0
 70
     1
 75
     5
  0
VERTEX
  5
1DE
330
1DD
100
AcDbEntity
  8
一般
  6
Continuous
 62
     7
370
    18
100
AcDbVertex
100
AcDb2dVertex
 10
17.0
 20
-33.64604627182657
 30
0.0
  0
VERTEX
  5
1DF
330
1DD
100
AcDbEntity
  8
一般
  6
Continuous
 62
     7
370
    18
100
AcDbVertex
100
AcDb2dVertex
 10
26.0
 20
-33.64604627182657
 30
0.0
  0
VERTEX
  5
1E0
330
1DD
100
AcDbEntity
  8
一般
  6
Continuous
 62
     7
370
    18
100
AcDbVertex
100
AcDb2dVertex
 10
26.0
 20
-34.64604627182657
 30
0.0
  0
VERTEX
  5
1E1
330
1DD
100
AcDbEntity
  8
一般
  6
Continuous
 62
     7
370
    18
100
AcDbVertex
100
AcDb2dVertex
 10
17.0
 20
-34.64604627182657
 30
0.0
  0
SEQEND
  5
1E2
330
1DD
100
AcDbEntity
  8
一般
  6
Continuous
 62
     7
370
    18
  0
MTEXT
  5
1E4
330
A
100
AcDbEntity
  8
一般
 62
     7
100
AcDbMText
 10
4.287440737580055
 20
-4.17029711374574
 30
0.0
 40
3.257682291666666
 41
0.0
 46
0.0
 71
     1
 72
     1
  1
{\fHGPｺﾞｼｯｸM|b0|i0|c128|p0;\l+V(赤）}
 73
     1
 44
0.7828267384257844
  0
MTEXT
  5
1E5
330
A
100
AcDbEntity
  8
一般
 62
     7
100
AcDbMText
 10
4.447775265854659
 20
-23.65580886215886
 30
0.0
 40
3.257682291666666
 41
0.0
 46
0.0
 71
     1
 72
     1
  1
{\fHGPｺﾞｼｯｸM|b0|i0|c128|p0;\l-V(白）}
 73
     1
 44
0.7828267384257844
  0
MTEXT
  5
1E6
330
A
100
AcDbEntity
  8
一般
 62
     7
100
AcDbMText
 10
5.340885580338238
 20
-38.43752132753689
 30
0.0
 40
3.257682291666666
 41
0.0
 46
0.0
 71
     1
 72
     1
  1
{\fHGPｺﾞｼｯｸM|b0|i0|c128|p0;\l-L(黒）}
 73
     1
 44
0.7828267384257844
  0
MTEXT
  5
1E7
330
A
100
AcDbEntity
  8
一般
 62
     7
100
AcDbMText
 10
28.0
 20
-33.43752132753684
 30
0.0
 40
3.257682291666666
 41
0.0
 46
0.0
 71
     1
 72
     1
  1
{\fHGPｺﾞｼｯｸM|b0|i0|c128|p0;\lLED-}
 73
     1
 44
0.7828267384257844
  0
MTEXT
  5
1E8
330
A
100
AcDbEntity
  8
一般
 62
     7
100
AcDbMText
 10
28.28251953124999
 20
-26.59747552882553
 30
0.0
 40
3.257682291666666
 41
0.0
 46
0.0
 71
     1
 72
     1
  1
{\fHGPｺﾞｼｯｸM|b0|i0|c128|p0;\lDC-}
 73
     1
 44
0.7828267384257844
  0
POLYLINE
  5
1E9
102
{ACAD_REACTORS
330
1F0
102
}
330
A
100
AcDbEntity
  8
一般
  6
Continuous
 62
     7
370
    18
100
AcDb2dPolyline
 66
     1
 10
0.0
 20
0.0
 30
0.0
 70
     1
 75
     5
  0
VERTEX
  5
1EA
330
1E9
100
AcDbEntity
  8
一般
  6
Continuous
 62
     7
370
    18
100
AcDbVertex
100
AcDb2dVertex
 10
1.0
 20
-12.45906988507434
 30
0.0
  0
VERTEX
  5
1EB
330
1E9
100
AcDbEntity
  8
一般
  6
Continuous
 62
     7
370
    18
100
AcDbVertex
100
AcDb2dVertex
 10
31.31260739116965
 20
-12.45906988507434
 30
0.0
  0
VERTEX
  5
1EC
330
1E9
100
AcDbEntity
  8
一般
  6
Continuous
 62
     7
370
    18
100
AcDbVertex
100
AcDb2dVertex
 10
31.31260739116965
 20
-14.38271995009525
 30
0.0
  0
VERTEX
  5
1ED
330
1E9
100
AcDbEntity
  8
一般
  6
Continuous
 62
     7
370
    18
100
AcDbVertex
100
AcDb2dVertex
 10
1.0
 20
-14.38271995009525
 30
0.0
  0
SEQEND
  5
1EE
330
1E9
100
AcDbEntity
  8
一般
  6
Continuous
 62
     7
370
    18
  0
HATCH
  5
1F0
330
A
100
AcDbEntity
  8
一般
  6
Continuous
 62
     1
370
     0
100
AcDbHatch
 10
0.0
 20
0.0
 30
0.0
210
0.0
220
0.0
230
1.0
  2
SOLID
 70
     1
 71
     1
 91
        1
 92
        1
 93
        4
 72
     1
 10
1.0
 20
-12.45906988507434
 11
31.31260739116965
 21
-12.45906988507434
 72
     1
 10
31.31260739116965
 20
-12.45906988507434
 11
31.31260739116965
 21
-14.38271995009525
 72
     1
 10
31.31260739116965
 20
-14.38271995009525
 11
1.0
 21
-14.38271995009525
 72
     1
 10
1.0
 20
-14.38271995009525
 11
1.0
 21
-12.45906988507434
 97
        1
330
1E9
 75
     0
 76
     1
 98
        1
 10
0.0
 20
0.0
450
        0
451
        0
460
0.0
461
0.0
452
        0
462
0.0
453
        0
470

  0
POLYLINE
  5
1F1
102
{ACAD_REACTORS
330
1F8
102
}
330
A
100
AcDbEntity
  8
一般
  6
Continuous
 62
     7
370
    18
100
AcDb2dPolyline
 66
     1
 10
0.0
 20
0.0
 30
0.0
 70
     1
 75
     5
  0
VERTEX
  5
1F2
330
1F1
100
AcDbEntity
  8
一般
  6
Continuous
 62
     7
370
    18
100
AcDbVertex
100
AcDb2dVertex
 10
1.120354397465519
 20
-15.90067492345379
 30
0.0
  0
VERTEX
  5
1F3
330
1F1
100
AcDbEntity
  8
一般
  6
Continuous
 62
     7
370
    18
100
AcDbVertex
100
AcDb2dVertex
 10
31.43296178863517
 20
-15.90067492345379
 30
0.0
  0
VERTEX
  5
1F4
330
1F1
100
AcDbEntity
  8
一般
  6
Continuous
 62
     7
370
    18
100
AcDbVertex
100
AcDb2dVertex
 10
31.43296178863517
 20
-17.8243249884747
 30
0.0
  0
VERTEX
  5
1F5
330
1F1
100
AcDbEntity
  8
一般
  6
Continuous
 62
     7
370
    18
100
AcDbVertex
100
AcDb2dVertex
 10
1.120354397465519
 20
-17.8243249884747
 30
0.0
  0
SEQEND
  5
1F6
330
1F1
100
AcDbEntity
  8
一般
  6
Continuous
 62
     7
370
    18
  0
HATCH
  5
1F8
330
A
100
AcDbEntity
  8
一般
  6
Continuous
 62
     1
370
     0
100
AcDbHatch
 10
0.0
 20
0.0
 30
0.0
210
0.0
220
0.0
230
1.0
  2
SOLID
 70
     1
 71
     1
 91
        1
 92
        1
 93
        4
 72
     1
 10
1.120354397465519
 20
-15.90067492345379
 11
31.43296178863517
 21
-15.90067492345379
 72
     1
 10
31.43296178863517
 20
-15.90067492345379
 11
31.43296178863517
 21
-17.8243249884747
 72
     1
 10
31.43296178863517
 20
-17.8243249884747
 11
1.120354397465519
 21
-17.8243249884747
 72
     1
 10
1.120354397465519
 20
-17.8243249884747
 11
1.120354397465519
 21
-15.90067492345379
 97
        1
330
1F1
 75
     0
 76
     1
 98
        1
 10
0.0
 20
0.0
450
        0
451
        0
460
0.0
461
0.0
452
        0
462
0.0
453
        0
470

  0
INSERT
  5
1F9
330
A
100
AcDbEntity
  8
一般
 62
     7
100
AcDbBlockReference
  2
グループ-5
 10
0.0
 20
0.0
 30
0.0
  0
MTEXT
  5
1FA
330
A
100
AcDbEntity
  8
一般
 62
     7
100
AcDbMText
 10
-11.72140001943878
 20
-15.87677240382553
 30
0.0
 40
3.257682291666666
 41
0.0
 46
0.0
 71
     1
 72
     1
  1
{\fHGPｺﾞｼｯｸM|b0|i0|c128|p0;\lLED+}
 73
     1
 44
0.7828267384257844
  0
MTEXT
  5
1FB
330
A
100
AcDbEntity
  8
一般
 62
     7
100
AcDbMText
 10
-11.75401720693878
 20
-11.53914219549222
 30
0.0
 40
3.257682291666666
 41
0.0
 46
0.0
 71
     1
 72
     1
  1
{\fHGPｺﾞｼｯｸM|b0|i0|c128|p0;\lDC+}
 73
     1
 44
0.7828267384257844
  0
POLYLINE
  5
1FC
330
A
100
AcDbEntity
  8
一般
  6
Continuous
 62
     7
370
    18
100
AcDb2dPolyline
 66
     1
 10
0.0
 20
0.0
 30
0.0
 70
     1
 75
     5
  0
VERTEX
  5
1FD
330
1FC
100
AcDbEntity
  8
一般
  6
Continuous
 62
     7
370
    18
100
AcDbVertex
100
AcDb2dVertex
 10
-2.0
 20
-12.99205730932925
 30
0.0
  0
VERTEX
  5
1FE
330
1FC
100
AcDbEntity
  8
一般
  6
Continuous
 62
     7
370
    18
100
AcDbVertex
100
AcDb2dVertex
 10
1.0
 20
-12.99205730932925
 30
0.0
  0
VERTEX
  5
1FF
330
1FC
100
AcDbEntity
  8
一般
  6
Continuous
 62
     7
370
    18
100
AcDbVertex
100
AcDb2dVertex
 10
1.0
 20
-13.99205730932925
 30
0.0
  0
VERTEX
  5
200
330
1FC
100
AcDbEntity
  8
一般
  6
Continuous
 62
     7
370
    18
100
AcDbVertex
100
AcDb2dVertex
 10
-2.0
 20
-13.99205730932925
 30
0.0
  0
SEQEND
  5
201
330
1FC
100
AcDbEntity
  8
一般
  6
Continuous
 62
     7
370
    18
  0
POLYLINE
  5
203
330
A
100
AcDbEntity
  8
一般
  6
Continuous
 62
     7
370
    18
100
AcDb2dPolyline
 66
     1
 10
0.0
 20
0.0
 30
0.0
 70
     1
 75
     5
  0
VERTEX
  5
204
330
203
100
AcDbEntity
  8
一般
  6
Continuous
 62
     7
370
    18
100
AcDbVertex
100
AcDb2dVertex
 10
-1.894712308313899
 20
-16.3430162816163
 30
0.0
  0
VERTEX
  5
205
330
203
100
AcDbEntity
  8
一般
  6
Continuous
 62
     7
370
    18
100
AcDbVertex
100
AcDb2dVertex
 10
1.1052876916861
 20
-16.3430162816163
 30
0.0
  0
VERTEX
  5
206
330
203
100
AcDbEntity
  8
一般
  6
Continuous
 62
     7
370
    18
100
AcDbVertex
100
AcDb2dVertex
 10
1.1052876916861
 20
-17.3430162816163
 30
0.0
  0
VERTEX
  5
207
330
203
100
AcDbEntity
  8
一般
  6
Continuous
 62
     7
370
    18
100
AcDbVertex
100
AcDb2dVertex
 10
-1.894712308313899
 20
-17.3430162816163
 30
0.0
  0
SEQEND
  5
208
330
203
100
AcDbEntity
  8
一般
  6
Continuous
 62
     7
370
    18
  0
INSERT
  5
20A
330
A
100
AcDbEntity
  8
一般
 62
     7
100
AcDbBlockReference
  2
グループ-6
 10
0.0
 20
0.0
 30
0.0
  0
DIMENSION
  5
264
330
A
100
AcDbEntity
  8
一般
  6
Continuous
370
     0
100
AcDbDimension
280
     0
  2
*D12
 10
-94.22378465269531
 20
-88.00000000000002
 30
0.0
 11
-98.25454637144535
 21
-38.49999999999999
 31
0.0
 70
    32
 71
     5
 42
99.00000000000002
 73
     0
 74
     0
 75
     0
  3
Arch
100
AcDbAlignedDimension
 13
-80.0
 23
11.0
 33
0.0
 14
-80.00000000000001
 24
-88.0
 34
0.0
 50
90.0
100
AcDbRotatedDimension
1001
ACAD
1000
DSTYLE
1002
{
1070
   341
1005
0
1002
}
  0
DIMENSION
  5
271
330
A
100
AcDbEntity
  8
一般
  6
Continuous
370
     0
100
AcDbDimension
280
     0
  2
*D13
 10
-15.0
 20
19.33953062304965
 30
0.0
 11
-47.5
 21
23.37029234179968
 31
0.0
 70
    32
 71
     5
 42
65.0
 73
     0
 74
     0
 75
     0
  3
Arch
100
AcDbAlignedDimension
 13
-80.0
 23
11.0
 33
0.0
 14
-15.0
 24
11.0
 34
0.0
100
AcDbRotatedDimension
1001
ACAD
1000
DSTYLE
1002
{
1070
   341
1005
0
1002
}
  0
DIMENSION
  5
293
330
A
100
AcDbEntity
  8
一般
  6
Continuous
370
     0
100
AcDbDimension
280
     0
  2
*D14
 10
-94.22378465269536
 20
41.09556090166856
 30
0.0
 11
-98.25454637144536
 21
58.59556090166852
 31
0.0
 70
    32
 71
     5
 42
34.99999999999988
 73
     0
 74
     0
 75
     0
  3
Arch
100
AcDbAlignedDimension
 13
-80.0
 23
76.09556090166842
 33
0.0
 14
-80.0
 24
41.09556090166854
 34
0.0
 50
90.0
100
AcDbRotatedDimension
1001
ACAD
1000
DSTYLE
1002
{
1070
   341
1005
0
1002
}
  0
ENDSEC
  0
SECTION
  2
OBJECTS
  0
DICTIONARY
  5
19
330
0
100
AcDbDictionary
281
     1
  3
ACAD_CIP_PREVIOUS_PRODUCT_INFO
350
262
  3
ACAD_COLOR
350
241
  3
ACAD_DETAILVIEWSTYLE
350
25A
  3
ACAD_GROUP
350
1A
  3
ACAD_LAYOUT
350
1E
  3
ACAD_MATERIAL
350
20F
  3
ACAD_MLEADERSTYLE
350
256
  3
ACAD_MLINESTYLE
350
1B
  3
ACAD_PLOTSETTINGS
350
22
  3
ACAD_PLOTSTYLENAME
350
1F
  3
ACAD_SCALELIST
350
244
  3
ACAD_SECTIONVIEWSTYLE
350
258
  3
ACAD_TABLESTYLE
350
242
  3
ACAD_VISUALSTYLE
350
228
  3
ACAD_WIPEOUT_VARS
350
23
  3
ACDB_RECOMPOSE_DATA
350
2CF
  3
AcDbVariableDictionary
350
20D
  3
ASE_INDEX_DICTIONARY
350
2B7
  0
DICTIONARY
  5
2A0
330
14
100
AcDbDictionary
280
     1
281
     1
  3
ADSK_XREC_LAYER_RECONCILED
360
2A1
  0
DICTIONARY
  5
2A2
330
3E
100
AcDbDictionary
280
     1
281
     1
  3
ADSK_XREC_LAYER_RECONCILED
360
2A3
  0
DICTIONARY
  5
2A4
330
3F
100
AcDbDictionary
280
     1
281
     1
  3
ADSK_XREC_LAYER_RECONCILED
360
2A5
  0
DICTIONARY
  5
2A6
330
40
100
AcDbDictionary
280
     1
281
     1
  3
ADSK_XREC_LAYER_RECONCILED
360
2A7
  0
DICTIONARY
  5
2A8
330
41
100
AcDbDictionary
280
     1
281
     1
  3
ADSK_XREC_LAYER_RECONCILED
360
2A9
  0
DICTIONARY
  5
2AA
330
42
100
AcDbDictionary
280
     1
281
     1
  3
ADSK_XREC_LAYER_RECONCILED
360
2AB
  0
DICTIONARY
  5
2AC
330
43
100
AcDbDictionary
280
     1
281
     1
  3
ADSK_XREC_LAYER_RECONCILED
360
2AD
  0
DICTIONARY
  5
2AE
330
44
100
AcDbDictionary
280
     1
281
     1
  3
ADSK_XREC_LAYER_RECONCILED
360
2AF
  0
DICTIONARY
  5
2B0
330
45
100
AcDbDictionary
280
     1
281
     1
  3
ADSK_XREC_LAYER_RECONCILED
360
2B1
  0
DICTIONARY
  5
2B2
330
46
100
AcDbDictionary
280
     1
281
     1
  3
ADSK_XREC_LAYER_RECONCILED
360
2B3
  0
DICTIONARY
  5
2B4
330
47
100
AcDbDictionary
280
     1
281
     1
  3
ADSK_XREC_LAYER_RECONCILED
360
2B5
  0
XRECORD
  5
262
102
{ACAD_REACTORS
330
19
102
}
330
19
100
AcDbXrecord
280
     1
300
ACD
300
2022
300

  0
DICTIONARY
  5
241
102
{ACAD_REACTORS
330
19
102
}
330
19
100
AcDbDictionary
281
     1
  0
DICTIONARY
  5
25A
102
{ACAD_REACTORS
330
19
102
}
330
19
100
AcDbDictionary
281
     1
  3
Metric50
350
25B
  0
DICTIONARY
  5
1A
102
{ACAD_REACTORS
330
19
102
}
330
19
100
AcDbDictionary
281
     1
  0
DICTIONARY
  5
1E
102
{ACAD_REACTORS
330
19
102
}
330
19
100
AcDbDictionary
281
     1
  3
Layout1
350
21
  3
Model
350
20
  0
DICTIONARY
  5
20F
102
{ACAD_REACTORS
330
19
102
}
330
19
100
AcDbDictionary
281
     1
  3
ByBlock
350
218
  3
ByLayer
350
210
  3
Global
350
220
  0
DICTIONARY
  5
256
102
{ACAD_REACTORS
330
19
102
}
330
19
100
AcDbDictionary
281
     1
  3
Standard
350
257
  0
DICTIONARY
  5
1B
102
{ACAD_REACTORS
330
19
102
}
330
19
100
AcDbDictionary
281
     1
  3
Standard
350
1C
  0
DICTIONARY
  5
22
102
{ACAD_REACTORS
330
19
102
}
330
19
100
AcDbDictionary
281
     1
  0
ACDBDICTIONARYWDFLT
  5
1F
102
{ACAD_REACTORS
330
19
102
}
330
19
100
AcDbDictionary
281
     1
  3
Normal
350
1D
100
AcDbDictionaryWithDefault
340
1D
  0
DICTIONARY
  5
244
102
{ACAD_REACTORS
330
19
102
}
330
19
100
AcDbDictionary
281
     1
  3
A0
350
245
  3
A1
350
246
  3
A2
350
247
  3
A3
350
248
  3
A4
350
249
  3
A5
350
24A
  3
A6
350
24B
  3
A7
350
24C
  3
A8
350
24D
  3
A9
350
24E
  3
B0
350
24F
  3
B1
350
250
  3
B2
350
251
  3
B3
350
252
  3
B4
350
253
  3
B5
350
254
  3
B6
350
255
  0
DICTIONARY
  5
258
102
{ACAD_REACTORS
330
19
102
}
330
19
100
AcDbDictionary
281
     1
  3
Metric50
350
259
  0
DICTIONARY
  5
242
102
{ACAD_REACTORS
330
19
102
}
330
19
100
AcDbDictionary
281
     1
  3
Standard
350
243
  0
DICTIONARY
  5
228
102
{ACAD_REACTORS
330
19
102
}
330
19
100
AcDbDictionary
281
     1
  3
2dWireframe
350
22E
  3
Basic
350
22D
  3
Brighten
350
234
  3
ColorChange
350
238
  3
Conceptual
350
231
  3
Dim
350
233
  3
EdgeColorOff
350
240
  3
Facepattern
350
237
  3
Flat
350
229
  3
FlatWithEdges
350
22A
  3
Gouraud
350
22B
  3
GouraudWithEdges
350
22C
  3
Hidden
350
230
  3
JitterOff
350
23E
  3
Linepattern
350
236
  3
OverhangOff
350
23F
  3
Realistic
350
232
  3
Shaded
350
23D
  3
Shaded with edges
350
23C
  3
Shades of Gray
350
239
  3
Sketchy
350
23A
  3
Thicken
350
235
  3
Wireframe
350
22F
  3
X-Ray
350
23B
  0
WIPEOUTVARIABLES
  5
23
330
19
100
AcDbWipeoutVariables
 70
     0
  0
XRECORD
  5
2CF
102
{ACAD_REACTORS
330
19
102
}
330
19
100
AcDbXrecord
280
     1
 90
        1
330
243
  0
DICTIONARY
  5
20D
102
{ACAD_REACTORS
330
19
102
}
330
19
100
AcDbDictionary
281
     1
  3
CANNOSCALE
350
2C9
  3
CMLEADERSTYLE
350
2C5
  3
CTABLESTYLE
350
2C4
  3
CVIEWDETAILSTYLE
350
2C6
  3
CVIEWSECTIONSTYLE
350
2C7
  3
LAYEREVAL
350
2CB
  3
LAYERNOTIFY
350
2CC
  3
LIGHTINGUNITS
350
2CA
  3
MSLTSCALE
350
2C8
  3
WIPEOUTFRAME
350
20E
  0
DICTIONARY
  5
2B7
102
{ACAD_REACTORS
330
19
102
}
330
19
100
AcDbDictionary
281
     1
  3
ASEBlockHierarchyIndexRecord
350
2B9
1001
DCO15
1040
2061366334.0
  0
XRECORD
  5
2A1
102
{ACAD_REACTORS
330
2A0
102
}
330
2A0
100
AcDbXrecord
280
     1
290
     1
  0
XRECORD
  5
2A3
102
{ACAD_REACTORS
330
2A2
102
}
330
2A2
100
AcDbXrecord
280
     1
290
     1
  0
XRECORD
  5
2A5
102
{ACAD_REACTORS
330
2A4
102
}
330
2A4
100
AcDbXrecord
280
     1
290
     1
  0
XRECORD
  5
2A7
102
{ACAD_REACTORS
330
2A6
102
}
330
2A6
100
AcDbXrecord
280
     1
290
     1
  0
XRECORD
  5
2A9
102
{ACAD_REACTORS
330
2A8
102
}
330
2A8
100
AcDbXrecord
280
     1
290
     1
  0
XRECORD
  5
2AB
102
{ACAD_REACTORS
330
2AA
102
}
330
2AA
100
AcDbXrecord
280
     1
290
     1
  0
XRECORD
  5
2AD
102
{ACAD_REACTORS
330
2AC
102
}
330
2AC
100
AcDbXrecord
280
     1
290
     1
  0
XRECORD
  5
2AF
102
{ACAD_REACTORS
330
2AE
102
}
330
2AE
100
AcDbXrecord
280
     1
290
     1
  0
XRECORD
  5
2B1
102
{ACAD_REACTORS
330
2B0
102
}
330
2B0
100
AcDbXrecord
280
     1
290
     1
  0
XRECORD
  5
2B3
102
{ACAD_REACTORS
330
2B2
102
}
330
2B2
100
AcDbXrecord
280
     1
290
     1
  0
XRECORD
  5
2B5
102
{ACAD_REACTORS
330
2B4
102
}
330
2B4
100
AcDbXrecord
280
     1
290
     1
  0
ACDBDETAILVIEWSTYLE
  5
25B
102
{ACAD_REACTORS
330
25A
102
}
330
25A
100
AcDbModelDocViewStyle
 70
     0
  3
Metric50
290
     0
300
Metric50
 90
        0
100
AcDbDetailViewStyle
 70
     0
 71
     0
 90
        3
 71
     1
340
17
 62
   256
 40
5.0
340
0
 62
   256
 40
5.0
300

 40
0.0
280
     1
 71
     2
340
13
 90
       25
 62
   256
 71
     3
340
17
 62
   256
 40
5.0
 90
        0
 40
15.0
 90
        1
300
%<\AcVar ViewDetailId>% (%<\AcVar ViewScale \f "%sn">%)
 71
     4
340
13
 90
       25
 62
   256
340
13
 90
       25
 62
   256
280
     0
  0
LAYOUT
  5
21
102
{ACAD_REACTORS
330
1E
102
}
330
1E
100
AcDbPlotSettings
  1

  2

  4

  6

 40
0.0
 41
0.0
 42
0.0
 43
0.0
 44
0.0
 45
0.0
 46
0.0
 47
0.0
 48
0.0
 49
0.0
140
0.0
141
0.0
142
1.0
143
1.0
 70
     0
 72
     0
 73
     0
 74
     0
  7

 75
     0
147
1.0
 76
     0
 77
     2
 78
   300
148
0.0
149
0.0
100
AcDbLayout
  1
Layout1
 70
     0
 71
     1
 10
0.0
 20
0.0
 11
12.0
 21
9.0
 12
0.0
 22
0.0
 32
0.0
 14
1.000000000000000E+20
 24
1.000000000000000E+20
 34
1.000000000000000E+20
 15
-1.000000000000000E+20
 25
-1.000000000000000E+20
 35
-1.000000000000000E+20
146
0.0
 13
0.0
 23
0.0
 33
0.0
 16
1.0
 26
0.0
 36
0.0
 17
0.0
 27
1.0
 37
0.0
 76
     0
330
B
  0
LAYOUT
  5
20
102
{ACAD_REACTORS
330
1E
102
}
330
1E
100
AcDbPlotSettings
  1

  2

  4

  6

 40
0.0
 41
0.0
 42
0.0
 43
0.0
 44
0.0
 45
0.0
 46
0.0
 47
0.0
 48
0.0
 49
0.0
140
0.0
141
0.0
142
1.0
143
1.0
 70
  1024
 72
     0
 73
     0
 74
     0
  7

 75
     0
147
1.0
 76
     0
 77
     2
 78
   300
148
0.0
149
0.0
100
AcDbLayout
  1
Model
 70
     0
 71
     0
 10
0.0
 20
0.0
 11
0.0
 21
0.0
 12
0.0
 22
0.0
 32
0.0
 14
0.0
 24
0.0
 34
0.0
 15
0.0
 25
0.0
 35
0.0
146
0.0
 13
0.0
 23
0.0
 33
0.0
 16
0.0
 26
0.0
 36
0.0
 17
0.0
 27
0.0
 37
0.0
 76
     0
330
A
331
15
  0
MATERIAL
  5
218
102
{ACAD_XDICTIONARY
360
219
102
}
102
{ACAD_REACTORS
330
20F
102
}
330
20F
100
AcDbMaterial
  1
ByBlock
 72
     0
 43
0.0008202099737533
 43
0.0
 43
0.0
 43
0.0
 43
0.0
 43
0.0008202099737533
 43
0.0
 43
0.0
 43
0.0
 43
0.0
 43
1.0
 43
0.0
 43
0.0
 43
0.0
 43
0.0
 43
1.0
 77
     0
 47
0.0008202099737533
 47
0.0
 47
0.0
 47
0.0
 47
0.0
 47
0.0008202099737533
 47
0.0
 47
0.0
 47
0.0
 47
0.0
 47
1.0
 47
0.0
 47
0.0
 47
0.0
 47
0.0
 47
1.0
171
     0
 49
0.0008202099737533
 49
0.0
 49
0.0
 49
0.0
 49
0.0
 49
0.0008202099737533
 49
0.0
 49
0.0
 49
0.0
 49
0.0
 49
1.0
 49
0.0
 49
0.0
 49
0.0
 49
0.0
 49
1.0
175
     0
142
0.0008202099737533
142
0.0
142
0.0
142
0.0
142
0.0
142
0.0008202099737533
142
0.0
142
0.0
142
0.0
142
0.0
142
1.0
142
0.0
142
0.0
142
0.0
142
0.0
142
1.0
179
     0
144
0.0008202099737533
144
0.0
144
0.0
144
0.0
144
0.0
144
0.0008202099737533
144
0.0
144
0.0
144
0.0
144
0.0
144
1.0
144
0.0
144
0.0
144
0.0
144
0.0
144
1.0
147
0.0008202099737533
147
0.0
147
0.0
147
0.0
147
0.0
147
0.0008202099737533
147
0.0
147
0.0
147
0.0
147
0.0
147
1.0
147
0.0
147
0.0
147
0.0
147
0.0
147
1.0
  0
MATERIAL
  5
210
102
{ACAD_XDICTIONARY
360
211
102
}
102
{ACAD_REACTORS
330
20F
102
}
330
20F
100
AcDbMaterial
  1
ByLayer
 72
     0
 43
0.0008202099737533
 43
0.0
 43
0.0
 43
0.0
 43
0.0
 43
0.0008202099737533
 43
0.0
 43
0.0
 43
0.0
 43
0.0
 43
1.0
 43
0.0
 43
0.0
 43
0.0
 43
0.0
 43
1.0
 77
     0
 47
0.0008202099737533
 47
0.0
 47
0.0
 47
0.0
 47
0.0
 47
0.0008202099737533
 47
0.0
 47
0.0
 47
0.0
 47
0.0
 47
1.0
 47
0.0
 47
0.0
 47
0.0
 47
0.0
 47
1.0
171
     0
 49
0.0008202099737533
 49
0.0
 49
0.0
 49
0.0
 49
0.0
 49
0.0008202099737533
 49
0.0
 49
0.0
 49
0.0
 49
0.0
 49
1.0
 49
0.0
 49
0.0
 49
0.0
 49
0.0
 49
1.0
175
     0
142
0.0008202099737533
142
0.0
142
0.0
142
0.0
142
0.0
142
0.0008202099737533
142
0.0
142
0.0
142
0.0
142
0.0
142
1.0
142
0.0
142
0.0
142
0.0
142
0.0
142
1.0
179
     0
144
0.0008202099737533
144
0.0
144
0.0
144
0.0
144
0.0
144
0.0008202099737533
144
0.0
144
0.0
144
0.0
144
0.0
144
1.0
144
0.0
144
0.0
144
0.0
144
0.0
144
1.0
147
0.0008202099737533
147
0.0
147
0.0
147
0.0
147
0.0
147
0.0008202099737533
147
0.0
147
0.0
147
0.0
147
0.0
147
1.0
147
0.0
147
0.0
147
0.0
147
0.0
147
1.0
  0
MATERIAL
  5
220
102
{ACAD_XDICTIONARY
360
221
102
}
102
{ACAD_REACTORS
330
20F
102
}
330
20F
100
AcDbMaterial
  1
Global
 72
     0
 43
0.0008202099737533
 43
0.0
 43
0.0
 43
0.0
 43
0.0
 43
0.0008202099737533
 43
0.0
 43
0.0
 43
0.0
 43
0.0
 43
1.0
 43
0.0
 43
0.0
 43
0.0
 43
0.0
 43
1.0
 77
     0
 47
0.0008202099737533
 47
0.0
 47
0.0
 47
0.0
 47
0.0
 47
0.0008202099737533
 47
0.0
 47
0.0
 47
0.0
 47
0.0
 47
1.0
 47
0.0
 47
0.0
 47
0.0
 47
0.0
 47
1.0
171
     0
 49
0.0008202099737533
 49
0.0
 49
0.0
 49
0.0
 49
0.0
 49
0.0008202099737533
 49
0.0
 49
0.0
 49
0.0
 49
0.0
 49
1.0
 49
0.0
 49
0.0
 49
0.0
 49
0.0
 49
1.0
175
     0
142
0.0008202099737533
142
0.0
142
0.0
142
0.0
142
0.0
142
0.0008202099737533
142
0.0
142
0.0
142
0.0
142
0.0
142
1.0
142
0.0
142
0.0
142
0.0
142
0.0
142
1.0
179
     0
144
0.0008202099737533
144
0.0
144
0.0
144
0.0
144
0.0
144
0.0008202099737533
144
0.0
144
0.0
144
0.0
144
0.0
144
1.0
144
0.0
144
0.0
144
0.0
144
0.0
144
1.0
147
0.0008202099737533
147
0.0
147
0.0
147
0.0
147
0.0
147
0.0008202099737533
147
0.0
147
0.0
147
0.0
147
0.0
147
1.0
147
0.0
147
0.0
147
0.0
147
0.0
147
1.0
  0
MLEADERSTYLE
  5
257
102
{ACAD_REACTORS
330
256
102
}
330
256
100
AcDbMLeaderStyle
179
     2
170
     2
171
     1
172
     0
 90
        2
 40
0.0
 41
0.0
173
     1
 91
-1056964608
340
11
 92
       -2
290
     1
 42
2.0
291
     1
 43
0.36
  3
Standard
 44
4.0
300

342
17
174
     1
178
     6
175
     1
176
     0
 93
-1056964608
 45
4.0
292
     0
297
     0
 46
4.0
 94
-1056964608
 47
1.0
 49
1.0
140
1.0
293
     1
141
0.0
294
     1
177
     0
142
1.0
295
     0
296
     0
143
0.125
271
     0
272
     9
273
     9
298
     0
  0
MLINESTYLE
  5
1C
102
{ACAD_REACTORS
330
1B
102
}
330
1B
100
AcDbMlineStyle
  2
STANDARD
 70
     0
  3

 62
     0
 51
90.0
 52
90.0
 71
     2
 49
0.5
 62
   256
  6
BYLAYER
 49
-0.5
 62
   256
  6
BYLAYER
  0
ACDBPLACEHOLDER
  5
1D
102
{ACAD_REACTORS
330
1F
102
}
330
1F
  0
SCALE
  5
245
102
{ACAD_REACTORS
330
244
102
}
330
244
100
AcDbScale
 70
     0
300
1:1
140
1.0
141
1.0
290
     1
  0
SCALE
  5
246
102
{ACAD_REACTORS
330
244
102
}
330
244
100
AcDbScale
 70
     0
300
1:2
140
1.0
141
2.0
290
     0
  0
SCALE
  5
247
102
{ACAD_REACTORS
330
244
102
}
330
244
100
AcDbScale
 70
     0
300
1:4
140
1.0
141
4.0
290
     0
  0
SCALE
  5
248
102
{ACAD_REACTORS
330
244
102
}
330
244
100
AcDbScale
 70
     0
300
1:5
140
1.0
141
5.0
290
     0
  0
SCALE
  5
249
102
{ACAD_REACTORS
330
244
102
}
330
244
100
AcDbScale
 70
     0
300
1:8
140
1.0
141
8.0
290
     0
  0
SCALE
  5
24A
102
{ACAD_REACTORS
330
244
102
}
330
244
100
AcDbScale
 70
     0
300
1:10
140
1.0
141
10.0
290
     0
  0
SCALE
  5
24B
102
{ACAD_REACTORS
330
244
102
}
330
244
100
AcDbScale
 70
     0
300
1:16
140
1.0
141
16.0
290
     0
  0
SCALE
  5
24C
102
{ACAD_REACTORS
330
244
102
}
330
244
100
AcDbScale
 70
     0
300
1:20
140
1.0
141
20.0
290
     0
  0
SCALE
  5
24D
102
{ACAD_REACTORS
330
244
102
}
330
244
100
AcDbScale
 70
     0
300
1:30
140
1.0
141
30.0
290
     0
  0
SCALE
  5
24E
102
{ACAD_REACTORS
330
244
102
}
330
244
100
AcDbScale
 70
     0
300
1:40
140
1.0
141
40.0
290
     0
  0
SCALE
  5
24F
102
{ACAD_REACTORS
330
244
102
}
330
244
100
AcDbScale
 70
     0
300
1:50
140
1.0
141
50.0
290
     0
  0
SCALE
  5
250
102
{ACAD_REACTORS
330
244
102
}
330
244
100
AcDbScale
 70
     0
300
1:100
140
1.0
141
100.0
290
     0
  0
SCALE
  5
251
102
{ACAD_REACTORS
330
244
102
}
330
244
100
AcDbScale
 70
     0
300
2:1
140
2.0
141
1.0
290
     0
  0
SCALE
  5
252
102
{ACAD_REACTORS
330
244
102
}
330
244
100
AcDbScale
 70
     0
300
4:1
140
4.0
141
1.0
290
     0
  0
SCALE
  5
253
102
{ACAD_REACTORS
330
244
102
}
330
244
100
AcDbScale
 70
     0
300
8:1
140
8.0
141
1.0
290
     0
  0
SCALE
  5
254
102
{ACAD_REACTORS
330
244
102
}
330
244
100
AcDbScale
 70
     0
300
10:1
140
10.0
141
1.0
290
     0
  0
SCALE
  5
255
102
{ACAD_REACTORS
330
244
102
}
330
244
100
AcDbScale
 70
     0
300
100:1
140
100.0
141
1.0
290
     0
  0
ACDBSECTIONVIEWSTYLE
  5
259
102
{ACAD_REACTORS
330
258
102
}
330
258
100
AcDbModelDocViewStyle
 70
     0
  3
Metric50
290
     0
300
Metric50
 90
        0
100
AcDbSectionViewStyle
 70
     0
 71
     0
 90
      102
 71
     1
340
17
 62
   256
 40
5.0
340
0
340
0
 62
   256
 40
5.0
300
I, O, Q, S, X, Z
 40
10.0
 90
        0
 40
2.5
 90
        0
 71
     2
340
13
 90
       25
 62
   256
340
13
 90
       50
 62
   256
 40
5.0
 40
2.5
 40
5.0
 71
     3
340
17
 62
   256
 40
5.0
 90
        0
 40
15.0
 90
        1
300
%<\AcVar ViewSectionStartId>%-%<\AcVar ViewSectionEndId>% (%<\AcVar ViewScale \f "%sn">%)
 71
     4
 62
   256
 62
   257
300
ANSI31
 40
1.0
 90
        0
290
     0
290
     0
 90
        6
 40
0.0
 40
1.570796326794896
 40
0.2617993877991494
 40
1.308996938995747
 40
-0.2617993877991494
 40
1.832595714594046
  0
TABLESTYLE
  5
243
102
{ACAD_XDICTIONARY
360
2CD
102
}
102
{ACAD_REACTORS
330
242
102
}
330
242
100
AcDbTableStyle
280
     0
  3
Standard
 70
     0
 71
     0
 40
1.5
 41
1.5
280
     0
281
     0
  7
Standard
140
4.5
170
     2
 62
     0
 63
     7
283
     0
 90
      512
 91
        0
  1

274
    -2
284
     1
 64
     0
275
    -2
285
     1
 65
     0
276
    -2
286
     1
 66
     0
277
    -2
287
     1
 67
     0
278
    -2
288
     1
 68
     0
279
    -2
289
     1
 69
     0
  7
Standard
140
6.0
170
     5
 62
     0
 63
     7
283
     0
 90
      512
 91
        0
  1

274
    -2
284
     1
 64
     0
275
    -2
285
     1
 65
     0
276
    -2
286
     1
 66
     0
277
    -2
287
     1
 67
     0
278
    -2
288
     1
 68
     0
279
    -2
289
     1
 69
     0
  7
Standard
140
4.5
170
     5
 62
     0
 63
     7
283
     0
 90
      512
 91
        0
  1

274
    -2
284
     1
 64
     0
275
    -2
285
     1
 65
     0
276
    -2
286
     1
 66
     0
277
    -2
287
     1
 67
     0
278
    -2
288
     1
 68
     0
279
    -2
289
     1
 69
     0
  0
VISUALSTYLE
  5
22E
102
{ACAD_REACTORS
330
228
102
}
330
228
100
AcDbVisualStyle
  2
2dWireframe
 70
     4
177
     3
291
     0
 70
    58
 90
        0
176
     1
 90
        2
176
     1
 90
        0
176
     1
 90
        0
176
     1
 40
0.6
176
     1
 40
30.0
176
     1
 62
     7
420
 16777215
176
     1
 90
        1
176
     1
 90
        4
176
     1
 62
     7
176
     1
 62
   257
176
     1
 90
        1
176
     1
 90
        1
176
     1
 40
1.0
176
     1
 90
        0
176
     1
 62
   257
176
     1
 40
1.0
176
     1
 90
        1
176
     1
 90
        6
176
     1
 90
        2
176
     1
 62
     7
176
     1
 90
        5
176
     1
 90
        0
176
     1
 90
        0
176
     1
290
     0
176
     1
 90
        1
176
     1
 40
0.0
176
     1
 90
        0
176
     1
290
     1
176
     1
290
     1
176
     1
290
     0
176
     1
290
     0
176
     1
290
     0
176
     1
290
     0
176
     1
290
     0
176
     1
290
     0
176
     1
290
     0
176
     1
 90
       50
176
     1
 40
0.0
176
     1
 40
1.0
176
     1
 90
        0
176
     1
 62
    18
420
        0
176
     1
 90
       50
176
     1
 90
        3
176
     1
 62
     5
420
      255
176
     1
290
     0
176
     1
 90
       50
176
     1
 90
       50
176
     1
 90
       50
176
     1
290
     0
176
     1
 90
       50
176
     1
 62
   256
176
     0
 40
1.0
176
     0
 90
        2
176
     1
  1
strokes_ogs.tif
176
     1
290
     0
176
     1
 40
1.0
176
     1
 40
1.0
176
     1
  0
VISUALSTYLE
  5
22D
102
{ACAD_REACTORS
330
228
102
}
330
228
100
AcDbVisualStyle
  2
Basic
 70
     7
177
     3
291
     1
 70
    58
 90
        1
176
     1
 90
        0
176
     1
 90
        1
176
     1
 90
        0
176
     1
 40
0.6
176
     1
 40
30.0
176
     1
 62
     7
420
 16777215
176
     1
 90
        0
176
     1
 90
        4
176
     1
 62
     7
176
     1
 62
   257
176
     1
 90
        1
176
     1
 90
        1
176
     1
 40
1.0
176
     1
 90
        8
176
     1
 62
     7
176
     1
 40
1.0
176
     1
 90
        1
176
     1
 90
        6
176
     1
 90
        2
176
     1
 62
     7
176
     1
 90
        5
176
     1
 90
        0
176
     1
 90
        0
176
     1
290
     0
176
     1
 90
        1
176
     1
 40
0.0
176
     1
 90
        0
176
     1
290
     0
176
     1
290
     1
176
     1
290
     1
176
     1
290
     0
176
     1
290
     0
176
     1
290
     0
176
     1
290
     0
176
     1
290
     0
176
     1
290
     0
176
     1
 90
       50
176
     1
 40
0.0
176
     1
 40
1.0
176
     1
 90
        0
176
     1
 62
    18
420
        0
176
     1
 90
       50
176
     1
 90
        3
176
     1
 62
     5
420
      255
176
     1
290
     0
176
     1
 90
       50
176
     1
 90
       50
176
     1
 90
       50
176
     1
290
     0
176
     1
 90
       50
176
     1
 62
   256
176
     0
 40
1.0
176
     0
 90
        2
176
     1
  1
strokes_ogs.tif
176
     1
290
     0
176
     1
 40
1.0
176
     1
 40
1.0
176
     1
  0
VISUALSTYLE
  5
234
102
{ACAD_REACTORS
330
228
102
}
330
228
100
AcDbVisualStyle
  2
Brighten
 70
    12
177
     3
291
     1
 70
    58
 90
        2
176
     1
 90
        2
176
     1
 90
        0
176
     1
 90
        0
176
     1
 40
0.6
176
     1
 40
30.0
176
     1
 62
     7
420
 16777215
176
     1
 90
        1
176
     1
 90
        4
176
     1
 62
     7
176
     1
 62
   257
176
     1
 90
        1
176
     1
 90
        1
176
     1
 40
1.0
176
     1
 90
        8
176
     1
 62
     7
176
     1
 40
1.0
176
     1
 90
        1
176
     1
 90
        6
176
     1
 90
        2
176
     1
 62
     7
176
     1
 90
        5
176
     1
 90
        0
176
     1
 90
        0
176
     1
290
     0
176
     1
 90
        1
176
     1
 40
50.0
176
     1
 90
        0
176
     1
290
     0
176
     1
290
     1
176
     1
290
     1
176
     1
290
     0
176
     1
290
     0
176
     1
290
     0
176
     1
290
     0
176
     1
290
     0
176
     1
290
     0
176
     1
 90
       50
176
     1
 40
0.0
176
     1
 40
1.0
176
     1
 90
        0
176
     1
 62
    18
420
        0
176
     1
 90
       50
176
     1
 90
        3
176
     1
 62
     5
420
      255
176
     1
290
     0
176
     1
 90
       50
176
     1
 90
       50
176
     1
 90
       50
176
     1
290
     0
176
     1
 90
       50
176
     1
 62
   256
176
     0
 40
1.0
176
     0
 90
        2
176
     1
  1
strokes_ogs.tif
176
     1
290
     0
176
     1
 40
1.0
176
     1
 40
1.0
176
     1
  0
VISUALSTYLE
  5
238
102
{ACAD_REACTORS
330
228
102
}
330
228
100
AcDbVisualStyle
  2
ColorChange
 70
    16
177
     3
291
     1
 70
    58
 90
        2
176
     1
 90
        2
176
     1
 90
        3
176
     1
 90
        0
176
     1
 40
0.6
176
     1
 40
30.0
176
     1
 62
     8
420
  8421504
176
     1
 90
        1
176
     1
 90
        4
176
     1
 62
     7
176
     1
 62
   257
176
     1
 90
        1
176
     1
 90
        1
176
     1
 40
1.0
176
     1
 90
        8
176
     1
 62
     8
420
  8421504
176
     1
 40
1.0
176
     1
 90
        1
176
     1
 90
        6
176
     1
 90
        2
176
     1
 62
     7
176
     1
 90
        5
176
     1
 90
        0
176
     1
 90
        0
176
     1
290
     0
176
     1
 90
        1
176
     1
 40
0.0
176
     1
 90
        0
176
     1
290
     0
176
     1
290
     1
176
     1
290
     1
176
     1
290
     0
176
     1
290
     0
176
     1
290
     0
176
     1
290
     0
176
     1
290
     0
176
     1
290
     0
176
     1
 90
       50
176
     1
 40
0.0
176
     1
 40
1.0
176
     1
 90
        0
176
     1
 62
    18
420
        0
176
     1
 90
       50
176
     1
 90
        3
176
     1
 62
     5
420
      255
176
     1
290
     0
176
     1
 90
       50
176
     1
 90
       50
176
     1
 90
       50
176
     1
290
     0
176
     1
 90
       50
176
     1
 62
   256
176
     0
 40
1.0
176
     0
 90
        2
176
     1
  1
strokes_ogs.tif
176
     1
290
     0
176
     1
 40
1.0
176
     1
 40
1.0
176
     1
  0
VISUALSTYLE
  5
231
102
{ACAD_REACTORS
330
228
102
}
330
228
100
AcDbVisualStyle
  2
Conceptual
 70
     9
177
     3
291
     0
 70
    58
 90
        3
176
     1
 90
        2
176
     1
 90
        0
176
     1
 90
        0
176
     1
 40
0.6
176
     1
 40
30.0
176
     1
 62
     7
420
 16777215
176
     1
 90
        2
176
     1
 90
        2
176
     1
 62
     7
176
     1
 62
   257
176
     1
 90
        1
176
     1
 90
        1
176
     1
 40
179.0
176
     1
 90
        8
176
     1
 62
     7
176
     1
 40
1.0
176
     1
 90
        1
176
     1
 90
        6
176
     1
 90
        2
176
     1
 62
     7
176
     1
 90
        3
176
     1
 90
        0
176
     1
 90
        0
176
     1
290
     0
176
     1
 90
        1
176
     1
 40
0.0
176
     1
 90
        0
176
     1
290
     0
176
     1
290
     1
176
     1
290
     1
176
     1
290
     0
176
     1
290
     0
176
     1
290
     0
176
     1
290
     0
176
     1
290
     0
176
     1
290
     0
176
     1
 90
       50
176
     1
 40
0.0
176
     1
 40
1.0
176
     1
 90
        0
176
     1
 62
    18
420
        0
176
     1
 90
       50
176
     1
 90
        3
176
     1
 62
     5
420
      255
176
     1
290
     0
176
     1
 90
       50
176
     1
 90
       50
176
     1
 90
       50
176
     1
290
     0
176
     1
 90
       50
176
     1
 62
   256
176
     0
 40
1.0
176
     0
 90
        2
176
     1
  1
strokes_ogs.tif
176
     1
290
     0
176
     1
 40
1.0
176
     1
 40
1.0
176
     1
  0
VISUALSTYLE
  5
233
102
{ACAD_REACTORS
330
228
102
}
330
228
100
AcDbVisualStyle
  2
Dim
 70
    11
177
     3
291
     1
 70
    58
 90
        2
176
     1
 90
        2
176
     1
 90
        0
176
     1
 90
        0
176
     1
 40
0.6
176
     1
 40
30.0
176
     1
 62
     7
420
 16777215
176
     1
 90
        1
176
     1
 90
        4
176
     1
 62
     7
176
     1
 62
   257
176
     1
 90
        1
176
     1
 90
        1
176
     1
 40
1.0
176
     1
 90
        8
176
     1
 62
     7
176
     1
 40
1.0
176
     1
 90
        1
176
     1
 90
        6
176
     1
 90
        2
176
     1
 62
     7
176
     1
 90
        5
176
     1
 90
        0
176
     1
 90
        0
176
     1
290
     0
176
     1
 90
        1
176
     1
 40
-50.0
176
     1
 90
        0
176
     1
290
     0
176
     1
290
     1
176
     1
290
     1
176
     1
290
     0
176
     1
290
     0
176
     1
290
     0
176
     1
290
     0
176
     1
290
     0
176
     1
290
     0
176
     1
 90
       50
176
     1
 40
0.0
176
     1
 40
1.0
176
     1
 90
        0
176
     1
 62
    18
420
        0
176
     1
 90
       50
176
     1
 90
        3
176
     1
 62
     5
420
      255
176
     1
290
     0
176
     1
 90
       50
176
     1
 90
       50
176
     1
 90
       50
176
     1
290
     0
176
     1
 90
       50
176
     1
 62
   256
176
     0
 40
1.0
176
     0
 90
        2
176
     1
  1
strokes_ogs.tif
176
     1
290
     0
176
     1
 40
1.0
176
     1
 40
1.0
176
     1
  0
VISUALSTYLE
  5
240
102
{ACAD_REACTORS
330
228
102
}
330
228
100
AcDbVisualStyle
  2
EdgeColorOff
 70
    22
177
     3
291
     1
 70
    58
 90
        2
176
     0
 90
        2
176
     0
 90
        0
176
     0
 90
        0
176
     0
 40
0.6
176
     0
 40
30.0
176
     0
 62
     7
420
 16777215
176
     0
 90
        1
176
     0
 90
        4
176
     0
 62
     7
176
     0
 62
   257
176
     0
 90
        1
176
     0
 90
        1
176
     0
 40
1.0
176
     0
 90
        8
176
     2
 62
     7
176
     0
 40
1.0
176
     0
 90
        1
176
     0
 90
        6
176
     0
 90
        2
176
     0
 62
     7
176
     0
 90
        5
176
     0
 90
        0
176
     0
 90
        0
176
     0
290
     0
176
     0
 90
        1
176
     0
 40
0.0
176
     0
 90
        0
176
     0
290
     0
176
     1
290
     1
176
     1
290
     1
176
     1
290
     0
176
     1
290
     0
176
     1
290
     0
176
     1
290
     0
176
     1
290
     0
176
     1
290
     0
176
     1
 90
       50
176
     0
 40
0.0
176
     0
 40
1.0
176
     0
 90
        0
176
     0
 62
    18
420
        0
176
     0
 90
       50
176
     0
 90
        3
176
     0
 62
     5
420
      255
176
     0
290
     0
176
     1
 90
       50
176
     0
 90
       50
176
     0
 90
       50
176
     0
290
     0
176
     1
 90
       50
176
     0
 62
   256
176
     0
 40
1.0
176
     0
 90
        2
176
     0
  1
strokes_ogs.tif
176
     0
290
     0
176
     1
 40
1.0
176
     0
 40
1.0
176
     0
  0
VISUALSTYLE
  5
237
102
{ACAD_REACTORS
330
228
102
}
330
228
100
AcDbVisualStyle
  2
Facepattern
 70
    15
177
     3
291
     1
 70
    58
 90
        2
176
     1
 90
        2
176
     1
 90
        0
176
     1
 90
        0
176
     1
 40
0.6
176
     1
 40
30.0
176
     1
 62
     7
420
 16777215
176
     1
 90
        1
176
     1
 90
        4
176
     1
 62
     7
176
     1
 62
   257
176
     1
 90
        1
176
     1
 90
        1
176
     1
 40
1.0
176
     1
 90
        8
176
     1
 62
     7
176
     1
 40
1.0
176
     1
 90
        1
176
     1
 90
        6
176
     1
 90
        2
176
     1
 62
     7
176
     1
 90
        5
176
     1
 90
        0
176
     1
 90
        0
176
     1
290
     0
176
     1
 90
        1
176
     1
 40
0.0
176
     1
 90
        0
176
     1
290
     0
176
     1
290
     1
176
     1
290
     1
176
     1
290
     0
176
     1
290
     0
176
     1
290
     0
176
     1
290
     0
176
     1
290
     0
176
     1
290
     0
176
     1
 90
       50
176
     1
 40
0.0
176
     1
 40
1.0
176
     1
 90
        0
176
     1
 62
    18
420
        0
176
     1
 90
       50
176
     1
 90
        3
176
     1
 62
     5
420
      255
176
     1
290
     0
176
     1
 90
       50
176
     1
 90
       50
176
     1
 90
       50
176
     1
290
     0
176
     1
 90
       50
176
     1
 62
   256
176
     0
 40
1.0
176
     0
 90
        2
176
     1
  1
strokes_ogs.tif
176
     1
290
     0
176
     1
 40
1.0
176
     1
 40
1.0
176
     1
  0
VISUALSTYLE
  5
229
102
{ACAD_REACTORS
330
228
102
}
330
228
100
AcDbVisualStyle
  2
Flat
 70
     0
177
     3
291
     1
 70
    58
 90
        2
176
     1
 90
        1
176
     1
 90
        1
176
     1
 90
        2
176
     1
 40
0.6
176
     1
 40
30.0
176
     1
 62
     7
420
 16777215
176
     1
 90
        0
176
     1
 90
        0
176
     1
 62
     7
176
     1
 62
   257
176
     1
 90
        1
176
     1
 90
        1
176
     1
 40
1.0
176
     1
 90
        8
176
     1
 62
     7
176
     1
 40
1.0
176
     1
 90
        1
176
     1
 90
        6
176
     1
 90
        2
176
     1
 62
     7
176
     1
 90
        5
176
     1
 90
        0
176
     1
 90
        0
176
     1
290
     0
176
     1
 90
       13
176
     1
 40
0.0
176
     1
 90
        0
176
     1
290
     0
176
     1
290
     1
176
     1
290
     1
176
     1
290
     0
176
     1
290
     0
176
     1
290
     0
176
     1
290
     0
176
     1
290
     0
176
     1
290
     0
176
     1
 90
       50
176
     1
 40
0.0
176
     1
 40
1.0
176
     1
 90
        0
176
     1
 62
    18
420
        0
176
     1
 90
       50
176
     1
 90
        3
176
     1
 62
     5
420
      255
176
     1
290
     0
176
     1
 90
       50
176
     1
 90
       50
176
     1
 90
       50
176
     1
290
     0
176
     1
 90
       50
176
     1
 62
   256
176
     0
 40
1.0
176
     0
 90
        2
176
     1
  1
strokes_ogs.tif
176
     1
290
     0
176
     1
 40
1.0
176
     1
 40
1.0
176
     1
  0
VISUALSTYLE
  5
22A
102
{ACAD_REACTORS
330
228
102
}
330
228
100
AcDbVisualStyle
  2
FlatWithEdges
 70
     1
177
     3
291
     1
 70
    58
 90
        2
176
     1
 90
        1
176
     1
 90
        1
176
     1
 90
        2
176
     1
 40
0.6
176
     1
 40
30.0
176
     1
 62
     7
420
 16777215
176
     1
 90
        1
176
     1
 90
        0
176
     1
 62
     7
176
     1
 62
   257
176
     1
 90
        1
176
     1
 90
        1
176
     1
 40
1.0
176
     1
 90
        0
176
     1
 62
   257
176
     1
 40
1.0
176
     1
 90
        1
176
     1
 90
        6
176
     1
 90
        2
176
     1
 62
     7
176
     1
 90
        5
176
     1
 90
        0
176
     1
 90
        0
176
     1
290
     0
176
     1
 90
       13
176
     1
 40
0.0
176
     1
 90
        0
176
     1
290
     0
176
     1
290
     1
176
     1
290
     1
176
     1
290
     0
176
     1
290
     0
176
     1
290
     0
176
     1
290
     0
176
     1
290
     0
176
     1
290
     0
176
     1
 90
       50
176
     1
 40
0.0
176
     1
 40
1.0
176
     1
 90
        0
176
     1
 62
    18
420
        0
176
     1
 90
       50
176
     1
 90
        3
176
     1
 62
     5
420
      255
176
     1
290
     0
176
     1
 90
       50
176
     1
 90
       50
176
     1
 90
       50
176
     1
290
     0
176
     1
 90
       50
176
     1
 62
   256
176
     0
 40
1.0
176
     0
 90
        2
176
     1
  1
strokes_ogs.tif
176
     1
290
     0
176
     1
 40
1.0
176
     1
 40
1.0
176
     1
  0
VISUALSTYLE
  5
22B
102
{ACAD_REACTORS
330
228
102
}
330
228
100
AcDbVisualStyle
  2
Gouraud
 70
     2
177
     3
291
     1
 70
    58
 90
        2
176
     1
 90
        2
176
     1
 90
        1
176
     1
 90
        2
176
     1
 40
0.6
176
     1
 40
30.0
176
     1
 62
     7
420
 16777215
176
     1
 90
        0
176
     1
 90
        0
176
     1
 62
     7
176
     1
 62
   257
176
     1
 90
        1
176
     1
 90
        1
176
     1
 40
1.0
176
     1
 90
        0
176
     1
 62
     7
176
     1
 40
1.0
176
     1
 90
        1
176
     1
 90
        6
176
     1
 90
        2
176
     1
 62
     7
176
     1
 90
        5
176
     1
 90
        0
176
     1
 90
        0
176
     1
290
     0
176
     1
 90
       13
176
     1
 40
0.0
176
     1
 90
        0
176
     1
290
     0
176
     1
290
     1
176
     1
290
     1
176
     1
290
     0
176
     1
290
     0
176
     1
290
     0
176
     1
290
     0
176
     1
290
     0
176
     1
290
     0
176
     1
 90
       50
176
     1
 40
0.0
176
     1
 40
1.0
176
     1
 90
        0
176
     1
 62
    18
420
        0
176
     1
 90
       50
176
     1
 90
        3
176
     1
 62
     5
420
      255
176
     1
290
     0
176
     1
 90
       50
176
     1
 90
       50
176
     1
 90
       50
176
     1
290
     0
176
     1
 90
       50
176
     1
 62
   256
176
     0
 40
1.0
176
     0
 90
        2
176
     1
  1
strokes_ogs.tif
176
     1
290
     0
176
     1
 40
1.0
176
     1
 40
1.0
176
     1
  0
VISUALSTYLE
  5
22C
102
{ACAD_REACTORS
330
228
102
}
330
228
100
AcDbVisualStyle
  2
GouraudWithEdges
 70
     3
177
     3
291
     1
 70
    58
 90
        2
176
     1
 90
        2
176
     1
 90
        1
176
     1
 90
        2
176
     1
 40
0.6
176
     1
 40
30.0
176
     1
 62
     7
420
 16777215
176
     1
 90
        1
176
     1
 90
        0
176
     1
 62
     7
176
     1
 62
   257
176
     1
 90
        1
176
     1
 90
        1
176
     1
 40
1.0
176
     1
 90
        0
176
     1
 62
   257
176
     1
 40
1.0
176
     1
 90
        1
176
     1
 90
        6
176
     1
 90
        2
176
     1
 62
     7
176
     1
 90
        5
176
     1
 90
        0
176
     1
 90
        0
176
     1
290
     0
176
     1
 90
       13
176
     1
 40
0.0
176
     1
 90
        0
176
     1
290
     0
176
     1
290
     1
176
     1
290
     1
176
     1
290
     0
176
     1
290
     0
176
     1
290
     0
176
     1
290
     0
176
     1
290
     0
176
     1
290
     0
176
     1
 90
       50
176
     1
 40
0.0
176
     1
 40
1.0
176
     1
 90
        0
176
     1
 62
    18
420
        0
176
     1
 90
       50
176
     1
 90
        3
176
     1
 62
     5
420
      255
176
     1
290
     0
176
     1
 90
       50
176
     1
 90
       50
176
     1
 90
       50
176
     1
290
     0
176
     1
 90
       50
176
     1
 62
   256
176
     0
 40
1.0
176
     0
 90
        2
176
     1
  1
strokes_ogs.tif
176
     1
290
     0
176
     1
 40
1.0
176
     1
 40
1.0
176
     1
  0
VISUALSTYLE
  5
230
102
{ACAD_REACTORS
330
228
102
}
330
228
100
AcDbVisualStyle
  2
Hidden
 70
     6
177
     3
291
     0
 70
    58
 90
        1
176
     1
 90
        2
176
     1
 90
        2
176
     1
 90
        0
176
     1
 40
0.6
176
     1
 40
30.0
176
     1
 62
     7
420
 16777215
176
     1
 90
        2
176
     1
 90
        2
176
     1
 62
     7
176
     1
 62
   257
176
     1
 90
        2
176
     1
 90
        1
176
     1
 40
40.0
176
     1
 90
        0
176
     1
 62
   257
176
     1
 40
1.0
176
     1
 90
        1
176
     1
 90
        6
176
     1
 90
        2
176
     1
 62
     7
176
     1
 90
        3
176
     1
 90
        0
176
     1
 90
        0
176
     1
290
     0
176
     1
 90
        1
176
     1
 40
0.0
176
     1
 90
        0
176
     1
290
     0
176
     1
290
     1
176
     1
290
     1
176
     1
290
     0
176
     1
290
     0
176
     1
290
     0
176
     1
290
     0
176
     1
290
     0
176
     1
290
     0
176
     1
 90
       50
176
     1
 40
0.0
176
     1
 40
1.0
176
     1
 90
        0
176
     1
 62
    18
420
        0
176
     1
 90
       50
176
     1
 90
        3
176
     1
 62
     5
420
      255
176
     1
290
     0
176
     1
 90
       50
176
     1
 90
       50
176
     1
 90
       50
176
     1
290
     0
176
     1
 90
       50
176
     1
 62
   256
176
     0
 40
1.0
176
     0
 90
        2
176
     1
  1
strokes_ogs.tif
176
     1
290
     0
176
     1
 40
1.0
176
     1
 40
1.0
176
     1
  0
VISUALSTYLE
  5
23E
102
{ACAD_REACTORS
330
228
102
}
330
228
100
AcDbVisualStyle
  2
JitterOff
 70
    20
177
     3
291
     1
 70
    58
 90
        2
176
     0
 90
        2
176
     0
 90
        0
176
     0
 90
        0
176
     0
 40
0.6
176
     0
 40
30.0
176
     0
 62
     7
420
 16777215
176
     0
 90
        1
176
     0
 90
        4
176
     0
 62
     7
176
     0
 62
   257
176
     0
 90
        1
176
     0
 90
        1
176
     0
 40
1.0
176
     0
 90
       10
176
     2
 62
     7
176
     0
 40
1.0
176
     0
 90
        1
176
     0
 90
        6
176
     0
 90
        2
176
     0
 62
     7
176
     0
 90
        5
176
     0
 90
        0
176
     0
 90
        0
176
     0
290
     0
176
     0
 90
        1
176
     0
 40
0.0
176
     0
 90
        0
176
     0
290
     0
176
     1
290
     1
176
     1
290
     1
176
     1
290
     0
176
     1
290
     0
176
     1
290
     0
176
     1
290
     0
176
     1
290
     0
176
     1
290
     0
176
     1
 90
       50
176
     0
 40
0.0
176
     0
 40
1.0
176
     0
 90
        0
176
     0
 62
    18
420
        0
176
     0
 90
       50
176
     0
 90
        3
176
     0
 62
     5
420
      255
176
     0
290
     0
176
     1
 90
       50
176
     0
 90
       50
176
     0
 90
       50
176
     0
290
     0
176
     1
 90
       50
176
     0
 62
   256
176
     0
 40
1.0
176
     0
 90
        2
176
     0
  1
strokes_ogs.tif
176
     0
290
     0
176
     1
 40
1.0
176
     0
 40
1.0
176
     0
  0
VISUALSTYLE
  5
236
102
{ACAD_REACTORS
330
228
102
}
330
228
100
AcDbVisualStyle
  2
Linepattern
 70
    14
177
     3
291
     1
 70
    58
 90
        2
176
     1
 90
        2
176
     1
 90
        0
176
     1
 90
        0
176
     1
 40
0.6
176
     1
 40
30.0
176
     1
 62
     7
420
 16777215
176
     1
 90
        1
176
     1
 90
        4
176
     1
 62
     7
176
     1
 62
   257
176
     1
 90
        7
176
     1
 90
        7
176
     1
 40
1.0
176
     1
 90
        8
176
     1
 62
     7
176
     1
 40
1.0
176
     1
 90
        1
176
     1
 90
        6
176
     1
 90
        2
176
     1
 62
     7
176
     1
 90
        5
176
     1
 90
        0
176
     1
 90
        0
176
     1
290
     0
176
     1
 90
        1
176
     1
 40
0.0
176
     1
 90
        0
176
     1
290
     0
176
     1
290
     1
176
     1
290
     1
176
     1
290
     0
176
     1
290
     0
176
     1
290
     0
176
     1
290
     0
176
     1
290
     0
176
     1
290
     0
176
     1
 90
       50
176
     1
 40
0.0
176
     1
 40
1.0
176
     1
 90
        0
176
     1
 62
    18
420
        0
176
     1
 90
       50
176
     1
 90
        3
176
     1
 62
     5
420
      255
176
     1
290
     0
176
     1
 90
       50
176
     1
 90
       50
176
     1
 90
       50
176
     1
290
     0
176
     1
 90
       50
176
     1
 62
   256
176
     0
 40
1.0
176
     0
 90
        2
176
     1
  1
strokes_ogs.tif
176
     1
290
     0
176
     1
 40
1.0
176
     1
 40
1.0
176
     1
  0
VISUALSTYLE
  5
23F
102
{ACAD_REACTORS
330
228
102
}
330
228
100
AcDbVisualStyle
  2
OverhangOff
 70
    21
177
     3
291
     1
 70
    58
 90
        2
176
     0
 90
        2
176
     0
 90
        0
176
     0
 90
        0
176
     0
 40
0.6
176
     0
 40
30.0
176
     0
 62
     7
420
 16777215
176
     0
 90
        1
176
     0
 90
        4
176
     0
 62
     7
176
     0
 62
   257
176
     0
 90
        1
176
     0
 90
        1
176
     0
 40
1.0
176
     0
 90
        9
176
     2
 62
     7
176
     0
 40
1.0
176
     0
 90
        1
176
     0
 90
        6
176
     0
 90
        2
176
     0
 62
     7
176
     0
 90
        5
176
     0
 90
        0
176
     0
 90
        0
176
     0
290
     0
176
     0
 90
        1
176
     0
 40
0.0
176
     0
 90
        0
176
     0
290
     0
176
     1
290
     1
176
     1
290
     1
176
     1
290
     0
176
     1
290
     0
176
     1
290
     0
176
     1
290
     0
176
     1
290
     0
176
     1
290
     0
176
     1
 90
       50
176
     0
 40
0.0
176
     0
 40
1.0
176
     0
 90
        0
176
     0
 62
    18
420
        0
176
     0
 90
       50
176
     0
 90
        3
176
     0
 62
     5
420
      255
176
     0
290
     0
176
     1
 90
       50
176
     0
 90
       50
176
     0
 90
       50
176
     0
290
     0
176
     1
 90
       50
176
     0
 62
   256
176
     0
 40
1.0
176
     0
 90
        2
176
     0
  1
strokes_ogs.tif
176
     0
290
     0
176
     1
 40
1.0
176
     0
 40
1.0
176
     0
  0
VISUALSTYLE
  5
232
102
{ACAD_REACTORS
330
228
102
}
330
228
100
AcDbVisualStyle
  2
Realistic
 70
     8
177
     3
291
     0
 70
    58
 90
        2
176
     1
 90
        3
176
     1
 90
        0
176
     1
 90
        2
176
     1
 40
0.6
176
     1
 40
30.0
176
     1
 62
     7
420
 16777215
176
     1
 90
        0
176
     1
 90
        0
176
     1
 62
     7
176
     1
 62
   257
176
     1
 90
        1
176
     1
 90
        1
176
     1
 40
1.0
176
     1
 90
        8
176
     1
 62
   257
176
     1
 40
1.0
176
     1
 90
        1
176
     1
 90
        6
176
     1
 90
        2
176
     1
 62
     7
176
     1
 90
        3
176
     1
 90
        0
176
     1
 90
        0
176
     1
290
     0
176
     1
 90
       13
176
     1
 40
0.0
176
     1
 90
        0
176
     1
290
     0
176
     1
290
     1
176
     1
290
     1
176
     1
290
     0
176
     1
290
     0
176
     1
290
     0
176
     1
290
     0
176
     1
290
     0
176
     1
290
     0
176
     1
 90
       50
176
     1
 40
0.0
176
     1
 40
1.0
176
     1
 90
        0
176
     1
 62
    18
420
        0
176
     1
 90
       50
176
     1
 90
        3
176
     1
 62
     5
420
      255
176
     1
290
     0
176
     1
 90
       50
176
     1
 90
       50
176
     1
 90
       50
176
     1
290
     0
176
     1
 90
       50
176
     1
 62
   256
176
     0
 40
1.0
176
     0
 90
        2
176
     1
  1
strokes_ogs.tif
176
     1
290
     0
176
     1
 40
1.0
176
     1
 40
1.0
176
     1
  0
VISUALSTYLE
  5
23D
102
{ACAD_REACTORS
330
228
102
}
330
228
100
AcDbVisualStyle
  2
Shaded
 70
    27
177
     3
291
     0
 70
    58
 90
        2
176
     1
 90
        2
176
     1
 90
        1
176
     1
 90
        2
176
     1
 40
0.6
176
     1
 40
30.0
176
     1
 62
     7
420
 16777215
176
     1
 90
        0
176
     1
 90
        4
176
     1
 62
     7
176
     1
 62
   257
176
     1
 90
        1
176
     1
 90
        1
176
     1
 40
1.0
176
     1
 90
        8
176
     1
 62
   257
176
     1
 40
1.0
176
     1
 90
        1
176
     1
 90
        6
176
     1
 90
        2
176
     1
 62
     8
420
  7895160
176
     1
 90
        3
176
     1
 90
        0
176
     1
 90
        0
176
     1
290
     0
176
     1
 90
        5
176
     1
 40
0.0
176
     1
 90
        0
176
     1
290
     0
176
     1
290
     1
176
     1
290
     1
176
     1
290
     0
176
     1
290
     0
176
     1
290
     0
176
     1
290
     0
176
     1
290
     0
176
     1
290
     0
176
     1
 90
       50
176
     1
 40
0.0
176
     1
 40
1.0
176
     1
 90
        0
176
     1
 62
    18
420
        0
176
     1
 90
       50
176
     1
 90
        3
176
     1
 62
     5
420
      255
176
     1
290
     0
176
     1
 90
       50
176
     1
 90
       50
176
     1
 90
       50
176
     1
290
     0
176
     1
 90
       50
176
     1
 62
   256
176
     0
 40
1.0
176
     0
 90
        2
176
     1
  1
strokes_ogs.tif
176
     1
290
     0
176
     1
 40
1.0
176
     1
 40
1.0
176
     1
  0
VISUALSTYLE
  5
23C
102
{ACAD_REACTORS
330
228
102
}
330
228
100
AcDbVisualStyle
  2
Shaded with edges
 70
    26
177
     3
291
     0
 70
    58
 90
        2
176
     1
 90
        2
176
     1
 90
        1
176
     1
 90
        2
176
     1
 40
0.6
176
     1
 40
30.0
176
     1
 62
     7
420
 16777215
176
     1
 90
        1
176
     1
 90
        2
176
     1
 62
     7
176
     1
 62
   257
176
     1
 90
        2
176
     1
 90
        1
176
     1
 40
1.0
176
     1
 90
        8
176
     1
 62
   257
176
     1
 40
1.0
176
     1
 90
        1
176
     1
 90
        6
176
     1
 90
        2
176
     1
 62
     7
176
     1
 90
        3
176
     1
 90
        0
176
     1
 90
        0
176
     1
290
     0
176
     1
 90
        5
176
     1
 40
0.0
176
     1
 90
        0
176
     1
290
     0
176
     1
290
     1
176
     1
290
     1
176
     1
290
     0
176
     1
290
     0
176
     1
290
     0
176
     1
290
     0
176
     1
290
     0
176
     1
290
     0
176
     1
 90
       50
176
     1
 40
0.0
176
     1
 40
1.0
176
     1
 90
        0
176
     1
 62
    18
420
        0
176
     1
 90
       50
176
     1
 90
        3
176
     1
 62
     5
420
      255
176
     1
290
     0
176
     1
 90
       50
176
     1
 90
       50
176
     1
 90
       50
176
     1
290
     0
176
     1
 90
       50
176
     1
 62
   256
176
     0
 40
1.0
176
     0
 90
        2
176
     1
  1
strokes_ogs.tif
176
     1
290
     0
176
     1
 40
1.0
176
     1
 40
1.0
176
     1
  0
VISUALSTYLE
  5
239
102
{ACAD_REACTORS
330
228
102
}
330
228
100
AcDbVisualStyle
  2
Shades of Gray
 70
    23
177
     3
291
     0
 70
    58
 90
        2
176
     1
 90
        2
176
     1
 90
        3
176
     1
 90
        0
176
     1
 40
0.6
176
     1
 40
30.0
176
     1
 62
     7
420
 16777215
176
     1
 90
        2
176
     1
 90
        2
176
     1
 62
     7
176
     1
 62
     7
176
     1
 90
        1
176
     1
 90
        1
176
     1
 40
40.0
176
     1
 90
        8
176
     1
 62
     7
176
     1
 40
1.0
176
     1
 90
        1
176
     1
 90
        6
176
     1
 90
        2
176
     1
 62
     7
176
     1
 90
        3
176
     1
 90
        0
176
     1
 90
        0
176
     1
290
     0
176
     1
 90
        1
176
     1
 40
0.0
176
     1
 90
        0
176
     1
290
     0
176
     1
290
     1
176
     1
290
     1
176
     1
290
     0
176
     1
290
     0
176
     1
290
     0
176
     1
290
     0
176
     1
290
     0
176
     1
290
     0
176
     1
 90
       50
176
     1
 40
0.0
176
     1
 40
1.0
176
     1
 90
        0
176
     1
 62
    18
420
        0
176
     1
 90
       50
176
     1
 90
        3
176
     1
 62
     5
420
      255
176
     1
290
     0
176
     1
 90
       50
176
     1
 90
       50
176
     1
 90
       50
176
     1
290
     0
176
     1
 90
       50
176
     1
 62
   256
176
     0
 40
1.0
176
     0
 90
        2
176
     1
  1
strokes_ogs.tif
176
     1
290
     0
176
     1
 40
1.0
176
     1
 40
1.0
176
     1
  0
VISUALSTYLE
  5
23A
102
{ACAD_REACTORS
330
228
102
}
330
228
100
AcDbVisualStyle
  2
Sketchy
 70
    24
177
     3
291
     0
 70
    58
 90
        1
176
     1
 90
        2
176
     1
 90
        2
176
     1
 90
        0
176
     1
 40
0.6
176
     1
 40
30.0
176
     1
 62
     7
420
 16777215
176
     1
 90
        2
176
     1
 90
        2
176
     1
 62
     7
176
     1
 62
     7
176
     1
 90
        1
176
     1
 90
        1
176
     1
 40
40.0
176
     1
 90
       11
176
     1
 62
     7
176
     1
 40
1.0
176
     1
 90
        1
176
     1
 90
        6
176
     1
 90
        2
176
     1
 62
     7
176
     1
 90
        6
176
     1
 90
        0
176
     1
 90
        0
176
     1
290
     0
176
     1
 90
        1
176
     1
 40
0.0
176
     1
 90
        0
176
     1
290
     0
176
     1
290
     1
176
     1
290
     1
176
     1
290
     0
176
     1
290
     0
176
     1
290
     0
176
     1
290
     0
176
     1
290
     0
176
     1
290
     0
176
     1
 90
       50
176
     1
 40
0.0
176
     1
 40
1.0
176
     1
 90
        0
176
     1
 62
    18
420
        0
176
     1
 90
       50
176
     1
 90
        3
176
     1
 62
     5
420
      255
176
     1
290
     0
176
     1
 90
       50
176
     1
 90
       50
176
     1
 90
       50
176
     1
290
     0
176
     1
 90
       50
176
     1
 62
   256
176
     0
 40
1.0
176
     0
 90
        2
176
     1
  1
strokes_ogs.tif
176
     1
290
     0
176
     1
 40
1.0
176
     1
 40
1.0
176
     1
  0
VISUALSTYLE
  5
235
102
{ACAD_REACTORS
330
228
102
}
330
228
100
AcDbVisualStyle
  2
Thicken
 70
    13
177
     3
291
     1
 70
    58
 90
        2
176
     1
 90
        2
176
     1
 90
        0
176
     1
 90
        0
176
     1
 40
0.6
176
     1
 40
30.0
176
     1
 62
     7
420
 16777215
176
     1
 90
        1
176
     1
 90
        4
176
     1
 62
     7
176
     1
 62
   257
176
     1
 90
        1
176
     1
 90
        1
176
     1
 40
1.0
176
     1
 90
       12
176
     1
 62
     7
176
     1
 40
1.0
176
     1
 90
        1
176
     1
 90
        6
176
     1
 90
        2
176
     1
 62
     7
176
     1
 90
        5
176
     1
 90
        0
176
     1
 90
        0
176
     1
290
     0
176
     1
 90
        1
176
     1
 40
0.0
176
     1
 90
        0
176
     1
290
     0
176
     1
290
     1
176
     1
290
     1
176
     1
290
     0
176
     1
290
     0
176
     1
290
     0
176
     1
290
     0
176
     1
290
     0
176
     1
290
     0
176
     1
 90
       50
176
     1
 40
0.0
176
     1
 40
1.0
176
     1
 90
        0
176
     1
 62
    18
420
        0
176
     1
 90
       50
176
     1
 90
        3
176
     1
 62
     5
420
      255
176
     1
290
     0
176
     1
 90
       50
176
     1
 90
       50
176
     1
 90
       50
176
     1
290
     0
176
     1
 90
       50
176
     1
 62
   256
176
     0
 40
1.0
176
     0
 90
        2
176
     1
  1
strokes_ogs.tif
176
     1
290
     0
176
     1
 40
1.0
176
     1
 40
1.0
176
     1
  0
VISUALSTYLE
  5
22F
102
{ACAD_REACTORS
330
228
102
}
330
228
100
AcDbVisualStyle
  2
Wireframe
 70
     5
177
     3
291
     0
 70
    58
 90
        0
176
     1
 90
        2
176
     1
 90
        0
176
     1
 90
        0
176
     1
 40
0.6
176
     1
 40
30.0
176
     1
 62
     7
420
 16777215
176
     1
 90
        1
176
     1
 90
        4
176
     1
 62
     7
176
     1
 62
   257
176
     1
 90
        1
176
     1
 90
        1
176
     1
 40
1.0
176
     1
 90
        0
176
     1
 62
   257
176
     1
 40
1.0
176
     1
 90
        1
176
     1
 90
        6
176
     1
 90
        2
176
     1
 62
     7
176
     1
 90
        3
176
     1
 90
        0
176
     1
 90
        0
176
     1
290
     0
176
     1
 90
        1
176
     1
 40
0.0
176
     1
 90
        0
176
     1
290
     0
176
     1
290
     1
176
     1
290
     1
176
     1
290
     0
176
     1
290
     0
176
     1
290
     0
176
     1
290
     0
176
     1
290
     0
176
     1
290
     0
176
     1
 90
       50
176
     1
 40
0.0
176
     1
 40
1.0
176
     1
 90
        0
176
     1
 62
    18
420
        0
176
     1
 90
       50
176
     1
 90
        3
176
     1
 62
     5
420
      255
176
     1
290
     0
176
     1
 90
       50
176
     1
 90
       50
176
     1
 90
       50
176
     1
290
     0
176
     1
 90
       50
176
     1
 62
   256
176
     0
 40
1.0
176
     0
 90
        2
176
     1
  1
strokes_ogs.tif
176
     1
290
     0
176
     1
 40
1.0
176
     1
 40
1.0
176
     1
  0
VISUALSTYLE
  5
23B
102
{ACAD_REACTORS
330
228
102
}
330
228
100
AcDbVisualStyle
  2
X-Ray
 70
    25
177
     3
291
     0
 70
    58
 90
        2
176
     1
 90
        2
176
     1
 90
        1
176
     1
 90
        1
176
     1
 40
0.5
176
     1
 40
30.0
176
     1
 62
     7
420
 16777215
176
     1
 90
        1
176
     1
 90
        0
176
     1
 62
     7
176
     1
 62
   257
176
     1
 90
        1
176
     1
 90
        1
176
     1
 40
1.0
176
     1
 90
        8
176
     1
 62
     7
176
     1
 40
1.0
176
     1
 90
        1
176
     1
 90
        6
176
     1
 90
        2
176
     1
 62
     7
176
     1
 90
        3
176
     1
 90
        0
176
     1
 90
        0
176
     1
290
     0
176
     1
 90
       13
176
     1
 40
0.0
176
     1
 90
        0
176
     1
290
     0
176
     1
290
     1
176
     1
290
     1
176
     1
290
     0
176
     1
290
     0
176
     1
290
     0
176
     1
290
     0
176
     1
290
     0
176
     1
290
     0
176
     1
 90
       50
176
     1
 40
0.0
176
     1
 40
1.0
176
     1
 90
        0
176
     1
 62
    18
420
        0
176
     1
 90
       50
176
     1
 90
        3
176
     1
 62
     5
420
      255
176
     1
290
     0
176
     1
 90
       50
176
     1
 90
       50
176
     1
 90
       50
176
     1
290
     0
176
     1
 90
       50
176
     1
 62
   256
176
     0
 40
1.0
176
     0
 90
        2
176
     1
  1
strokes_ogs.tif
176
     1
290
     0
176
     1
 40
1.0
176
     1
 40
1.0
176
     1
  0
DICTIONARYVAR
  5
2C9
102
{ACAD_REACTORS
330
20D
102
}
330
20D
100
DictionaryVariables
280
     0
  1
1:1
  0
DICTIONARYVAR
  5
2C5
102
{ACAD_REACTORS
330
20D
102
}
330
20D
100
DictionaryVariables
280
     0
  1
STANDARD
  0
DICTIONARYVAR
  5
2C4
102
{ACAD_REACTORS
330
20D
102
}
330
20D
100
DictionaryVariables
280
     0
  1
STANDARD
  0
DICTIONARYVAR
  5
2C6
102
{ACAD_REACTORS
330
20D
102
}
330
20D
100
DictionaryVariables
280
     0
  1
Metric50
  0
DICTIONARYVAR
  5
2C7
102
{ACAD_REACTORS
330
20D
102
}
330
20D
100
DictionaryVariables
280
     0
  1
Metric50
  0
DICTIONARYVAR
  5
2CB
102
{ACAD_REACTORS
330
20D
102
}
330
20D
100
DictionaryVariables
280
     0
  1
1
  0
DICTIONARYVAR
  5
2CC
102
{ACAD_REACTORS
330
20D
102
}
330
20D
100
DictionaryVariables
280
     0
  1
15
  0
DICTIONARYVAR
  5
2CA
102
{ACAD_REACTORS
330
20D
102
}
330
20D
100
DictionaryVariables
280
     0
  1
0
  0
DICTIONARYVAR
  5
2C8
102
{ACAD_REACTORS
330
20D
102
}
330
20D
100
DictionaryVariables
280
     0
  1
0
  0
DICTIONARYVAR
  5
20E
102
{ACAD_REACTORS
330
20D
102
}
330
20D
100
DictionaryVariables
280
     0
  1
0
  0
XRECORD
  5
2B9
102
{ACAD_REACTORS
330
2B7
102
}
330
2B7
100
AcDbXrecord
280
     1
330
1F9
330
20A
330
112
330
113
330
114
330
284
330
285
330
28D
330
28E
330
29A
330
29B
  0
DICTIONARY
  5
219
330
218
100
AcDbDictionary
280
     1
281
     1
  3
BUMPTILE
360
21B
  3
DIFFUSETILE
360
21A
  3
OPACITYTILE
360
21E
  3
REFLECTIONTILE
360
21D
  3
REFRACTIONTILE
360
21F
  3
SPECULARTILE
360
21C
  0
DICTIONARY
  5
211
330
210
100
AcDbDictionary
280
     1
281
     1
  3
BUMPTILE
360
213
  3
DIFFUSETILE
360
212
  3
OPACITYTILE
360
216
  3
REFLECTIONTILE
360
215
  3
REFRACTIONTILE
360
217
  3
SPECULARTILE
360
214
  0
DICTIONARY
  5
221
330
220
100
AcDbDictionary
280
     1
281
     1
  3
BUMPTILE
360
223
  3
DIFFUSETILE
360
222
  3
OPACITYTILE
360
226
  3
REFLECTIONTILE
360
225
  3
REFRACTIONTILE
360
227
  3
SPECULARTILE
360
224
  0
DICTIONARY
  5
2CD
330
243
100
AcDbDictionary
280
     1
281
     1
  3
ACAD_ROUNDTRIP_2008_TABLESTYLE_CELLSTYLEMAP
360
2CE
  0
XRECORD
  5
21B
102
{ACAD_REACTORS
330
219
102
}
330
219
100
AcDbXrecord
280
     1
270
     1
271
     1
  0
XRECORD
  5
21A
102
{ACAD_REACTORS
330
219
102
}
330
219
100
AcDbXrecord
280
     1
270
     1
271
     1
  0
XRECORD
  5
21E
102
{ACAD_REACTORS
330
219
102
}
330
219
100
AcDbXrecord
280
     1
270
     1
271
     1
  0
XRECORD
  5
21D
102
{ACAD_REACTORS
330
219
102
}
330
219
100
AcDbXrecord
280
     1
270
     1
271
     1
  0
XRECORD
  5
21F
102
{ACAD_REACTORS
330
219
102
}
330
219
100
AcDbXrecord
280
     1
270
     1
271
     1
  0
XRECORD
  5
21C
102
{ACAD_REACTORS
330
219
102
}
330
219
100
AcDbXrecord
280
     1
270
     1
271
     1
  0
XRECORD
  5
213
102
{ACAD_REACTORS
330
211
102
}
330
211
100
AcDbXrecord
280
     1
270
     1
271
     1
  0
XRECORD
  5
212
102
{ACAD_REACTORS
330
211
102
}
330
211
100
AcDbXrecord
280
     1
270
     1
271
     1
  0
XRECORD
  5
216
102
{ACAD_REACTORS
330
211
102
}
330
211
100
AcDbXrecord
280
     1
270
     1
271
     1
  0
XRECORD
  5
215
102
{ACAD_REACTORS
330
211
102
}
330
211
100
AcDbXrecord
280
     1
270
     1
271
     1
  0
XRECORD
  5
217
102
{ACAD_REACTORS
330
211
102
}
330
211
100
AcDbXrecord
280
     1
270
     1
271
     1
  0
XRECORD
  5
214
102
{ACAD_REACTORS
330
211
102
}
330
211
100
AcDbXrecord
280
     1
270
     1
271
     1
  0
XRECORD
  5
223
102
{ACAD_REACTORS
330
221
102
}
330
221
100
AcDbXrecord
280
     1
270
     1
271
     1
  0
XRECORD
  5
222
102
{ACAD_REACTORS
330
221
102
}
330
221
100
AcDbXrecord
280
     1
270
     1
271
     1
  0
XRECORD
  5
226
102
{ACAD_REACTORS
330
221
102
}
330
221
100
AcDbXrecord
280
     1
270
     1
271
     1
  0
XRECORD
  5
225
102
{ACAD_REACTORS
330
221
102
}
330
221
100
AcDbXrecord
280
     1
270
     1
271
     1
  0
XRECORD
  5
227
102
{ACAD_REACTORS
330
221
102
}
330
221
100
AcDbXrecord
280
     1
270
     1
271
     1
  0
XRECORD
  5
224
102
{ACAD_REACTORS
330
221
102
}
330
221
100
AcDbXrecord
280
     1
270
     1
271
     1
  0
CELLSTYLEMAP
  5
2CE
102
{ACAD_REACTORS
330
2CD
102
}
330
2CD
100
AcDbCellStyleMap
 90
        3
300
CELLSTYLE
  1
TABLEFORMAT_BEGIN
 90
        5
170
     1
 91
        0
 92
    32768
 62
   257
 93
        1
300
CONTENTFORMAT
  1
CONTENTFORMAT_BEGIN
 90
        0
 91
        0
 92
      512
 93
        0
300

 40
0.0
140
1.0
 94
        5
 62
     0
340
17
144
6.0
309
CONTENTFORMAT_END
171
     1
301
MARGIN
  1
CELLMARGIN_BEGIN
 40
1.5
 40
1.5
 40
1.5
 40
1.5
 40
4.5
 40
4.5
309
CELLMARGIN_END
 94
        6
 95
        1
302
GRIDFORMAT
  1
GRIDFORMAT_BEGIN
 90
        0
 91
        1
 62
     0
 92
       -2
340
0
 93
        0
 40
1.125
309
GRIDFORMAT_END
 95
        2
302
GRIDFORMAT
  1
GRIDFORMAT_BEGIN
 90
        0
 91
        1
 62
     0
 92
       -2
340
0
 93
        0
 40
1.125
309
GRIDFORMAT_END
 95
        4
302
GRIDFORMAT
  1
GRIDFORMAT_BEGIN
 90
        0
 91
        1
 62
     0
 92
       -2
340
0
 93
        0
 40
1.125
309
GRIDFORMAT_END
 95
        8
302
GRIDFORMAT
  1
GRIDFORMAT_BEGIN
 90
        0
 91
        1
 62
     0
 92
       -2
340
0
 93
        0
 40
1.125
309
GRIDFORMAT_END
 95
       16
302
GRIDFORMAT
  1
GRIDFORMAT_BEGIN
 90
        0
 91
        1
 62
     0
 92
       -2
340
0
 93
        0
 40
1.125
309
GRIDFORMAT_END
 95
       32
302
GRIDFORMAT
  1
GRIDFORMAT_BEGIN
 90
        0
 91
        1
 62
     0
 92
       -2
340
0
 93
        0
 40
1.125
309
GRIDFORMAT_END
309
TABLEFORMAT_END
  1
CELLSTYLE_BEGIN
 90
        1
 91
        1
300
_TITLE
309
CELLSTYLE_END
300
CELLSTYLE
  1
TABLEFORMAT_BEGIN
 90
        5
170
     1
 91
        0
 92
        0
 62
   257
 93
        1
300
CONTENTFORMAT
  1
CONTENTFORMAT_BEGIN
 90
        0
 91
        0
 92
      512
 93
        0
300

 40
0.0
140
1.0
 94
        5
 62
     0
340
17
144
4.5
309
CONTENTFORMAT_END
171
     1
301
MARGIN
  1
CELLMARGIN_BEGIN
 40
1.5
 40
1.5
 40
1.5
 40
1.5
 40
4.5
 40
4.5
309
CELLMARGIN_END
 94
        6
 95
        1
302
GRIDFORMAT
  1
GRIDFORMAT_BEGIN
 90
        0
 91
        1
 62
     0
 92
       -2
340
0
 93
        0
 40
1.125
309
GRIDFORMAT_END
 95
        2
302
GRIDFORMAT
  1
GRIDFORMAT_BEGIN
 90
        0
 91
        1
 62
     0
 92
       -2
340
0
 93
        0
 40
1.125
309
GRIDFORMAT_END
 95
        4
302
GRIDFORMAT
  1
GRIDFORMAT_BEGIN
 90
        0
 91
        1
 62
     0
 92
       -2
340
0
 93
        0
 40
1.125
309
GRIDFORMAT_END
 95
        8
302
GRIDFORMAT
  1
GRIDFORMAT_BEGIN
 90
        0
 91
        1
 62
     0
 92
       -2
340
0
 93
        0
 40
1.125
309
GRIDFORMAT_END
 95
       16
302
GRIDFORMAT
  1
GRIDFORMAT_BEGIN
 90
        0
 91
        1
 62
     0
 92
       -2
340
0
 93
        0
 40
1.125
309
GRIDFORMAT_END
 95
       32
302
GRIDFORMAT
  1
GRIDFORMAT_BEGIN
 90
        0
 91
        1
 62
     0
 92
       -2
340
0
 93
        0
 40
1.125
309
GRIDFORMAT_END
309
TABLEFORMAT_END
  1
CELLSTYLE_BEGIN
 90
        2
 91
        1
300
_HEADER
309
CELLSTYLE_END
300
CELLSTYLE
  1
TABLEFORMAT_BEGIN
 90
        5
170
     1
 91
        0
 92
        0
 62
   257
 93
        1
300
CONTENTFORMAT
  1
CONTENTFORMAT_BEGIN
 90
        0
 91
        0
 92
      512
 93
        0
300

 40
0.0
140
1.0
 94
        2
 62
     0
340
17
144
4.5
309
CONTENTFORMAT_END
171
     1
301
MARGIN
  1
CELLMARGIN_BEGIN
 40
1.5
 40
1.5
 40
1.5
 40
1.5
 40
4.5
 40
4.5
309
CELLMARGIN_END
 94
        6
 95
        1
302
GRIDFORMAT
  1
GRIDFORMAT_BEGIN
 90
        0
 91
        1
 62
     0
 92
       -2
340
0
 93
        0
 40
1.125
309
GRIDFORMAT_END
 95
        2
302
GRIDFORMAT
  1
GRIDFORMAT_BEGIN
 90
        0
 91
        1
 62
     0
 92
       -2
340
0
 93
        0
 40
1.125
309
GRIDFORMAT_END
 95
        4
302
GRIDFORMAT
  1
GRIDFORMAT_BEGIN
 90
        0
 91
        1
 62
     0
 92
       -2
340
0
 93
        0
 40
1.125
309
GRIDFORMAT_END
 95
        8
302
GRIDFORMAT
  1
GRIDFORMAT_BEGIN
 90
        0
 91
        1
 62
     0
 92
       -2
340
0
 93
        0
 40
1.125
309
GRIDFORMAT_END
 95
       16
302
GRIDFORMAT
  1
GRIDFORMAT_BEGIN
 90
        0
 91
        1
 62
     0
 92
       -2
340
0
 93
        0
 40
1.125
309
GRIDFORMAT_END
 95
       32
302
GRIDFORMAT
  1
GRIDFORMAT_BEGIN
 90
        0
 91
        1
 62
     0
 92
       -2
340
0
 93
        0
 40
1.125
309
GRIDFORMAT_END
309
TABLEFORMAT_END
  1
CELLSTYLE_BEGIN
 90
        3
 91
        2
300
_DATA
309
CELLSTYLE_END
  0
ENDSEC
  0
EOF
