  0
SECTION
  2
HEADER
  9
$ACADVER
  1
AC1021
  9
$ACADMAINTVER
 70
    25
  9
$DWGCODEPAGE
  3
ANSI_932
  9
$INSBASE
 10
0.0
 20
0.0
 30
0.0
  9
$EXTMIN
 10
0.0
 20
0.0
 30
0.0
  9
$EXTMAX
 10
594.0
 20
420.0
 30
0.0
  9
$LIMMIN
 10
0.0
 20
0.0
  9
$LIMMAX
 10
594.0
 20
420.0
  9
$ORTHOMODE
 70
     0
  9
$REGENMODE
 70
     1
  9
$FILLMODE
 70
     1
  9
$QTEXTMODE
 70
     0
  9
$MIRRTEXT
 70
     1
  9
$LTSCALE
 40
1.0
  9
$ATTMODE
 70
     1
  9
$TEXTSIZE
 40
4.8865234375
  9
$TRACEWID
 40
1.0
  9
$TEXTSTYLE
  7
Standard
  9
$CLAYER
  8
0
  9
$CELTYPE
  6
ByLayer
  9
$CECOLOR
 62
   256
  9
$CELTSCALE
 40
1.0
  9
$DISPSILH
 70
     0
  9
$DIMSCALE
 40
1.0
  9
$DIMASZ
 40
2.5
  9
$DIMEXO
 40
0.625
  9
$DIMDLI
 40
3.75
  9
$DIMRND
 40
0.0
  9
$DIMDLE
 40
0.0
  9
$DIMEXE
 40
1.25
  9
$DIMTP
 40
0.0
  9
$DIMTM
 40
0.0
  9
$DIMTXT
 40
2.5
  9
$DIMCEN
 40
2.5
  9
$DIMTSZ
 40
0.0
  9
$DIMTOL
 70
     0
  9
$DIMLIM
 70
     0
  9
$DIMTIH
 70
     0
  9
$DIMTOH
 70
     0
  9
$DIMSE1
 70
     0
  9
$DIMSE2
 70
     0
  9
$DIMTAD
 70
     1
  9
$DIMZIN
 70
     8
  9
$DIMBLK
  1

  9
$DIMASO
 70
     1
  9
$DIMSHO
 70
     1
  9
$DIMPOST
  1

  9
$DIMAPOST
  1

  9
$DIMALT
 70
     0
  9
$DIMALTD
 70
     3
  9
$DIMALTF
 40
0.0393700787
  9
$DIMLFAC
 40
1.0
  9
$DIMTOFL
 70
     1
  9
$DIMTVP
 40
0.0
  9
$DIMTIX
 70
     0
  9
$DIMSOXD
 70
     0
  9
$DIMSAH
 70
     0
  9
$DIMBLK1
  1

  9
$DIMBLK2
  1

  9
$DIMSTYLE
  2
ISO-25
  9
$DIMCLRD
 70
     0
  9
$DIMCLRE
 70
     0
  9
$DIMCLRT
 70
     0
  9
$DIMTFAC
 40
1.0
  9
$DIMGAP
 40
0.625
  9
$DIMJUST
 70
     0
  9
$DIMSD1
 70
     0
  9
$DIMSD2
 70
     0
  9
$DIMTOLJ
 70
     0
  9
$DIMTZIN
 70
     8
  9
$DIMALTZ
 70
     0
  9
$DIMALTTZ
 70
     0
  9
$DIMUPT
 70
     0
  9
$DIMDEC
 70
     2
  9
$DIMTDEC
 70
     2
  9
$DIMALTU
 70
     2
  9
$DIMALTTD
 70
     3
  9
$DIMTXSTY
  7
Standard
  9
$DIMAUNIT
 70
     0
  9
$DIMADEC
 70
     0
  9
$DIMALTRND
 40
0.0
  9
$DIMAZIN
 70
     0
  9
$DIMDSEP
 70
    44
  9
$DIMATFIT
 70
     3
  9
$DIMFRAC
 70
     0
  9
$DIMLDRBLK
  1

  9
$DIMLUNIT
 70
     2
  9
$DIMLWD
 70
    -2
  9
$DIMLWE
 70
    -2
  9
$DIMTMOVE
 70
     0
  9
$DIMFXL
 40
1.0
  9
$DIMFXLON
 70
     0
  9
$DIMJOGANG
 40
0.7853981634
  9
$DIMTFILL
 70
     0
  9
$DIMTFILLCLR
 70
     0
  9
$DIMARCSYM
 70
     0
  9
$DIMLTYPE
  6

  9
$DIMLTEX1
  6

  9
$DIMLTEX2
  6

  9
$LUNITS
 70
     2
  9
$LUPREC
 70
     4
  9
$SKETCHINC
 40
1.0
  9
$FILLETRAD
 40
10.0
  9
$AUNITS
 70
     0
  9
$AUPREC
 70
     0
  9
$MENU
  1
.
  9
$ELEVATION
 40
0.0
  9
$PELEVATION
 40
0.0
  9
$THICKNESS
 40
0.0
  9
$LIMCHECK
 70
     0
  9
$CHAMFERA
 40
0.0
  9
$CHAMFERB
 40
0.0
  9
$CHAMFERC
 40
0.0
  9
$CHAMFERD
 40
0.0
  9
$SKPOLY
 70
     0
  9
$TDCREATE
 40
2459156.696896852
  9
$TDUCREATE
 40
2459156.321896852
  9
$TDUPDATE
 40
2459156.696900533
  9
$TDUUPDATE
 40
2459156.321900533
  9
$TDINDWG
 40
0.0000000116
  9
$TDUSRTIMER
 40
0.0000000116
  9
$USRTIMER
 70
     1
  9
$ANGBASE
 50
0.0
  9
$ANGDIR
 70
     0
  9
$PDMODE
 70
     0
  9
$PDSIZE
 40
0.0
  9
$PLINEWID
 40
0.0
  9
$SPLFRAME
 70
     0
  9
$SPLINETYPE
 70
     6
  9
$SPLINESEGS
 70
     8
  9
$HANDSEED
  5
4B1
  9
$SURFTAB1
 70
     6
  9
$SURFTAB2
 70
     6
  9
$SURFTYPE
 70
     6
  9
$SURFU
 70
     6
  9
$SURFV
 70
     6
  9
$UCSBASE
  2

  9
$UCSNAME
  2

  9
$UCSORG
 10
0.0
 20
0.0
 30
0.0
  9
$UCSXDIR
 10
1.0
 20
0.0
 30
0.0
  9
$UCSYDIR
 10
0.0
 20
1.0
 30
0.0
  9
$UCSORTHOREF
  2

  9
$UCSORTHOVIEW
 70
     0
  9
$UCSORGTOP
 10
0.0
 20
0.0
 30
0.0
  9
$UCSORGBOTTOM
 10
0.0
 20
0.0
 30
0.0
  9
$UCSORGLEFT
 10
0.0
 20
0.0
 30
0.0
  9
$UCSORGRIGHT
 10
0.0
 20
0.0
 30
0.0
  9
$UCSORGFRONT
 10
0.0
 20
0.0
 30
0.0
  9
$UCSORGBACK
 10
0.0
 20
0.0
 30
0.0
  9
$PUCSBASE
  2

  9
$PUCSNAME
  2

  9
$PUCSORG
 10
0.0
 20
0.0
 30
0.0
  9
$PUCSXDIR
 10
1.0
 20
0.0
 30
0.0
  9
$PUCSYDIR
 10
0.0
 20
1.0
 30
0.0
  9
$PUCSORTHOREF
  2

  9
$PUCSORTHOVIEW
 70
     0
  9
$PUCSORGTOP
 10
0.0
 20
0.0
 30
0.0
  9
$PUCSORGBOTTOM
 10
0.0
 20
0.0
 30
0.0
  9
$PUCSORGLEFT
 10
0.0
 20
0.0
 30
0.0
  9
$PUCSORGRIGHT
 10
0.0
 20
0.0
 30
0.0
  9
$PUCSORGFRONT
 10
0.0
 20
0.0
 30
0.0
  9
$PUCSORGBACK
 10
0.0
 20
0.0
 30
0.0
  9
$USERI1
 70
     0
  9
$USERI2
 70
     0
  9
$USERI3
 70
     0
  9
$USERI4
 70
     0
  9
$USERI5
 70
     0
  9
$USERR1
 40
0.0
  9
$USERR2
 40
0.0
  9
$USERR3
 40
0.0
  9
$USERR4
 40
0.0
  9
$USERR5
 40
0.0
  9
$WORLDVIEW
 70
     1
  9
$SHADEDGE
 70
     3
  9
$SHADEDIF
 70
    70
  9
$TILEMODE
 70
     1
  9
$MAXACTVP
 70
    64
  9
$PINSBASE
 10
0.0
 20
0.0
 30
0.0
  9
$PLIMCHECK
 70
     0
  9
$PEXTMIN
 10
0.0
 20
0.0
 30
0.0
  9
$PEXTMAX
 10
594.0
 20
420.0
 30
0.0
  9
$PLIMMIN
 10
0.0
 20
0.0
  9
$PLIMMAX
 10
594.0
 20
420.0
  9
$UNITMODE
 70
     0
  9
$VISRETAIN
 70
     1
  9
$PLINEGEN
 70
     0
  9
$PSLTSCALE
 70
     1
  9
$TREEDEPTH
 70
  3020
  9
$CMLSTYLE
  2
Standard
  9
$CMLJUST
 70
     0
  9
$CMLSCALE
 40
20.0
  9
$PROXYGRAPHICS
 70
     1
  9
$MEASUREMENT
 70
     1
  9
$CELWEIGHT
370
    -1
  9
$ENDCAPS
280
     0
  9
$JOINSTYLE
280
     0
  9
$LWDISPLAY
290
     0
  9
$INSUNITS
 70
     4
  9
$HYPERLINKBASE
  1

  9
$STYLESHEET
  1

  9
$XEDIT
290
     1
  9
$CEPSNTYPE
380
     0
  9
$PSTYLEMODE
290
     1
  9
$FINGERPRINTGUID
  2
{5c61780f-317b-488c-b92b-55743a1c4f3e}
  9
$VERSIONGUID
  2
{FAEB1C32-E019-11D5-929B-00C0DF256EC4}
  9
$EXTNAMES
290
     1
  9
$PSVPSCALE
 40
0.0
  9
$OLESTARTUP
290
     0
  9
$SORTENTS
280
   127
  9
$INDEXCTL
280
     0
  9
$HIDETEXT
280
     1
  9
$XCLIPFRAME
290
     0
  9
$HALOGAP
280
     0
  9
$OBSCOLOR
 70
   257
  9
$OBSLTYPE
280
     0
  9
$INTERSECTIONDISPLAY
280
     0
  9
$INTERSECTIONCOLOR
 70
   257
  9
$DIMASSOC
280
     2
  9
$PROJECTNAME
  1

  9
$CAMERADISPLAY
290
     0
  9
$LENSLENGTH
 40
50.0
  9
$CAMERAHEIGHT
 40
0.0
  9
$STEPSPERSEC
 40
2.0
  9
$STEPSIZE
 40
6.0
  9
$3DDWFPREC
 40
2.0
  9
$PSOLWIDTH
 40
5.0
  9
$PSOLHEIGHT
 40
80.0
  9
$LOFTANG1
 40
1.5707963268
  9
$LOFTANG2
 40
1.5707963268
  9
$LOFTMAG1
 40
0.0
  9
$LOFTMAG2
 40
0.0
  9
$LOFTPARAM
 70
     7
  9
$LOFTNORMALS
280
     1
  9
$LATITUDE
 40
37.795
  9
$LONGITUDE
 40
-122.394
  9
$NORTHDIRECTION
 40
0.0
  9
$TIMEZONE
 70
 -8000
  9
$LIGHTGLYPHDISPLAY
280
     1
  9
$TILEMODELIGHTSYNCH
280
     1
  9
$CMATERIAL
347
44
  9
$SOLIDHIST
280
     0
  9
$SHOWHIST
280
     1
  9
$DWFFRAME
280
     2
  9
$DGNFRAME
280
     2
  9
$REALWORLDSCALE
290
     1
  9
$INTERFERECOLOR
 62
   256
  9
$CSHADOW
280
     0
  9
$SHADOWPLANELOCATION
 40
0.0
  0
ENDSEC
  0
SECTION
  2
CLASSES
  0
CLASS
  1
ACDBDICTIONARYWDFLT
  2
AcDbDictionaryWithDefault
  3
ObjectDBX Classes
 90
        0
 91
        3
280
     0
281
     0
  0
CLASS
  1
VISUALSTYLE
  2
AcDbVisualStyle
  3
ObjectDBX Classes
 90
     4095
 91
        3
280
     0
281
     0
  0
CLASS
  1
MATERIAL
  2
AcDbMaterial
  3
ObjectDBX Classes
 90
     1153
 91
        3
280
     0
281
     0
  0
CLASS
  1
SCALE
  2
AcDbScale
  3
ObjectDBX Classes
 90
     1153
 91
        3
280
     0
281
     0
  0
CLASS
  1
TABLESTYLE
  2
AcDbTableStyle
  3
ObjectDBX Classes
 90
     4095
 91
        3
280
     0
281
     0
  0
CLASS
  1
MLEADERSTYLE
  2
AcDbMLeaderStyle
  3
ACDB_MLEADERSTYLE_CLASS
 90
     4095
 91
        3
280
     0
281
     0
  0
CLASS
  1
SUN
  2
AcDbSun
  3
SCENEOE
 90
     1153
 91
        3
280
     0
281
     0
  0
CLASS
  1
DICTIONARYVAR
  2
AcDbDictionaryVar
  3
ObjectDBX Classes
 90
        0
 91
        3
280
     0
281
     0
  0
CLASS
  1
CELLSTYLEMAP
  2
AcDbCellStyleMap
  3
ObjectDBX Classes
 90
     1152
 91
        3
280
     0
281
     0
  0
ENDSEC
  0
SECTION
  2
TABLES
  0
TABLE
  2
VPORT
  5
8
330
0
100
AcDbSymbolTable
 70
     1
  0
VPORT
  5
29
330
8
100
AcDbSymbolTableRecord
100
AcDbViewportTableRecord
  2
*Active
 70
     0
 10
0.0
 20
0.0
 11
1.0
 21
1.0
 12
344.1869158879
 22
148.5
 13
0.0
 23
0.0
 14
10.0
 24
10.0
 15
10.0
 25
10.0
 16
0.0
 26
0.0
 36
1.0
 17
0.0
 27
0.0
 37
0.0
 40
297.0
 41
1.9729729729
 42
50.0
 43
0.0
 44
0.0
 50
0.0
 51
0.0
 71
     0
 72
   100
 73
     1
 74
     3
 75
     0
 76
     0
 77
     0
 78
     0
281
     0
 65
     1
110
0.0
120
0.0
130
0.0
111
1.0
121
0.0
131
0.0
112
0.0
122
1.0
132
0.0
 79
     0
146
0.0
348
2F
 60
     3
 61
     5
292
     1
282
     1
141
0.0
142
0.0
 63
   250
361
6D
  0
ENDTAB
  0
TABLE
  2
LTYPE
  5
5
330
0
100
AcDbSymbolTable
 70
     1
  0
LTYPE
  5
14
330
5
100
AcDbSymbolTableRecord
100
AcDbLinetypeTableRecord
  2
ByBlock
 70
     0
  3

 72
    65
 73
     0
 40
0.0
  0
LTYPE
  5
15
330
5
100
AcDbSymbolTableRecord
100
AcDbLinetypeTableRecord
  2
ByLayer
 70
     0
  3

 72
    65
 73
     0
 40
0.0
  0
LTYPE
  5
16
330
5
100
AcDbSymbolTableRecord
100
AcDbLinetypeTableRecord
  2
Continuous
 70
     0
  3
Solid line
 72
    65
 73
     0
 40
0.0
  0
ENDTAB
  0
TABLE
  2
LAYER
  5
2
330
0
100
AcDbSymbolTable
 70
     4
  0
LAYER
  5
10
330
2
100
AcDbSymbolTableRecord
100
AcDbLayerTableRecord
  2
0
 70
     0
 62
     7
  6
Continuous
370
    -3
390
F
347
46
  0
LAYER
  5
6E
330
2
100
AcDbSymbolTableRecord
100
AcDbLayerTableRecord
  2
一般
 70
     0
 62
     7
  6
Continuous
370
    -3
390
F
347
46
  0
LAYER
  5
7F
330
2
100
AcDbSymbolTableRecord
100
AcDbLayerTableRecord
  2
_Translation
 70
     1
 62
    -7
  6
Continuous
370
    -3
390
F
347
46
  0
LAYER
  5
26B
330
2
100
AcDbSymbolTableRecord
100
AcDbLayerTableRecord
  2
寸法
 70
     0
 62
     7
  6
Continuous
370
    -3
390
F
347
46
  0
ENDTAB
  0
TABLE
  2
STYLE
  5
3
330
0
100
AcDbSymbolTable
 70
     2
  0
STYLE
  5
11
330
3
100
AcDbSymbolTableRecord
100
AcDbTextStyleTableRecord
  2
Standard
 70
     0
 40
0.0
 41
1.0
 50
0.0
 71
     0
 42
4.8865234375
  3
txt
  4

  0
STYLE
  5
27B
330
3
100
AcDbSymbolTableRecord
100
AcDbTextStyleTableRecord
  2
SEACAD_Arial
 70
     0
 40
0.0
 41
1.0
 50
0.0
 71
     0
 42
4.8865234375
  3
arial.ttf
  4

1001
ACAD
1000
Arial
1071
        0
  0
ENDTAB
  0
TABLE
  2
VIEW
  5
6
330
0
100
AcDbSymbolTable
 70
     0
  0
ENDTAB
  0
TABLE
  2
UCS
  5
7
330
0
100
AcDbSymbolTable
 70
     0
  0
ENDTAB
  0
TABLE
  2
APPID
  5
9
330
0
100
AcDbSymbolTable
 70
     2
  0
APPID
  5
12
330
9
100
AcDbSymbolTableRecord
100
AcDbRegAppTableRecord
  2
ACAD
 70
     0
  0
APPID
  5
4A7
330
9
100
AcDbSymbolTableRecord
100
AcDbRegAppTableRecord
  2
ACAD_MLEADERVER
 70
     0
  0
ENDTAB
  0
TABLE
  2
DIMSTYLE
  5
A
330
0
100
AcDbSymbolTable
 70
     3
100
AcDbDimStyleTable
  0
DIMSTYLE
105
27
330
A
100
AcDbSymbolTableRecord
100
AcDbDimStyleTableRecord
  2
ISO-25
 70
     0
 41
2.5
 42
0.625
 43
3.75
 44
1.25
 73
     0
 74
     0
 77
     1
 78
     8
140
2.5
141
2.5
143
0.0393700787
147
0.625
171
     3
172
     1
178
     0
271
     2
272
     2
274
     3
278
    44
283
     0
284
     8
340
11
  0
DIMSTYLE
105
26C
330
A
100
AcDbSymbolTableRecord
100
AcDbDimStyleTableRecord
  2
Standard
 70
     0
178
     0
340
11
  0
DIMSTYLE
105
27C
102
{ACAD_REACTORS
330
27D
330
287
330
291
330
29B
330
2B7
330
2DF
330
2F5
330
2FF
330
309
330
313
330
31D
330
327
330
33D
330
347
330
35D
330
367
330
371
330
37B
330
385
330
38F
330
42B
330
435
330
44B
330
455
330
45F
102
}
330
A
100
AcDbSymbolTableRecord
100
AcDbDimStyleTableRecord
  2
Arch
 70
     0
 41
3.175
 42
1.6288411458
 44
1.6288411458
 73
     0
 74
     0
 77
     1
 78
     8
140
3.2576822917
141
1.6288411458
143
1.0
147
0.8144205729
172
     1
173
     1
178
     0
179
     2
271
     1
272
     1
284
     8
340
27B
343
276
344
276
  0
ENDTAB
  0
TABLE
  2
BLOCK_RECORD
  5
1
330
0
100
AcDbSymbolTable
 70
    70
  0
BLOCK_RECORD
  5
1F
330
1
100
AcDbSymbolTableRecord
100
AcDbBlockTableRecord
  2
*Model_Space
340
22
 70
     0
280
     1
281
     0
  0
BLOCK_RECORD
  5
1B
330
1
100
AcDbSymbolTableRecord
100
AcDbBlockTableRecord
  2
*Paper_Space
340
1E
 70
     0
280
     1
281
     0
  0
BLOCK_RECORD
  5
1CD
330
1
100
AcDbSymbolTableRecord
100
AcDbBlockTableRecord
  2
SE
340
0
102
{BLKREFS
331
1CE
102
}
 70
     0
280
     1
281
     0
  0
BLOCK_RECORD
  5
1CF
330
1
100
AcDbSymbolTableRecord
100
AcDbBlockTableRecord
  2
SE1
340
0
102
{BLKREFS
331
1D0
102
}
 70
     0
280
     1
281
     0
  0
BLOCK_RECORD
  5
1D9
330
1
100
AcDbSymbolTableRecord
100
AcDbBlockTableRecord
  2
SE2
340
0
102
{BLKREFS
331
1DA
102
}
 70
     0
280
     1
281
     0
  0
BLOCK_RECORD
  5
1DB
330
1
100
AcDbSymbolTableRecord
100
AcDbBlockTableRecord
  2
SE3
340
0
102
{BLKREFS
331
1DC
102
}
 70
     0
280
     1
281
     0
  0
BLOCK_RECORD
  5
1E5
330
1
100
AcDbSymbolTableRecord
100
AcDbBlockTableRecord
  2
SE4
340
0
102
{BLKREFS
331
1E6
102
}
 70
     0
280
     1
281
     0
  0
BLOCK_RECORD
  5
1E7
330
1
100
AcDbSymbolTableRecord
100
AcDbBlockTableRecord
  2
SE5
340
0
102
{BLKREFS
331
1E8
102
}
 70
     0
280
     1
281
     0
  0
BLOCK_RECORD
  5
1F1
330
1
100
AcDbSymbolTableRecord
100
AcDbBlockTableRecord
  2
SE6
340
0
102
{BLKREFS
331
1F2
102
}
 70
     0
280
     1
281
     0
  0
BLOCK_RECORD
  5
1F3
330
1
100
AcDbSymbolTableRecord
100
AcDbBlockTableRecord
  2
SE7
340
0
102
{BLKREFS
331
1F4
102
}
 70
     0
280
     1
281
     0
  0
BLOCK_RECORD
  5
1FD
330
1
100
AcDbSymbolTableRecord
100
AcDbBlockTableRecord
  2
SE8
340
0
102
{BLKREFS
331
1FE
102
}
 70
     0
280
     1
281
     0
  0
BLOCK_RECORD
  5
1FF
330
1
100
AcDbSymbolTableRecord
100
AcDbBlockTableRecord
  2
SE9
340
0
102
{BLKREFS
331
200
102
}
 70
     0
280
     1
281
     0
  0
BLOCK_RECORD
  5
209
330
1
100
AcDbSymbolTableRecord
100
AcDbBlockTableRecord
  2
グループ
340
0
102
{BLKREFS
331
21D
102
}
 70
     0
280
     1
281
     0
  0
BLOCK_RECORD
  5
21E
330
1
100
AcDbSymbolTableRecord
100
AcDbBlockTableRecord
  2
グループ-1
340
0
102
{BLKREFS
331
225
102
}
 70
     0
280
     1
281
     0
  0
BLOCK_RECORD
  5
226
330
1
100
AcDbSymbolTableRecord
100
AcDbBlockTableRecord
  2
グループ-2
340
0
102
{BLKREFS
331
22D
102
}
 70
     0
280
     1
281
     0
  0
BLOCK_RECORD
  5
22E
330
1
100
AcDbSymbolTableRecord
100
AcDbBlockTableRecord
  2
グループ-3
340
0
102
{BLKREFS
331
235
102
}
 70
     0
280
     1
281
     0
  0
BLOCK_RECORD
  5
236
330
1
100
AcDbSymbolTableRecord
100
AcDbBlockTableRecord
  2
SE10
340
0
102
{BLKREFS
331
237
102
}
 70
     0
280
     1
281
     0
  0
BLOCK_RECORD
  5
238
330
1
100
AcDbSymbolTableRecord
100
AcDbBlockTableRecord
  2
SE11
340
0
102
{BLKREFS
331
239
102
}
 70
     0
280
     1
281
     0
  0
BLOCK_RECORD
  5
242
330
1
100
AcDbSymbolTableRecord
100
AcDbBlockTableRecord
  2
グループ-4
340
0
102
{BLKREFS
331
25B
102
}
 70
     0
280
     1
281
     0
  0
BLOCK_RECORD
  5
256
330
1
100
AcDbSymbolTableRecord
100
AcDbBlockTableRecord
  2
グループ-5
340
0
102
{BLKREFS
331
25E
102
}
 70
     0
280
     1
281
     0
  0
BLOCK_RECORD
  5
25F
330
1
100
AcDbSymbolTableRecord
100
AcDbBlockTableRecord
  2
SE12
340
0
102
{BLKREFS
331
260
102
}
 70
     0
280
     1
281
     0
  0
BLOCK_RECORD
  5
261
330
1
100
AcDbSymbolTableRecord
100
AcDbBlockTableRecord
  2
SE13
340
0
102
{BLKREFS
331
262
102
}
 70
     0
280
     1
281
     0
  0
BLOCK_RECORD
  5
26D
330
1
100
AcDbSymbolTableRecord
100
AcDbBlockTableRecord
  2
_Oblique
340
0
 70
     0
280
     1
281
     0
  0
BLOCK_RECORD
  5
271
330
1
100
AcDbSymbolTableRecord
100
AcDbBlockTableRecord
  2
_Dot
340
0
 70
     0
280
     1
281
     0
  0
BLOCK_RECORD
  5
276
330
1
100
AcDbSymbolTableRecord
100
AcDbBlockTableRecord
  2
_SE_FILLED
340
0
 70
     0
280
     1
281
     0
  0
BLOCK_RECORD
  5
27E
330
1
100
AcDbSymbolTableRecord
100
AcDbBlockTableRecord
  2
DMBLK26
340
0
 70
     0
280
     1
281
     0
  0
BLOCK_RECORD
  5
288
330
1
100
AcDbSymbolTableRecord
100
AcDbBlockTableRecord
  2
DMBLK27
340
0
 70
     0
280
     1
281
     0
  0
BLOCK_RECORD
  5
292
330
1
100
AcDbSymbolTableRecord
100
AcDbBlockTableRecord
  2
DMBLK28
340
0
 70
     0
280
     1
281
     0
  0
BLOCK_RECORD
  5
29C
330
1
100
AcDbSymbolTableRecord
100
AcDbBlockTableRecord
  2
DMBLK29
340
0
 70
     0
280
     1
281
     0
  0
BLOCK_RECORD
  5
2A5
330
1
100
AcDbSymbolTableRecord
100
AcDbBlockTableRecord
  2
SE14
340
0
102
{BLKREFS
331
2A6
102
}
 70
     0
280
     1
281
     0
  0
BLOCK_RECORD
  5
2A7
330
1
100
AcDbSymbolTableRecord
100
AcDbBlockTableRecord
  2
SE15
340
0
102
{BLKREFS
331
2A8
102
}
 70
     0
280
     1
281
     0
  0
BLOCK_RECORD
  5
2B1
330
1
100
AcDbSymbolTableRecord
100
AcDbBlockTableRecord
  2
グループ-6
340
0
102
{BLKREFS
331
2B6
102
}
 70
     0
280
     1
281
     0
  0
BLOCK_RECORD
  5
2B8
330
1
100
AcDbSymbolTableRecord
100
AcDbBlockTableRecord
  2
DMBLK30
340
0
 70
     0
280
     1
281
     0
  0
BLOCK_RECORD
  5
2C1
330
1
100
AcDbSymbolTableRecord
100
AcDbBlockTableRecord
  2
グループ-7
340
0
102
{BLKREFS
331
2C6
102
}
 70
     0
280
     1
281
     0
  0
BLOCK_RECORD
  5
2C7
330
1
100
AcDbSymbolTableRecord
100
AcDbBlockTableRecord
  2
グループ-8
340
0
102
{BLKREFS
331
2D2
102
}
 70
     0
280
     1
281
     0
  0
BLOCK_RECORD
  5
2D3
330
1
100
AcDbSymbolTableRecord
100
AcDbBlockTableRecord
  2
SE16
340
0
102
{BLKREFS
331
2D4
102
}
 70
     0
280
     1
281
     0
  0
BLOCK_RECORD
  5
2D5
330
1
100
AcDbSymbolTableRecord
100
AcDbBlockTableRecord
  2
SE17
340
0
102
{BLKREFS
331
2D6
102
}
 70
     0
280
     1
281
     0
  0
BLOCK_RECORD
  5
2E0
330
1
100
AcDbSymbolTableRecord
100
AcDbBlockTableRecord
  2
DMBLK31
340
0
 70
     0
280
     1
281
     0
  0
BLOCK_RECORD
  5
2E9
330
1
100
AcDbSymbolTableRecord
100
AcDbBlockTableRecord
  2
グループ-9
340
0
102
{BLKREFS
331
2F4
102
}
 70
     0
280
     1
281
     0
  0
BLOCK_RECORD
  5
2F6
330
1
100
AcDbSymbolTableRecord
100
AcDbBlockTableRecord
  2
DMBLK32
340
0
 70
     0
280
     1
281
     0
  0
BLOCK_RECORD
  5
300
330
1
100
AcDbSymbolTableRecord
100
AcDbBlockTableRecord
  2
DMBLK33
340
0
 70
     0
280
     1
281
     0
  0
BLOCK_RECORD
  5
30A
330
1
100
AcDbSymbolTableRecord
100
AcDbBlockTableRecord
  2
DMBLK34
340
0
 70
     0
280
     1
281
     0
  0
BLOCK_RECORD
  5
314
330
1
100
AcDbSymbolTableRecord
100
AcDbBlockTableRecord
  2
DMBLK35
340
0
 70
     0
280
     1
281
     0
  0
BLOCK_RECORD
  5
31E
330
1
100
AcDbSymbolTableRecord
100
AcDbBlockTableRecord
  2
DMBLK36
340
0
 70
     0
280
     1
281
     0
  0
BLOCK_RECORD
  5
328
330
1
100
AcDbSymbolTableRecord
100
AcDbBlockTableRecord
  2
DMBLK37
340
0
 70
     0
280
     1
281
     0
  0
BLOCK_RECORD
  5
331
330
1
100
AcDbSymbolTableRecord
100
AcDbBlockTableRecord
  2
SE18
340
0
102
{BLKREFS
331
332
102
}
 70
     0
280
     1
281
     0
  0
BLOCK_RECORD
  5
333
330
1
100
AcDbSymbolTableRecord
100
AcDbBlockTableRecord
  2
SE19
340
0
102
{BLKREFS
331
334
102
}
 70
     0
280
     1
281
     0
  0
BLOCK_RECORD
  5
33E
330
1
100
AcDbSymbolTableRecord
100
AcDbBlockTableRecord
  2
DMBLK38
340
0
 70
     0
280
     1
281
     0
  0
BLOCK_RECORD
  5
348
330
1
100
AcDbSymbolTableRecord
100
AcDbBlockTableRecord
  2
DMBLK39
340
0
 70
     0
280
     1
281
     0
  0
BLOCK_RECORD
  5
351
330
1
100
AcDbSymbolTableRecord
100
AcDbBlockTableRecord
  2
グループ-10
340
0
102
{BLKREFS
331
35C
102
}
 70
     0
280
     1
281
     0
  0
BLOCK_RECORD
  5
35E
330
1
100
AcDbSymbolTableRecord
100
AcDbBlockTableRecord
  2
DMBLK40
340
0
 70
     0
280
     1
281
     0
  0
BLOCK_RECORD
  5
368
330
1
100
AcDbSymbolTableRecord
100
AcDbBlockTableRecord
  2
DMBLK41
340
0
 70
     0
280
     1
281
     0
  0
BLOCK_RECORD
  5
372
330
1
100
AcDbSymbolTableRecord
100
AcDbBlockTableRecord
  2
DMBLK42
340
0
 70
     0
280
     1
281
     0
  0
BLOCK_RECORD
  5
37C
330
1
100
AcDbSymbolTableRecord
100
AcDbBlockTableRecord
  2
DMBLK43
340
0
 70
     0
280
     1
281
     0
  0
BLOCK_RECORD
  5
386
330
1
100
AcDbSymbolTableRecord
100
AcDbBlockTableRecord
  2
DMBLK44
340
0
 70
     0
280
     1
281
     0
  0
BLOCK_RECORD
  5
390
330
1
100
AcDbSymbolTableRecord
100
AcDbBlockTableRecord
  2
DMBLK45
340
0
 70
     0
280
     1
281
     0
  0
BLOCK_RECORD
  5
399
330
1
100
AcDbSymbolTableRecord
100
AcDbBlockTableRecord
  2
SE20
340
0
102
{BLKREFS
331
39A
102
}
 70
     0
280
     1
281
     0
  0
BLOCK_RECORD
  5
39B
330
1
100
AcDbSymbolTableRecord
100
AcDbBlockTableRecord
  2
SE21
340
0
102
{BLKREFS
331
39C
102
}
 70
     0
280
     1
281
     0
  0
BLOCK_RECORD
  5
3A5
330
1
100
AcDbSymbolTableRecord
100
AcDbBlockTableRecord
  2
SE22
340
0
102
{BLKREFS
331
3A6
102
}
 70
     0
280
     1
281
     0
  0
BLOCK_RECORD
  5
3A7
330
1
100
AcDbSymbolTableRecord
100
AcDbBlockTableRecord
  2
SE23
340
0
102
{BLKREFS
331
3A8
102
}
 70
     0
280
     1
281
     0
  0
BLOCK_RECORD
  5
3B1
330
1
100
AcDbSymbolTableRecord
100
AcDbBlockTableRecord
  2
SE24
340
0
102
{BLKREFS
331
3B2
102
}
 70
     0
280
     1
281
     0
  0
BLOCK_RECORD
  5
3B3
330
1
100
AcDbSymbolTableRecord
100
AcDbBlockTableRecord
  2
SE25
340
0
102
{BLKREFS
331
3B4
102
}
 70
     0
280
     1
281
     0
  0
BLOCK_RECORD
  5
3BD
330
1
100
AcDbSymbolTableRecord
100
AcDbBlockTableRecord
  2
グループ-11
340
0
102
{BLKREFS
331
3DB
102
}
 70
     0
280
     1
281
     0
  0
BLOCK_RECORD
  5
3DC
330
1
100
AcDbSymbolTableRecord
100
AcDbBlockTableRecord
  2
グループ-12
340
0
102
{BLKREFS
331
42A
102
}
 70
     0
280
     1
281
     0
  0
BLOCK_RECORD
  5
42C
330
1
100
AcDbSymbolTableRecord
100
AcDbBlockTableRecord
  2
DMBLK46
340
0
 70
     0
280
     1
281
     0
  0
BLOCK_RECORD
  5
436
330
1
100
AcDbSymbolTableRecord
100
AcDbBlockTableRecord
  2
DMBLK47
340
0
 70
     0
280
     1
281
     0
  0
BLOCK_RECORD
  5
43F
330
1
100
AcDbSymbolTableRecord
100
AcDbBlockTableRecord
  2
SE26
340
0
102
{BLKREFS
331
440
102
}
 70
     0
280
     1
281
     0
  0
BLOCK_RECORD
  5
441
330
1
100
AcDbSymbolTableRecord
100
AcDbBlockTableRecord
  2
SE27
340
0
102
{BLKREFS
331
442
102
}
 70
     0
280
     1
281
     0
  0
BLOCK_RECORD
  5
44C
330
1
100
AcDbSymbolTableRecord
100
AcDbBlockTableRecord
  2
DMBLK48
340
0
 70
     0
280
     1
281
     0
  0
BLOCK_RECORD
  5
456
330
1
100
AcDbSymbolTableRecord
100
AcDbBlockTableRecord
  2
DMBLK49
340
0
 70
     0
280
     1
281
     0
  0
BLOCK_RECORD
  5
460
330
1
100
AcDbSymbolTableRecord
100
AcDbBlockTableRecord
  2
DMBLK50
340
0
 70
     0
280
     1
281
     0
  0
BLOCK_RECORD
  5
469
330
1
100
AcDbSymbolTableRecord
100
AcDbBlockTableRecord
  2
グループ-13
340
0
102
{BLKREFS
331
471
102
}
 70
     0
280
     1
281
     0
  0
ENDTAB
  0
ENDSEC
  0
SECTION
  2
BLOCKS
  0
BLOCK
  5
20
330
1F
100
AcDbEntity
  8
0
100
AcDbBlockBegin
  2
*Model_Space
 70
     0
 10
0.0
 20
0.0
 30
0.0
  3
*Model_Space
  1

  0
ENDBLK
  5
21
330
1F
100
AcDbEntity
  8
0
100
AcDbBlockEnd
  0
BLOCK
  5
1C
330
1B
100
AcDbEntity
 67
     1
  8
0
100
AcDbBlockBegin
  2
*Paper_Space
 70
     0
 10
0.0
 20
0.0
 30
0.0
  3
*Paper_Space
  1

  0
ENDBLK
  5
1D
330
1B
100
AcDbEntity
 67
     1
  8
0
100
AcDbBlockEnd
  0
BLOCK
  5
1D7
330
1CD
100
AcDbEntity
  8
0
100
AcDbBlockBegin
  2
SE
 70
     0
 10
0.0
 20
0.0
 30
0.0
  3
SE
  1

  0
INSERT
  5
1D0
330
1CD
100
AcDbEntity
  8
一般
100
AcDbBlockReference
  2
SE1
 10
0.0
 20
0.0
 30
0.0
  0
ENDBLK
  5
1D8
330
1CD
100
AcDbEntity
  8
0
100
AcDbBlockEnd
  0
BLOCK
  5
1D5
330
1CF
100
AcDbEntity
  8
0
100
AcDbBlockBegin
  2
SE1
 70
     0
 10
0.0
 20
0.0
 30
0.0
  3
SE1
  1

  0
LINE
  5
1D1
330
1CF
100
AcDbEntity
  8
一般
  6
Continuous
 62
     7
100
AcDbLine
 10
-53.6
 20
135.0
 30
0.0
 11
55.6
 21
135.0
 31
0.0
  0
LINE
  5
1D2
330
1CF
100
AcDbEntity
  8
一般
  6
Continuous
 62
     7
100
AcDbLine
 10
55.6
 20
135.0
 30
0.0
 11
55.6
 21
117.15
 31
0.0
  0
LINE
  5
1D3
330
1CF
100
AcDbEntity
  8
一般
  6
Continuous
 62
     7
100
AcDbLine
 10
55.6
 20
117.15
 30
0.0
 11
-53.6
 21
117.15
 31
0.0
  0
LINE
  5
1D4
330
1CF
100
AcDbEntity
  8
一般
  6
Continuous
 62
     7
100
AcDbLine
 10
-53.6
 20
117.15
 30
0.0
 11
-53.6
 21
135.0
 31
0.0
  0
ENDBLK
  5
1D6
330
1CF
100
AcDbEntity
  8
0
100
AcDbBlockEnd
  0
BLOCK
  5
1E3
330
1D9
100
AcDbEntity
  8
0
100
AcDbBlockBegin
  2
SE2
 70
     0
 10
0.0
 20
0.0
 30
0.0
  3
SE2
  1

  0
INSERT
  5
1DC
330
1D9
100
AcDbEntity
  8
一般
100
AcDbBlockReference
  2
SE3
 10
0.0
 20
0.0
 30
0.0
  0
ENDBLK
  5
1E4
330
1D9
100
AcDbEntity
  8
0
100
AcDbBlockEnd
  0
BLOCK
  5
1E1
330
1DB
100
AcDbEntity
  8
0
100
AcDbBlockBegin
  2
SE3
 70
     0
 10
0.0
 20
0.0
 30
0.0
  3
SE3
  1

  0
LINE
  5
1DD
330
1DB
100
AcDbEntity
  8
一般
  6
Continuous
 62
     7
100
AcDbLine
 10
-157.3470172817
 20
78.0260393766
 30
0.0
 11
-88.3470172817
 21
78.0260393766
 31
0.0
  0
LINE
  5
1DE
330
1DB
100
AcDbEntity
  8
一般
  6
Continuous
 62
     7
100
AcDbLine
 10
-88.3470172817
 20
78.0260393766
 30
0.0
 11
-88.3470172817
 21
-40.9739606234
 31
0.0
  0
LINE
  5
1DF
330
1DB
100
AcDbEntity
  8
一般
  6
Continuous
 62
     7
100
AcDbLine
 10
-88.3470172817
 20
-40.9739606234
 30
0.0
 11
-157.3470172817
 21
-40.9739606234
 31
0.0
  0
LINE
  5
1E0
330
1DB
100
AcDbEntity
  8
一般
  6
Continuous
 62
     7
100
AcDbLine
 10
-157.3470172817
 20
-40.9739606234
 30
0.0
 11
-157.3470172817
 21
78.0260393766
 31
0.0
  0
ENDBLK
  5
1E2
330
1DB
100
AcDbEntity
  8
0
100
AcDbBlockEnd
  0
BLOCK
  5
1EF
330
1E5
100
AcDbEntity
  8
0
100
AcDbBlockBegin
  2
SE4
 70
     0
 10
0.0
 20
0.0
 30
0.0
  3
SE4
  1

  0
INSERT
  5
1E8
330
1E5
100
AcDbEntity
  8
一般
100
AcDbBlockReference
  2
SE5
 10
0.0
 20
0.0
 30
0.0
  0
ENDBLK
  5
1F0
330
1E5
100
AcDbEntity
  8
0
100
AcDbBlockEnd
  0
BLOCK
  5
1ED
330
1E7
100
AcDbEntity
  8
0
100
AcDbBlockBegin
  2
SE5
 70
     0
 10
0.0
 20
0.0
 30
0.0
  3
SE5
  1

  0
LINE
  5
1E9
330
1E7
100
AcDbEntity
  8
一般
  6
Continuous
 62
     7
100
AcDbLine
 10
-140.0018078822
 20
78.0071767611
 30
0.0
 11
-140.0018078822
 21
98.0381969052
 31
0.0
  0
LINE
  5
1EA
330
1E7
100
AcDbEntity
  8
一般
  6
Continuous
 62
     7
100
AcDbLine
 10
-140.0018078822
 20
98.0381969052
 30
0.0
 11
-139.0018078822
 21
98.0381969052
 31
0.0
  0
LINE
  5
1EB
330
1E7
100
AcDbEntity
  8
一般
  6
Continuous
 62
     7
100
AcDbLine
 10
-139.0018078822
 20
98.0381969052
 30
0.0
 11
-139.0018078822
 21
78.0071767611
 31
0.0
  0
LINE
  5
1EC
330
1E7
100
AcDbEntity
  8
一般
  6
Continuous
 62
     7
100
AcDbLine
 10
-139.0018078822
 20
78.0071767611
 30
0.0
 11
-140.0018078822
 21
78.0071767611
 31
0.0
  0
ENDBLK
  5
1EE
330
1E7
100
AcDbEntity
  8
0
100
AcDbBlockEnd
  0
BLOCK
  5
1FB
330
1F1
100
AcDbEntity
  8
0
100
AcDbBlockBegin
  2
SE6
 70
     0
 10
0.0
 20
0.0
 30
0.0
  3
SE6
  1

  0
INSERT
  5
1F4
330
1F1
100
AcDbEntity
  8
一般
100
AcDbBlockReference
  2
SE7
 10
0.0
 20
0.0
 30
0.0
  0
ENDBLK
  5
1FC
330
1F1
100
AcDbEntity
  8
0
100
AcDbBlockEnd
  0
BLOCK
  5
1F9
330
1F3
100
AcDbEntity
  8
0
100
AcDbBlockBegin
  2
SE7
 70
     0
 10
0.0
 20
0.0
 30
0.0
  3
SE7
  1

  0
LINE
  5
1F5
330
1F3
100
AcDbEntity
  8
一般
  6
Continuous
 62
     7
100
AcDbLine
 10
-107.5637017589
 20
78.0071767611
 30
0.0
 11
-107.5637017589
 21
98.0381969052
 31
0.0
  0
LINE
  5
1F6
330
1F3
100
AcDbEntity
  8
一般
  6
Continuous
 62
     7
100
AcDbLine
 10
-107.5637017589
 20
98.0381969052
 30
0.0
 11
-106.5637017589
 21
98.0381969052
 31
0.0
  0
LINE
  5
1F7
330
1F3
100
AcDbEntity
  8
一般
  6
Continuous
 62
     7
100
AcDbLine
 10
-106.5637017589
 20
98.0381969052
 30
0.0
 11
-106.5637017589
 21
78.0071767611
 31
0.0
  0
LINE
  5
1F8
330
1F3
100
AcDbEntity
  8
一般
  6
Continuous
 62
     7
100
AcDbLine
 10
-106.5637017589
 20
78.0071767611
 30
0.0
 11
-107.5637017589
 21
78.0071767611
 31
0.0
  0
ENDBLK
  5
1FA
330
1F3
100
AcDbEntity
  8
0
100
AcDbBlockEnd
  0
BLOCK
  5
207
330
1FD
100
AcDbEntity
  8
0
100
AcDbBlockBegin
  2
SE8
 70
     0
 10
0.0
 20
0.0
 30
0.0
  3
SE8
  1

  0
INSERT
  5
200
330
1FD
100
AcDbEntity
  8
一般
100
AcDbBlockReference
  2
SE9
 10
0.0
 20
0.0
 30
0.0
  0
ENDBLK
  5
208
330
1FD
100
AcDbEntity
  8
0
100
AcDbBlockEnd
  0
BLOCK
  5
205
330
1FF
100
AcDbEntity
  8
0
100
AcDbBlockBegin
  2
SE9
 70
     0
 10
0.0
 20
0.0
 30
0.0
  3
SE9
  1

  0
LINE
  5
201
330
1FF
100
AcDbEntity
  8
一般
  6
Continuous
 62
     7
100
AcDbLine
 10
32.7897443499
 20
43.0260393766
 30
0.0
 11
34.7897443499
 21
43.0260393766
 31
0.0
  0
LINE
  5
202
330
1FF
100
AcDbEntity
  8
一般
  6
Continuous
 62
     7
100
AcDbLine
 10
34.7897443499
 20
43.0260393766
 30
0.0
 11
34.7897443499
 21
33.0260393766
 31
0.0
  0
LINE
  5
203
330
1FF
100
AcDbEntity
  8
一般
  6
Continuous
 62
     7
100
AcDbLine
 10
34.7897443499
 20
33.0260393766
 30
0.0
 11
32.7897443499
 21
33.0260393766
 31
0.0
  0
LINE
  5
204
330
1FF
100
AcDbEntity
  8
一般
  6
Continuous
 62
     7
100
AcDbLine
 10
32.7897443499
 20
33.0260393766
 30
0.0
 11
32.7897443499
 21
43.0260393766
 31
0.0
  0
ENDBLK
  5
206
330
1FF
100
AcDbEntity
  8
0
100
AcDbBlockEnd
  0
BLOCK
  5
21B
330
209
100
AcDbEntity
  8
0
100
AcDbBlockBegin
  2
グループ
 70
     0
 10
0.0
 20
0.0
 30
0.0
  3
グループ
  1

  0
LINE
  5
20A
330
209
100
AcDbEntity
  8
一般
  6
Continuous
 62
     7
100
AcDbLine
 10
0.0
 20
23.0
 30
0.0
 11
10.0
 21
23.0
 31
0.0
  0
LINE
  5
20B
330
209
100
AcDbEntity
  8
一般
  6
Continuous
 62
     7
100
AcDbLine
 10
10.0
 20
23.0
 30
0.0
 11
10.0
 21
0.0
 31
0.0
  0
LINE
  5
20C
330
209
100
AcDbEntity
  8
一般
  6
Continuous
 62
     7
100
AcDbLine
 10
10.0
 20
0.0
 30
0.0
 11
0.0
 21
0.0
 31
0.0
  0
LINE
  5
20D
330
209
100
AcDbEntity
  8
一般
  6
Continuous
 62
     7
100
AcDbLine
 10
0.0
 20
0.0
 30
0.0
 11
0.0
 21
23.0
 31
0.0
  0
HATCH
  5
20E
330
209
100
AcDbEntity
  8
一般
  6
Continuous
 62
     7
100
AcDbHatch
 10
0.0
 20
0.0
 30
0.0
210
0.0
220
0.0
230
1.0
  2
SOLID
 70
     1
 71
     0
 91
        1
 92
        1
 93
        4
 72
     1
 10
0.0
 20
0.0
 11
9.999999999999998
 21
0.0
 72
     1
 10
10.0
 20
0.0
 11
10.0
 21
23.00000000000006
 72
     1
 10
10.0
 20
23.00000000000006
 11
0.0000000000000018
 21
23.00000000000006
 72
     1
 10
0.0
 20
23.00000000000006
 11
0.0
 21
0.0000000000000036
 97
        0
 75
     0
 76
     1
 98
        0
  0
LINE
  5
20F
330
209
100
AcDbEntity
  8
一般
  6
Continuous
 62
     7
100
AcDbLine
 10
0.0
 20
23.0
 30
0.0
 11
10.0
 21
23.0
 31
0.0
  0
LINE
  5
210
330
209
100
AcDbEntity
  8
一般
  6
Continuous
 62
     7
100
AcDbLine
 10
10.0
 20
23.0
 30
0.0
 11
10.0
 21
0.0
 31
0.0
  0
LINE
  5
211
330
209
100
AcDbEntity
  8
一般
  6
Continuous
 62
     7
100
AcDbLine
 10
10.0
 20
0.0
 30
0.0
 11
0.0
 21
0.0
 31
0.0
  0
LINE
  5
212
330
209
100
AcDbEntity
  8
一般
  6
Continuous
 62
     7
100
AcDbLine
 10
0.0
 20
0.0
 30
0.0
 11
0.0
 21
23.0
 31
0.0
  0
LINE
  5
213
330
209
100
AcDbEntity
  8
一般
  6
Continuous
 62
     7
100
AcDbLine
 10
11.0
 20
23.0
 30
0.0
 11
12.0
 21
23.0
 31
0.0
  0
LINE
  5
214
330
209
100
AcDbEntity
  8
一般
  6
Continuous
 62
     7
100
AcDbLine
 10
12.0
 20
23.0
 30
0.0
 11
12.0
 21
0.0
 31
0.0
  0
LINE
  5
215
330
209
100
AcDbEntity
  8
一般
  6
Continuous
 62
     7
100
AcDbLine
 10
12.0
 20
0.0
 30
0.0
 11
11.0
 21
0.0
 31
0.0
  0
LINE
  5
216
330
209
100
AcDbEntity
  8
一般
  6
Continuous
 62
     7
100
AcDbLine
 10
11.0
 20
0.0
 30
0.0
 11
11.0
 21
23.0
 31
0.0
  0
LINE
  5
217
330
209
100
AcDbEntity
  8
一般
  6
Continuous
 62
     7
100
AcDbLine
 10
10.0
 20
21.2307692308
 30
0.0
 11
11.0
 21
21.2307692308
 31
0.0
  0
LINE
  5
218
330
209
100
AcDbEntity
  8
一般
  6
Continuous
 62
     7
100
AcDbLine
 10
11.0
 20
21.2307692308
 30
0.0
 11
11.0
 21
1.7692307692
 31
0.0
  0
LINE
  5
219
330
209
100
AcDbEntity
  8
一般
  6
Continuous
 62
     7
100
AcDbLine
 10
11.0
 20
1.7692307692
 30
0.0
 11
10.0
 21
1.7692307692
 31
0.0
  0
LINE
  5
21A
330
209
100
AcDbEntity
  8
一般
  6
Continuous
 62
     7
100
AcDbLine
 10
10.0
 20
1.7692307692
 30
0.0
 11
10.0
 21
21.2307692308
 31
0.0
  0
ENDBLK
  5
21C
330
209
100
AcDbEntity
  8
0
100
AcDbBlockEnd
  0
BLOCK
  5
223
330
21E
100
AcDbEntity
  8
0
100
AcDbBlockBegin
  2
グループ-1
 70
     0
 10
0.0
 20
0.0
 30
0.0
  3
グループ-1
  1

  0
SPLINE
  5
21F
330
21E
100
AcDbEntity
  8
一般
  6
Continuous
 62
     7
100
AcDbSpline
210
0.0
220
0.0
230
1.0
 70
     8
 71
     2
 72
    11
 73
     8
 74
     0
 42
0.000000001
 43
0.0000000001
 40
0.0
 40
0.0
 40
0.0
 40
0.1666666666666667
 40
0.3333333333333333
 40
0.5
 40
0.6666666666666666
 40
0.8333333333333333
 40
1.0
 40
1.0
 40
1.0
 10
2.621337121588112
 20
4.0
 30
0.0
 10
1.918951956768979
 20
4.0
 30
0.0
 10
0.7023851648193613
 20
3.464101615137736
 30
0.0
 10
0.0
 20
2.535898384862264
 30
0.0
 10
0.0
 20
1.464101615137793
 30
0.0
 10
0.7023851648193613
 20
0.5358983848622643
 30
0.0
 10
1.918951956768979
 20
0.0
 30
0.0
 10
2.621337121588112
 20
0.0
 30
0.0
  0
LINE
  5
220
330
21E
100
AcDbEntity
  8
一般
  6
Continuous
 62
     7
100
AcDbLine
 10
2.6386833912
 20
4.0
 30
0.0
 11
41.958740215
 21
4.0
 31
0.0
  0
LINE
  5
221
330
21E
100
AcDbEntity
  8
一般
  6
Continuous
 62
     7
100
AcDbLine
 10
41.958740215
 20
4.0
 30
0.0
 11
41.958740215
 21
0.0
 31
0.0
  0
LINE
  5
222
330
21E
100
AcDbEntity
  8
一般
  6
Continuous
 62
     7
100
AcDbLine
 10
41.958740215
 20
0.0
 30
0.0
 11
2.6386833912
 21
0.0
 31
0.0
  0
ENDBLK
  5
224
330
21E
100
AcDbEntity
  8
0
100
AcDbBlockEnd
  0
BLOCK
  5
22B
330
226
100
AcDbEntity
  8
0
100
AcDbBlockBegin
  2
グループ-2
 70
     0
 10
0.0
 20
0.0
 30
0.0
  3
グループ-2
  1

  0
SPLINE
  5
227
330
226
100
AcDbEntity
  8
一般
  6
Continuous
 62
     7
100
AcDbSpline
210
0.0
220
0.0
230
1.0
 70
     8
 71
     2
 72
    11
 73
     8
 74
     0
 42
0.000000001
 43
0.0000000001
 40
0.0
 40
0.0
 40
0.0
 40
0.1666666666666667
 40
0.3333333333333333
 40
0.5
 40
0.6666666666666666
 40
0.8333333333333333
 40
1.0
 40
1.0
 40
1.0
 10
2.621337121588112
 20
3.999999999999993
 30
0.0
 10
1.918951956768979
 20
3.999999999999993
 30
0.0
 10
0.7023851648193613
 20
3.464101615137729
 30
0.0
 10
0.0
 20
2.535898384862257
 30
0.0
 10
0.0
 20
1.464101615137729
 30
0.0
 10
0.7023851648193613
 20
0.5358983848622572
 30
0.0
 10
1.918951956768979
 20
0.0
 30
0.0
 10
2.621337121588112
 20
0.0
 30
0.0
  0
LINE
  5
228
330
226
100
AcDbEntity
  8
一般
  6
Continuous
 62
     7
100
AcDbLine
 10
2.6386833912
 20
4.0
 30
0.0
 11
41.958740215
 21
4.0
 31
0.0
  0
LINE
  5
229
330
226
100
AcDbEntity
  8
一般
  6
Continuous
 62
     7
100
AcDbLine
 10
41.958740215
 20
4.0
 30
0.0
 11
41.958740215
 21
0.0
 31
0.0
  0
LINE
  5
22A
330
226
100
AcDbEntity
  8
一般
  6
Continuous
 62
     7
100
AcDbLine
 10
41.958740215
 20
0.0
 30
0.0
 11
2.6386833912
 21
0.0
 31
0.0
  0
ENDBLK
  5
22C
330
226
100
AcDbEntity
  8
0
100
AcDbBlockEnd
  0
BLOCK
  5
233
330
22E
100
AcDbEntity
  8
0
100
AcDbBlockBegin
  2
グループ-3
 70
     0
 10
0.0
 20
0.0
 30
0.0
  3
グループ-3
  1

  0
SPLINE
  5
22F
330
22E
100
AcDbEntity
  8
一般
  6
Continuous
 62
     7
100
AcDbSpline
210
0.0
220
0.0
230
1.0
 70
     8
 71
     2
 72
    11
 73
     8
 74
     0
 42
0.000000001
 43
0.0000000001
 40
0.0
 40
0.0
 40
0.0
 40
0.1666666666666667
 40
0.3333333333333333
 40
0.5
 40
0.6666666666666666
 40
0.8333333333333333
 40
1.0
 40
1.0
 40
1.0
 10
2.621337121588112
 20
4.0
 30
0.0
 10
1.918951956768979
 20
4.0
 30
0.0
 10
0.7023851648193613
 20
3.464101615137735
 30
0.0
 10
0.0
 20
2.535898384862207
 30
0.0
 10
0.0
 20
1.464101615137735
 30
0.0
 10
0.7023851648193613
 20
0.5358983848622074
 30
0.0
 10
1.918951956768979
 20
0.0
 30
0.0
 10
2.621337121588112
 20
0.0
 30
0.0
  0
LINE
  5
230
330
22E
100
AcDbEntity
  8
一般
  6
Continuous
 62
     7
100
AcDbLine
 10
2.6386833912
 20
4.0
 30
0.0
 11
41.958740215
 21
4.0
 31
0.0
  0
LINE
  5
231
330
22E
100
AcDbEntity
  8
一般
  6
Continuous
 62
     7
100
AcDbLine
 10
41.958740215
 20
4.0
 30
0.0
 11
41.958740215
 21
0.0
 31
0.0
  0
LINE
  5
232
330
22E
100
AcDbEntity
  8
一般
  6
Continuous
 62
     7
100
AcDbLine
 10
41.958740215
 20
0.0
 30
0.0
 11
2.6386833912
 21
0.0
 31
0.0
  0
ENDBLK
  5
234
330
22E
100
AcDbEntity
  8
0
100
AcDbBlockEnd
  0
BLOCK
  5
240
330
236
100
AcDbEntity
  8
0
100
AcDbBlockBegin
  2
SE10
 70
     0
 10
0.0
 20
0.0
 30
0.0
  3
SE10
  1

  0
INSERT
  5
239
330
236
100
AcDbEntity
  8
一般
100
AcDbBlockReference
  2
SE11
 10
0.0
 20
0.0
 30
0.0
  0
ENDBLK
  5
241
330
236
100
AcDbEntity
  8
0
100
AcDbBlockEnd
  0
BLOCK
  5
23E
330
238
100
AcDbEntity
  8
0
100
AcDbBlockBegin
  2
SE11
 70
     0
 10
0.0
 20
0.0
 30
0.0
  3
SE11
  1

  0
LINE
  5
23A
330
238
100
AcDbEntity
  8
一般
  6
Continuous
 62
     7
100
AcDbLine
 10
-92.3470172817
 20
-92.7218129183
 30
0.0
 11
-92.3470172817
 21
-137.7218129183
 31
0.0
  0
LINE
  5
23B
330
238
100
AcDbEntity
  8
一般
  6
Continuous
 62
     7
100
AcDbLine
 10
-92.3470172817
 20
-137.7218129183
 30
0.0
 11
-152.3470172817
 21
-137.7218129183
 31
0.0
  0
LINE
  5
23C
330
238
100
AcDbEntity
  8
一般
  6
Continuous
 62
     7
100
AcDbLine
 10
-152.3470172817
 20
-137.7218129183
 30
0.0
 11
-152.3470172817
 21
-92.7218129183
 31
0.0
  0
LINE
  5
23D
330
238
100
AcDbEntity
  8
一般
  6
Continuous
 62
     7
100
AcDbLine
 10
-152.3470172817
 20
-92.7218129183
 30
0.0
 11
-92.3470172817
 21
-92.7218129183
 31
0.0
  0
ENDBLK
  5
23F
330
238
100
AcDbEntity
  8
0
100
AcDbBlockEnd
  0
BLOCK
  5
254
330
242
100
AcDbEntity
  8
0
100
AcDbBlockBegin
  2
グループ-4
 70
     0
 10
0.0
 20
0.0
 30
0.0
  3
グループ-4
  1

  0
LINE
  5
243
330
242
100
AcDbEntity
  8
一般
  6
Continuous
 62
     7
100
AcDbLine
 10
23.0
 20
12.0
 30
0.0
 11
23.0
 21
2.0
 31
0.0
  0
LINE
  5
244
330
242
100
AcDbEntity
  8
一般
  6
Continuous
 62
     7
100
AcDbLine
 10
23.0
 20
2.0
 30
0.0
 11
0.0
 21
2.0
 31
0.0
  0
LINE
  5
245
330
242
100
AcDbEntity
  8
一般
  6
Continuous
 62
     7
100
AcDbLine
 10
0.0
 20
2.0
 30
0.0
 11
0.0
 21
12.0
 31
0.0
  0
LINE
  5
246
330
242
100
AcDbEntity
  8
一般
  6
Continuous
 62
     7
100
AcDbLine
 10
0.0
 20
12.0
 30
0.0
 11
23.0
 21
12.0
 31
0.0
  0
HATCH
  5
247
330
242
100
AcDbEntity
  8
一般
  6
Continuous
 62
     7
100
AcDbHatch
 10
0.0
 20
0.0
 30
0.0
210
0.0
220
0.0
230
1.0
  2
SOLID
 70
     1
 71
     0
 91
        1
 92
        1
 93
        4
 72
     1
 10
0.0
 20
11.99999999999994
 11
0.0
 21
1.999999999999948
 72
     1
 10
0.0
 20
1.999999999999943
 11
22.99999999999999
 21
1.999999999999943
 72
     1
 10
23.0
 20
1.999999999999943
 11
23.0
 21
11.99999999999994
 72
     1
 10
23.0
 20
11.99999999999994
 11
0.0000000000000071
 21
11.99999999999994
 97
        0
 75
     0
 76
     1
 98
        0
  0
LINE
  5
248
330
242
100
AcDbEntity
  8
一般
  6
Continuous
 62
     7
100
AcDbLine
 10
23.0
 20
12.0
 30
0.0
 11
23.0
 21
2.0
 31
0.0
  0
LINE
  5
249
330
242
100
AcDbEntity
  8
一般
  6
Continuous
 62
     7
100
AcDbLine
 10
23.0
 20
2.0
 30
0.0
 11
0.0
 21
2.0
 31
0.0
  0
LINE
  5
24A
330
242
100
AcDbEntity
  8
一般
  6
Continuous
 62
     7
100
AcDbLine
 10
0.0
 20
2.0
 30
0.0
 11
0.0
 21
12.0
 31
0.0
  0
LINE
  5
24B
330
242
100
AcDbEntity
  8
一般
  6
Continuous
 62
     7
100
AcDbLine
 10
0.0
 20
12.0
 30
0.0
 11
23.0
 21
12.0
 31
0.0
  0
LINE
  5
24C
330
242
100
AcDbEntity
  8
一般
  6
Continuous
 62
     7
100
AcDbLine
 10
23.0
 20
1.0
 30
0.0
 11
23.0
 21
0.0
 31
0.0
  0
LINE
  5
24D
330
242
100
AcDbEntity
  8
一般
  6
Continuous
 62
     7
100
AcDbLine
 10
23.0
 20
0.0
 30
0.0
 11
0.0
 21
0.0
 31
0.0
  0
LINE
  5
24E
330
242
100
AcDbEntity
  8
一般
  6
Continuous
 62
     7
100
AcDbLine
 10
0.0
 20
0.0
 30
0.0
 11
0.0
 21
1.0
 31
0.0
  0
LINE
  5
24F
330
242
100
AcDbEntity
  8
一般
  6
Continuous
 62
     7
100
AcDbLine
 10
0.0
 20
1.0
 30
0.0
 11
23.0
 21
1.0
 31
0.0
  0
LINE
  5
250
330
242
100
AcDbEntity
  8
一般
  6
Continuous
 62
     7
100
AcDbLine
 10
21.2307692308
 20
2.0
 30
0.0
 11
21.2307692308
 21
1.0
 31
0.0
  0
LINE
  5
251
330
242
100
AcDbEntity
  8
一般
  6
Continuous
 62
     7
100
AcDbLine
 10
21.2307692308
 20
1.0
 30
0.0
 11
1.7692307692
 21
1.0
 31
0.0
  0
LINE
  5
252
330
242
100
AcDbEntity
  8
一般
  6
Continuous
 62
     7
100
AcDbLine
 10
1.7692307692
 20
1.0
 30
0.0
 11
1.7692307692
 21
2.0
 31
0.0
  0
LINE
  5
253
330
242
100
AcDbEntity
  8
一般
  6
Continuous
 62
     7
100
AcDbLine
 10
1.7692307692
 20
2.0
 30
0.0
 11
21.2307692308
 21
2.0
 31
0.0
  0
ENDBLK
  5
255
330
242
100
AcDbEntity
  8
0
100
AcDbBlockEnd
  0
BLOCK
  5
25C
330
256
100
AcDbEntity
  8
0
100
AcDbBlockBegin
  2
グループ-5
 70
     0
 10
0.0
 20
0.0
 30
0.0
  3
グループ-5
  1

  0
LINE
  5
257
330
256
100
AcDbEntity
  8
一般
  6
Continuous
 62
     7
100
AcDbLine
 10
20.3461538462
 20
2.0
 30
0.0
 11
20.3461538462
 21
0.0
 31
0.0
  0
LINE
  5
258
330
256
100
AcDbEntity
  8
一般
  6
Continuous
 62
     7
100
AcDbLine
 10
20.3461538462
 20
0.0
 30
0.0
 11
2.6538461538
 21
0.0
 31
0.0
  0
LINE
  5
259
330
256
100
AcDbEntity
  8
一般
  6
Continuous
 62
     7
100
AcDbLine
 10
2.6538461538
 20
0.0
 30
0.0
 11
2.6538461538
 21
2.0
 31
0.0
  0
LINE
  5
25A
330
256
100
AcDbEntity
  8
一般
  6
Continuous
 62
     7
100
AcDbLine
 10
2.6538461538
 20
2.0
 30
0.0
 11
20.3461538462
 21
2.0
 31
0.0
  0
INSERT
  5
25B
330
256
100
AcDbEntity
  8
一般
 62
     7
100
AcDbBlockReference
  2
グループ-4
 10
0.0
 20
2.0
 30
0.0
  0
ENDBLK
  5
25D
330
256
100
AcDbEntity
  8
0
100
AcDbBlockEnd
  0
BLOCK
  5
269
330
25F
100
AcDbEntity
  8
0
100
AcDbBlockBegin
  2
SE12
 70
     0
 10
0.0
 20
0.0
 30
0.0
  3
SE12
  1

  0
INSERT
  5
262
330
25F
100
AcDbEntity
  8
一般
100
AcDbBlockReference
  2
SE13
 10
0.0
 20
0.0
 30
0.0
  0
ENDBLK
  5
26A
330
25F
100
AcDbEntity
  8
0
100
AcDbBlockEnd
  0
BLOCK
  5
267
330
261
100
AcDbEntity
  8
0
100
AcDbBlockBegin
  2
SE13
 70
     0
 10
0.0
 20
0.0
 30
0.0
  3
SE13
  1

  0
LINE
  5
263
330
261
100
AcDbEntity
  8
一般
  6
Continuous
 62
     7
100
AcDbLine
 10
-113.2896360408
 20
-116.240356111
 30
0.0
 11
-100.2896360408
 21
-116.240356111
 31
0.0
  0
LINE
  5
264
330
261
100
AcDbEntity
  8
一般
  6
Continuous
 62
     7
100
AcDbLine
 10
-100.2896360408
 20
-116.240356111
 30
0.0
 11
-100.2896360408
 21
-117.7434689541
 31
0.0
  0
LINE
  5
265
330
261
100
AcDbEntity
  8
一般
  6
Continuous
 62
     7
100
AcDbLine
 10
-100.2896360408
 20
-117.7434689541
 30
0.0
 11
-113.2896360408
 21
-117.7434689541
 31
0.0
  0
LINE
  5
266
330
261
100
AcDbEntity
  8
一般
  6
Continuous
 62
     7
100
AcDbLine
 10
-113.2896360408
 20
-117.7434689541
 30
0.0
 11
-113.2896360408
 21
-116.240356111
 31
0.0
  0
ENDBLK
  5
268
330
261
100
AcDbEntity
  8
0
100
AcDbBlockEnd
  0
BLOCK
  5
26E
330
26D
100
AcDbEntity
  8
0
100
AcDbBlockBegin
  2
_Oblique
 70
     0
 10
0.0
 20
0.0
 30
0.0
  3
_Oblique
  1

  0
LINE
  5
270
330
26D
100
AcDbEntity
  8
0
  6
ByBlock
 62
     0
370
    -2
100
AcDbLine
 10
-0.5
 20
-0.5
 30
0.0
 11
0.5
 21
0.5
 31
0.0
  0
ENDBLK
  5
26F
330
26D
100
AcDbEntity
  8
0
100
AcDbBlockEnd
  0
BLOCK
  5
272
330
271
100
AcDbEntity
  8
0
100
AcDbBlockBegin
  2
_Dot
 70
     0
 10
0.0
 20
0.0
 30
0.0
  3
_Dot
  1

  0
LWPOLYLINE
  5
274
330
271
100
AcDbEntity
  8
0
  6
ByBlock
 62
     0
100
AcDbPolyline
 90
        2
 70
     1
 43
0.5
 10
-0.25
 20
0.0
 42
1.0
 10
0.25
 20
0.0
 42
1.0
  0
LINE
  5
275
330
271
100
AcDbEntity
  8
0
  6
ByBlock
 62
     0
370
    -2
100
AcDbLine
 10
-0.5
 20
0.0
 30
0.0
 11
-1.0
 21
0.0
 31
0.0
  0
ENDBLK
  5
273
330
271
100
AcDbEntity
  8
0
100
AcDbBlockEnd
  0
BLOCK
  5
279
330
276
100
AcDbEntity
  8
0
100
AcDbBlockBegin
  2
_SE_FILLED
 70
     0
 10
0.0
 20
0.0
 30
0.0
  3
_SE_FILLED
  1

  0
SOLID
  5
277
330
276
100
AcDbEntity
  8
0
 62
     0
100
AcDbTrace
 10
0.0
 20
0.0
 30
0.0
 11
-1.0
 21
-0.1665
 31
0.0
 12
-1.0
 22
0.1665
 32
0.0
 13
0.0
 23
0.0
 33
0.0
  0
LINE
  5
278
330
276
100
AcDbEntity
  8
0
 62
     0
100
AcDbLine
 10
0.0
 20
0.0
 30
0.0
 11
-1.0
 21
0.0
 31
0.0
  0
ENDBLK
  5
27A
330
276
100
AcDbEntity
  8
0
100
AcDbBlockEnd
  0
BLOCK
  5
285
330
27E
100
AcDbEntity
  8
0
100
AcDbBlockBegin
  2
DMBLK26
 70
     0
 10
0.0
 20
0.0
 30
0.0
  3
DMBLK26
  1

  0
HATCH
  5
27F
330
27E
100
AcDbEntity
  8
寸法
  6
Continuous
 62
     7
100
AcDbHatch
 10
0.0
 20
0.0
 30
0.0
210
0.0
220
0.0
230
1.0
  2
SOLID
 70
     1
 71
     0
 91
        1
 92
        1
 93
        3
 72
     1
 10
-188.2198790227994
 20
-37.79896066181414
 11
-187.6907123625278
 21
-40.97396062344365
 72
     1
 10
-187.6907123625278
 20
-40.97396062344365
 11
-187.1615457022563
 21
-37.79896066181414
 72
     1
 10
-187.1615457022563
 20
-37.79896066181414
 11
-188.2198790227994
 21
-37.79896066181414
 97
        0
 75
     0
 76
     1
 98
        0
  0
HATCH
  5
280
330
27E
100
AcDbEntity
  8
寸法
  6
Continuous
 62
     7
100
AcDbHatch
 10
0.0
 20
0.0
 30
0.0
210
0.0
220
0.0
230
1.0
  2
SOLID
 70
     1
 71
     0
 91
        1
 92
        1
 93
        3
 72
     1
 10
-188.2198790227994
 20
74.8510421567405
 11
-187.1615457022563
 21
74.8510421567405
 72
     1
 10
-187.1615457022563
 20
74.8510421567405
 11
-187.6907123625278
 21
78.02604211837001
 72
     1
 10
-187.6907123625278
 20
78.02604211837001
 11
-188.2198790227994
 21
74.8510421567405
 97
        0
 75
     0
 76
     1
 98
        0
  0
LINE
  5
281
330
27E
100
AcDbEntity
  8
寸法
  6
Continuous
 62
     7
100
AcDbLine
 10
-161.6288411571
 20
-40.9739606234
 30
0.0
 11
-189.3195535196
 21
-40.9739606234
 31
0.0
  0
LINE
  5
282
330
27E
100
AcDbEntity
  8
寸法
  6
Continuous
 62
     7
100
AcDbLine
 10
-160.4767688728
 20
78.0260393766
 30
0.0
 11
-189.3195535196
 21
78.0260393766
 31
0.0
  0
LINE
  5
283
330
27E
100
AcDbEntity
  8
寸法
  6
Continuous
 62
     7
100
AcDbLine
 10
-187.6907123625
 20
-40.9739606234
 30
0.0
 11
-187.6907123625
 21
78.0260421184
 31
0.0
  0
TEXT
  5
284
330
27E
100
AcDbEntity
  8
寸法
  6
Continuous
 62
     7
100
AcDbText
 10
-188.5051329354
 20
14.7018050138
 30
0.0
 40
3.2576822917
  1
119
 50
90.0
  7
SEACAD_Arial
 11
-191.7628152271
 21
14.7018050138
 31
0.0
100
AcDbText
 73
     3
  0
ENDBLK
  5
286
330
27E
100
AcDbEntity
  8
0
100
AcDbBlockEnd
  0
BLOCK
  5
28F
330
288
100
AcDbEntity
  8
0
100
AcDbBlockBegin
  2
DMBLK27
 70
     0
 10
0.0
 20
0.0
 30
0.0
  3
DMBLK27
  1

  0
HATCH
  5
289
330
288
100
AcDbEntity
  8
寸法
  6
Continuous
 62
     7
100
AcDbHatch
 10
0.0
 20
0.0
 30
0.0
210
0.0
220
0.0
230
1.0
  2
SOLID
 70
     1
 71
     0
 91
        1
 92
        1
 93
        3
 72
     1
 10
184.5291669284925
 20
-31.62275883988793
 11
183.4708336079493
 21
-31.62275883988793
 72
     1
 10
183.4708336079493
 20
-31.62275883988793
 11
184.0000002682209
 21
-34.79775880151743
 72
     1
 10
184.0000002682209
 20
-34.79775880151743
 11
184.5291669284925
 21
-31.62275883988792
 97
        0
 75
     0
 76
     1
 98
        0
  0
HATCH
  5
28A
330
288
100
AcDbEntity
  8
寸法
  6
Continuous
 62
     7
100
AcDbHatch
 10
0.0
 20
0.0
 30
0.0
210
0.0
220
0.0
230
1.0
  2
SOLID
 70
     1
 71
     0
 91
        1
 92
        1
 93
        3
 72
     1
 10
184.5291669284925
 20
60.03469670503085
 11
184.0000002682209
 21
63.20969666666036
 72
     1
 10
184.0000002682209
 20
63.20969666666036
 11
183.4708336079493
 21
60.03469670503085
 72
     1
 10
183.4708336079493
 20
60.03469670503085
 11
184.5291669284925
 21
60.03469670503085
 97
        0
 75
     0
 76
     1
 98
        0
  0
LINE
  5
28B
330
288
100
AcDbEntity
  8
寸法
  6
Continuous
 62
     7
100
AcDbLine
 10
172.6288411571
 20
-34.7977588015
 30
0.0
 11
185.6288414253
 21
-34.7977588015
 31
0.0
  0
LINE
  5
28C
330
288
100
AcDbEntity
  8
寸法
  6
Continuous
 62
     7
100
AcDbLine
 10
172.6288411571
 20
63.2096964255
 30
0.0
 11
185.6288414253
 21
63.2096964255
 31
0.0
  0
LINE
  5
28D
330
288
100
AcDbEntity
  8
寸法
  6
Continuous
 62
     7
100
AcDbLine
 10
184.0000002682
 20
-34.7977588015
 30
0.0
 11
184.0000002682
 21
63.2096966667
 31
0.0
  0
TEXT
  5
28E
330
288
100
AcDbEntity
  8
寸法
  6
Continuous
 62
     7
100
AcDbText
 10
183.1855796953
 20
11.6564784434
 30
0.0
 40
3.2576822917
  1
98
 50
90.0
  7
SEACAD_Arial
 11
179.9278974036
 21
11.6564784434
 31
0.0
100
AcDbText
 73
     3
  0
ENDBLK
  5
290
330
288
100
AcDbEntity
  8
0
100
AcDbBlockEnd
  0
BLOCK
  5
299
330
292
100
AcDbEntity
  8
0
100
AcDbBlockBegin
  2
DMBLK28
 70
     0
 10
0.0
 20
0.0
 30
0.0
  3
DMBLK28
  1

  0
HATCH
  5
293
330
292
100
AcDbEntity
  8
寸法
  6
Continuous
 62
     7
100
AcDbHatch
 10
0.0
 20
0.0
 30
0.0
210
0.0
220
0.0
230
1.0
  2
SOLID
 70
     1
 71
     0
 91
        1
 92
        1
 93
        3
 72
     1
 10
30.49233513769332
 20
-59.68299178398355
 11
33.66733509932283
 21
-59.15382512371196
 72
     1
 10
33.66733509932283
 20
-59.15382512371196
 11
30.49233513769332
 21
-58.62465846344038
 72
     1
 10
30.49233513769332
 20
-58.62465846344038
 11
30.49233513769332
 21
-59.68299178398355
 97
        0
 75
     0
 76
     1
 98
        0
  0
HATCH
  5
294
330
292
100
AcDbEntity
  8
寸法
  6
Continuous
 62
     7
100
AcDbHatch
 10
0.0
 20
0.0
 30
0.0
210
0.0
220
0.0
230
1.0
  2
SOLID
 70
     1
 71
     0
 91
        1
 92
        1
 93
        3
 72
     1
 10
45.85320080442876
 20
-59.68299178398355
 11
45.85320080442876
 21
-58.62465846344038
 72
     1
 10
45.85320080442876
 20
-58.62465846344038
 11
42.67820084279925
 21
-59.15382512371196
 72
     1
 10
42.67820084279925
 20
-59.15382512371196
 11
45.85320080442876
 21
-59.68299178398355
 97
        0
 75
     0
 76
     1
 98
        0
  0
LINE
  5
295
330
292
100
AcDbEntity
  8
寸法
  6
Continuous
 62
     7
100
AcDbLine
 10
33.6673350993
 20
-44.2934529482
 30
0.0
 11
33.6673350993
 21
-60.7826662808
 31
0.0
  0
LINE
  5
296
330
292
100
AcDbEntity
  8
寸法
  6
Continuous
 62
     7
100
AcDbLine
 10
42.6782008428
 20
-46.2934529482
 30
0.0
 11
42.6782008428
 21
-60.7826662808
 31
0.0
  0
LINE
  5
297
330
292
100
AcDbEntity
  8
寸法
  6
Continuous
 62
     7
100
AcDbLine
 10
27.3173351761
 20
-59.1538251237
 30
0.0
 11
49.0282008413
 21
-59.1538251237
 31
0.0
  0
TEXT
  5
298
330
292
100
AcDbEntity
  8
寸法
  6
Continuous
 62
     7
100
AcDbText
 10
36.8980225313
 20
-58.3394045508
 30
0.0
 40
3.2576822917
  1
9
  7
SEACAD_Arial
 11
36.8980225313
 21
-55.0817222591
 31
0.0
100
AcDbText
 73
     3
  0
ENDBLK
  5
29A
330
292
100
AcDbEntity
  8
0
100
AcDbBlockEnd
  0
BLOCK
  5
2A3
330
29C
100
AcDbEntity
  8
0
100
AcDbBlockBegin
  2
DMBLK29
 70
     0
 10
0.0
 20
0.0
 30
0.0
  3
DMBLK29
  1

  0
HATCH
  5
29D
330
29C
100
AcDbEntity
  8
寸法
  6
Continuous
 62
     7
100
AcDbHatch
 10
0.0
 20
0.0
 30
0.0
210
0.0
220
0.0
230
1.0
  2
SOLID
 70
     1
 71
     0
 91
        1
 92
        1
 93
        3
 72
     1
 10
-85.17201732004878
 20
103.3753428971395
 11
-88.34701728167829
 21
102.8461762368679
 72
     1
 10
-88.34701728167829
 20
102.8461762368679
 11
-85.17201732004878
 21
102.3170095765963
 72
     1
 10
-85.17201732004878
 20
102.3170095765963
 11
-85.17201732004878
 21
103.3753428971395
 97
        0
 75
     0
 76
     1
 98
        0
  0
HATCH
  5
29E
330
29C
100
AcDbEntity
  8
寸法
  6
Continuous
 62
     7
100
AcDbHatch
 10
0.0
 20
0.0
 30
0.0
210
0.0
220
0.0
230
1.0
  2
SOLID
 70
     1
 71
     0
 91
        1
 92
        1
 93
        3
 72
     1
 10
-160.5220172433075
 20
103.3753428971395
 11
-160.5220172433075
 21
102.3170095765963
 72
     1
 10
-160.5220172433075
 20
102.3170095765963
 11
-157.347017281678
 21
102.8461762368679
 72
     1
 10
-157.347017281678
 20
102.8461762368679
 11
-160.5220172433075
 21
103.3753428971395
 97
        0
 75
     0
 76
     1
 98
        0
  0
LINE
  5
29F
330
29C
100
AcDbEntity
  8
寸法
  6
Continuous
 62
     7
100
AcDbLine
 10
-88.3470172817
 20
87.6288411571
 30
0.0
 11
-88.3470172817
 21
104.4750173939
 31
0.0
  0
LINE
  5
2A0
330
29C
100
AcDbEntity
  8
寸法
  6
Continuous
 62
     7
100
AcDbLine
 10
-157.3470172817
 20
87.6288411571
 30
0.0
 11
-157.3470172817
 21
104.4750173939
 31
0.0
  0
LINE
  5
2A1
330
29C
100
AcDbEntity
  8
寸法
  6
Continuous
 62
     7
100
AcDbLine
 10
-81.9970173584
 20
102.8461762369
 30
0.0
 11
-163.697018736
 21
102.8461762369
 31
0.0
  0
TEXT
  5
2A2
330
29C
100
AcDbEntity
  8
寸法
  6
Continuous
 62
     7
100
AcDbText
 10
-125.3965069065
 20
103.6605968098
 30
0.0
 40
3.2576822917
  1
69
  7
SEACAD_Arial
 11
-125.3965069065
 21
106.9182791015
 31
0.0
100
AcDbText
 73
     3
  0
ENDBLK
  5
2A4
330
29C
100
AcDbEntity
  8
0
100
AcDbBlockEnd
  0
BLOCK
  5
2AF
330
2A5
100
AcDbEntity
  8
0
100
AcDbBlockBegin
  2
SE14
 70
     0
 10
0.0
 20
0.0
 30
0.0
  3
SE14
  1

  0
INSERT
  5
2A8
330
2A5
100
AcDbEntity
  8
一般
100
AcDbBlockReference
  2
SE15
 10
0.0
 20
0.0
 30
0.0
  0
ENDBLK
  5
2B0
330
2A5
100
AcDbEntity
  8
0
100
AcDbBlockEnd
  0
BLOCK
  5
2AD
330
2A7
100
AcDbEntity
  8
0
100
AcDbBlockBegin
  2
SE15
 70
     0
 10
0.0
 20
0.0
 30
0.0
  3
SE15
  1

  0
LINE
  5
2A9
330
2A7
100
AcDbEntity
  8
一般
  6
Continuous
 62
     7
100
AcDbLine
 10
-144.9200618411
 20
66.0
 30
0.0
 11
-101.9200618411
 21
66.0
 31
0.0
  0
LINE
  5
2AA
330
2A7
100
AcDbEntity
  8
一般
  6
Continuous
 62
     7
100
AcDbLine
 10
-101.9200618411
 20
66.0
 30
0.0
 11
-101.9200618411
 21
-27.0
 31
0.0
  0
LINE
  5
2AB
330
2A7
100
AcDbEntity
  8
一般
  6
Continuous
 62
     7
100
AcDbLine
 10
-101.9200618411
 20
-27.0
 30
0.0
 11
-144.9200618411
 21
-27.0
 31
0.0
  0
LINE
  5
2AC
330
2A7
100
AcDbEntity
  8
一般
  6
Continuous
 62
     7
100
AcDbLine
 10
-144.9200618411
 20
-27.0
 30
0.0
 11
-144.9200618411
 21
66.0
 31
0.0
  0
ENDBLK
  5
2AE
330
2A7
100
AcDbEntity
  8
0
100
AcDbBlockEnd
  0
BLOCK
  5
2B4
330
2B1
100
AcDbEntity
  8
0
100
AcDbBlockBegin
  2
グループ-6
 70
     0
 10
0.0
 20
0.0
 30
0.0
  3
グループ-6
  1

  0
CIRCLE
  5
2B2
330
2B1
100
AcDbEntity
  8
一般
  6
Continuous
 62
     7
100
AcDbCircle
 10
12.25
 20
12.25
 30
0.0
 40
12.24999999999997
  0
CIRCLE
  5
2B3
330
2B1
100
AcDbEntity
  8
一般
  6
Continuous
 62
     7
100
AcDbCircle
 10
12.25
 20
12.25
 30
0.0
 40
11.49999999999997
  0
ENDBLK
  5
2B5
330
2B1
100
AcDbEntity
  8
0
100
AcDbBlockEnd
  0
BLOCK
  5
2BF
330
2B8
100
AcDbEntity
  8
0
100
AcDbBlockBegin
  2
DMBLK30
 70
     0
 10
0.0
 20
0.0
 30
0.0
  3
DMBLK30
  1

  0
HATCH
  5
2B9
330
2B8
100
AcDbEntity
  8
寸法
  6
Continuous
 62
     7
100
AcDbHatch
 10
0.0
 20
0.0
 30
0.0
210
0.0
220
0.0
230
1.0
  2
SOLID
 70
     1
 71
     0
 91
        1
 92
        1
 93
        3
 72
     1
 10
-174.2198785906658
 20
38.35103941492684
 11
-173.1615452701226
 21
38.35103941492684
 72
     1
 10
-173.1615452701226
 20
38.35103941492684
 11
-173.6907119303942
 21
41.52603937655635
 72
     1
 10
-173.6907119303942
 20
41.52603937655635
 11
-174.2198785906658
 21
38.35103941492684
 97
        0
 75
     0
 76
     1
 98
        0
  0
HATCH
  5
2BA
330
2B8
100
AcDbEntity
  8
寸法
  6
Continuous
 62
     7
100
AcDbHatch
 10
0.0
 20
0.0
 30
0.0
210
0.0
220
0.0
230
1.0
  2
SOLID
 70
     1
 71
     0
 91
        1
 92
        1
 93
        3
 72
     1
 10
-174.2198785906658
 20
81.20103933818592
 11
-173.6907119303942
 21
78.02603937655641
 72
     1
 10
-173.6907119303942
 20
78.02603937655641
 11
-173.1615452701226
 21
81.20103933818592
 72
     1
 10
-173.1615452701226
 20
81.20103933818592
 11
-174.2198785906658
 21
81.20103933818592
 97
        0
 75
     0
 76
     1
 98
        0
  0
LINE
  5
2BB
330
2B8
100
AcDbEntity
  8
寸法
  6
Continuous
 62
     7
100
AcDbLine
 10
-161.6288411571
 20
41.5260393766
 30
0.0
 11
-175.3195530875
 21
41.5260393766
 31
0.0
  0
LINE
  5
2BC
330
2B8
100
AcDbEntity
  8
寸法
  6
Continuous
 62
     7
100
AcDbLine
 10
-160.4767688728
 20
78.0260393766
 30
0.0
 11
-175.3195530875
 21
78.0260393766
 31
0.0
  0
LINE
  5
2BD
330
2B8
100
AcDbEntity
  8
寸法
  6
Continuous
 62
     7
100
AcDbLine
 10
-173.6907119304
 20
35.1760394533
 30
0.0
 11
-173.6907119304
 21
84.3760382977
 31
0.0
  0
TEXT
  5
2BE
330
2B8
100
AcDbEntity
  8
寸法
  6
Continuous
 62
     7
100
AcDbText
 10
-174.5051325033
 20
55.3144307524
 30
0.0
 40
3.2576822917
  1
36.5
 50
90.0
  7
SEACAD_Arial
 11
-177.762814795
 21
55.3144307524
 31
0.0
100
AcDbText
 73
     3
  0
ENDBLK
  5
2C0
330
2B8
100
AcDbEntity
  8
0
100
AcDbBlockEnd
  0
BLOCK
  5
2C4
330
2C1
100
AcDbEntity
  8
0
100
AcDbBlockBegin
  2
グループ-7
 70
     0
 10
0.0
 20
0.0
 30
0.0
  3
グループ-7
  1

  0
CIRCLE
  5
2C2
330
2C1
100
AcDbEntity
  8
一般
  6
Continuous
 62
     7
100
AcDbCircle
 10
2.0
 20
3.0
 30
0.0
 40
1.999999999999971
  0
LINE
  5
2C3
330
2C1
100
AcDbEntity
  8
一般
  6
Continuous
 62
     7
100
AcDbLine
 10
0.238241245
 20
0.0
 30
0.0
 11
3.7741396299
 21
6.124355653
 31
0.0
  0
ENDBLK
  5
2C5
330
2C1
100
AcDbEntity
  8
0
100
AcDbBlockEnd
  0
BLOCK
  5
2D0
330
2C7
100
AcDbEntity
  8
0
100
AcDbBlockBegin
  2
グループ-8
 70
     0
 10
0.0
 20
0.0
 30
0.0
  3
グループ-8
  1

  0
LINE
  5
2C8
330
2C7
100
AcDbEntity
  8
一般
  6
Continuous
 62
     7
100
AcDbLine
 10
0.0
 20
119.0
 30
0.0
 11
7.0
 21
119.0
 31
0.0
  0
LINE
  5
2C9
330
2C7
100
AcDbEntity
  8
一般
  6
Continuous
 62
     7
100
AcDbLine
 10
7.0
 20
119.0
 30
0.0
 11
7.0
 21
0.0
 31
0.0
  0
LINE
  5
2CA
330
2C7
100
AcDbEntity
  8
一般
  6
Continuous
 62
     7
100
AcDbLine
 10
7.0
 20
0.0
 30
0.0
 11
0.0
 21
0.0
 31
0.0
  0
LINE
  5
2CB
330
2C7
100
AcDbEntity
  8
一般
  6
Continuous
 62
     7
100
AcDbLine
 10
0.0
 20
0.0
 30
0.0
 11
0.0
 21
119.0
 31
0.0
  0
LINE
  5
2CC
330
2C7
100
AcDbEntity
  8
一般
  6
Continuous
 62
     7
100
AcDbLine
 10
7.1542825614
 20
119.0
 30
0.0
 11
9.1542825614
 21
119.0
 31
0.0
  0
LINE
  5
2CD
330
2C7
100
AcDbEntity
  8
一般
  6
Continuous
 62
     7
100
AcDbLine
 10
9.1542825614
 20
119.0
 30
0.0
 11
9.1542825614
 21
0.0
 31
0.0
  0
LINE
  5
2CE
330
2C7
100
AcDbEntity
  8
一般
  6
Continuous
 62
     7
100
AcDbLine
 10
9.1542825614
 20
0.0
 30
0.0
 11
7.1542825614
 21
0.0
 31
0.0
  0
LINE
  5
2CF
330
2C7
100
AcDbEntity
  8
一般
  6
Continuous
 62
     7
100
AcDbLine
 10
7.1542825614
 20
0.0
 30
0.0
 11
7.1542825614
 21
119.0
 31
0.0
  0
ENDBLK
  5
2D1
330
2C7
100
AcDbEntity
  8
0
100
AcDbBlockEnd
  0
BLOCK
  5
2DD
330
2D3
100
AcDbEntity
  8
0
100
AcDbBlockBegin
  2
SE16
 70
     0
 10
0.0
 20
0.0
 30
0.0
  3
SE16
  1

  0
INSERT
  5
2D6
330
2D3
100
AcDbEntity
  8
一般
100
AcDbBlockReference
  2
SE17
 10
0.0
 20
0.0
 30
0.0
  0
ENDBLK
  5
2DE
330
2D3
100
AcDbEntity
  8
0
100
AcDbBlockEnd
  0
BLOCK
  5
2DB
330
2D5
100
AcDbEntity
  8
0
100
AcDbBlockBegin
  2
SE17
 70
     0
 10
0.0
 20
0.0
 30
0.0
  3
SE17
  1

  0
LINE
  5
2D7
330
2D5
100
AcDbEntity
  8
一般
  6
Continuous
 62
     7
100
AcDbLine
 10
32.7296501031
 20
-0.9909195997
 30
0.0
 11
33.2296501031
 21
-0.9909195997
 31
0.0
  0
LINE
  5
2D8
330
2D5
100
AcDbEntity
  8
一般
  6
Continuous
 62
     7
100
AcDbLine
 10
33.2296501031
 20
-0.9909195997
 30
0.0
 11
33.2296501031
 21
-10.9909195997
 31
0.0
  0
LINE
  5
2D9
330
2D5
100
AcDbEntity
  8
一般
  6
Continuous
 62
     7
100
AcDbLine
 10
33.2296501031
 20
-10.9909195997
 30
0.0
 11
32.7296501031
 21
-10.9909195997
 31
0.0
  0
LINE
  5
2DA
330
2D5
100
AcDbEntity
  8
一般
  6
Continuous
 62
     7
100
AcDbLine
 10
32.7296501031
 20
-10.9909195997
 30
0.0
 11
32.7296501031
 21
-0.9909195997
 31
0.0
  0
ENDBLK
  5
2DC
330
2D5
100
AcDbEntity
  8
0
100
AcDbBlockEnd
  0
BLOCK
  5
2E7
330
2E0
100
AcDbEntity
  8
0
100
AcDbBlockBegin
  2
DMBLK31
 70
     0
 10
0.0
 20
0.0
 30
0.0
  3
DMBLK31
  1

  0
HATCH
  5
2E1
330
2E0
100
AcDbEntity
  8
寸法
  6
Continuous
 62
     7
100
AcDbHatch
 10
0.0
 20
0.0
 30
0.0
210
0.0
220
0.0
230
1.0
  2
SOLID
 70
     1
 71
     0
 91
        1
 92
        1
 93
        3
 72
     1
 10
90.85320080442875
 20
-59.68299057241529
 11
90.85320080442875
 21
-58.62465725187212
 72
     1
 10
90.85320080442875
 20
-58.62465725187212
 11
87.67820084279924
 21
-59.15382391214371
 72
     1
 10
87.67820084279924
 20
-59.15382391214371
 11
90.85320080442875
 21
-59.68299057241529
 97
        0
 75
     0
 76
     1
 98
        0
  0
HATCH
  5
2E2
330
2E0
100
AcDbEntity
  8
寸法
  6
Continuous
 62
     7
100
AcDbHatch
 10
0.0
 20
0.0
 30
0.0
210
0.0
220
0.0
230
1.0
  2
SOLID
 70
     1
 71
     0
 91
        1
 92
        1
 93
        3
 72
     1
 10
39.50320088116974
 20
-59.68299057241529
 11
42.67820084279925
 21
-59.15382391214371
 72
     1
 10
42.67820084279925
 20
-59.15382391214371
 11
39.50320088116974
 21
-58.62465725187212
 72
     1
 10
39.50320088116974
 20
-58.62465725187212
 11
39.50320088116974
 21
-59.68299057241529
 97
        0
 75
     0
 76
     1
 98
        0
  0
LINE
  5
2E3
330
2E0
100
AcDbEntity
  8
寸法
  6
Continuous
 62
     7
100
AcDbLine
 10
87.6782008428
 20
-42.6288411571
 30
0.0
 11
87.6782008428
 21
-60.7826650692
 31
0.0
  0
LINE
  5
2E4
330
2E0
100
AcDbEntity
  8
寸法
  6
Continuous
 62
     7
100
AcDbLine
 10
42.6782008428
 20
-45.2934529482
 30
0.0
 11
42.6782008428
 21
-60.7826650692
 31
0.0
  0
LINE
  5
2E5
330
2E0
100
AcDbEntity
  8
寸法
  6
Continuous
 62
     7
100
AcDbLine
 10
94.0282007661
 20
-59.1538239121
 30
0.0
 11
36.3281995971
 21
-59.1538239121
 31
0.0
  0
TEXT
  5
2E6
330
2E0
100
AcDbEntity
  8
寸法
  6
Continuous
 62
     7
100
AcDbText
 10
62.6287094596
 20
-58.3394033392
 30
0.0
 40
3.2576822917
  1
45
  7
SEACAD_Arial
 11
62.6287094596
 21
-55.0817210476
 31
0.0
100
AcDbText
 73
     3
  0
ENDBLK
  5
2E8
330
2E0
100
AcDbEntity
  8
0
100
AcDbBlockEnd
  0
BLOCK
  5
2F2
330
2E9
100
AcDbEntity
  8
0
100
AcDbBlockBegin
  2
グループ-9
 70
     0
 10
0.0
 20
0.0
 30
0.0
  3
グループ-9
  1

  0
LINE
  5
2EA
330
2E9
100
AcDbEntity
  8
一般
  6
Continuous
 62
     7
100
AcDbLine
 10
69.0
 20
9.1542825614
 30
0.0
 11
69.0
 21
2.1542825614
 31
0.0
  0
LINE
  5
2EB
330
2E9
100
AcDbEntity
  8
一般
  6
Continuous
 62
     7
100
AcDbLine
 10
69.0
 20
2.1542825614
 30
0.0
 11
0.0
 21
2.1542825614
 31
0.0
  0
LINE
  5
2EC
330
2E9
100
AcDbEntity
  8
一般
  6
Continuous
 62
     7
100
AcDbLine
 10
0.0
 20
2.1542825614
 30
0.0
 11
0.0
 21
9.1542825614
 31
0.0
  0
LINE
  5
2ED
330
2E9
100
AcDbEntity
  8
一般
  6
Continuous
 62
     7
100
AcDbLine
 10
0.0
 20
9.1542825614
 30
0.0
 11
69.0
 21
9.1542825614
 31
0.0
  0
LINE
  5
2EE
330
2E9
100
AcDbEntity
  8
一般
  6
Continuous
 62
     7
100
AcDbLine
 10
69.0
 20
2.0
 30
0.0
 11
69.0
 21
0.0
 31
0.0
  0
LINE
  5
2EF
330
2E9
100
AcDbEntity
  8
一般
  6
Continuous
 62
     7
100
AcDbLine
 10
69.0
 20
0.0
 30
0.0
 11
0.0
 21
0.0
 31
0.0
  0
LINE
  5
2F0
330
2E9
100
AcDbEntity
  8
一般
  6
Continuous
 62
     7
100
AcDbLine
 10
0.0
 20
0.0
 30
0.0
 11
0.0
 21
2.0
 31
0.0
  0
LINE
  5
2F1
330
2E9
100
AcDbEntity
  8
一般
  6
Continuous
 62
     7
100
AcDbLine
 10
0.0
 20
2.0
 30
0.0
 11
69.0
 21
2.0
 31
0.0
  0
ENDBLK
  5
2F3
330
2E9
100
AcDbEntity
  8
0
100
AcDbBlockEnd
  0
BLOCK
  5
2FD
330
2F6
100
AcDbEntity
  8
0
100
AcDbBlockBegin
  2
DMBLK32
 70
     0
 10
0.0
 20
0.0
 30
0.0
  3
DMBLK32
  1

  0
HATCH
  5
2F7
330
2F6
100
AcDbEntity
  8
寸法
  6
Continuous
 62
     7
100
AcDbHatch
 10
0.0
 20
0.0
 30
0.0
210
0.0
220
0.0
230
1.0
  2
SOLID
 70
     1
 71
     0
 91
        1
 92
        1
 93
        3
 72
     1
 10
-174.2198782628402
 20
-2.789816256386644
 11
-173.6907116025686
 21
-5.964816218016153
 72
     1
 10
-173.6907116025686
 20
-5.964816218016153
 11
-173.161544942297
 21
-2.789816256386644
 72
     1
 10
-173.161544942297
 20
-2.789816256386644
 11
-174.2198782628402
 21
-2.789816256386644
 97
        0
 75
     0
 76
     1
 98
        0
  0
HATCH
  5
2F8
330
2F6
100
AcDbEntity
  8
寸法
  6
Continuous
 62
     7
100
AcDbHatch
 10
0.0
 20
0.0
 30
0.0
210
0.0
220
0.0
230
1.0
  2
SOLID
 70
     1
 71
     0
 91
        1
 92
        1
 93
        3
 72
     1
 10
-174.2198782628402
 20
-44.13981617964566
 11
-173.161544942297
 21
-44.13981617964566
 72
     1
 10
-173.161544942297
 20
-44.13981617964566
 11
-173.6907116025686
 21
-40.96481621801615
 72
     1
 10
-173.6907116025686
 20
-40.96481621801615
 11
-174.2198782628402
 21
-44.13981617964566
 97
        0
 75
     0
 76
     1
 98
        0
  0
LINE
  5
2F9
330
2F6
100
AcDbEntity
  8
寸法
  6
Continuous
 62
     7
100
AcDbLine
 10
-163.6288411571
 20
-5.964816218
 30
0.0
 11
-175.3195527596
 21
-5.964816218
 31
0.0
  0
LINE
  5
2FA
330
2F6
100
AcDbEntity
  8
寸法
  6
Continuous
 62
     7
100
AcDbLine
 10
-163.6288411571
 20
-40.964816218
 30
0.0
 11
-175.3195527596
 21
-40.964816218
 31
0.0
  0
LINE
  5
2FB
330
2F6
100
AcDbEntity
  8
寸法
  6
Continuous
 62
     7
100
AcDbLine
 10
-173.6907116026
 20
0.3851837052
 30
0.0
 11
-173.6907116026
 21
-47.3148158246
 31
0.0
  0
TEXT
  5
2FC
330
2F6
100
AcDbEntity
  8
寸法
  6
Continuous
 62
     7
100
AcDbText
 10
-174.5051321755
 20
-26.0143067817
 30
0.0
 40
3.2576822917
  1
35
 50
90.0
  7
SEACAD_Arial
 11
-177.7628144672
 21
-26.0143067817
 31
0.0
100
AcDbText
 73
     3
  0
ENDBLK
  5
2FE
330
2F6
100
AcDbEntity
  8
0
100
AcDbBlockEnd
  0
BLOCK
  5
307
330
300
100
AcDbEntity
  8
0
100
AcDbBlockBegin
  2
DMBLK33
 70
     0
 10
0.0
 20
0.0
 30
0.0
  3
DMBLK33
  1

  0
HATCH
  5
301
330
300
100
AcDbEntity
  8
寸法
  6
Continuous
 62
     7
100
AcDbHatch
 10
0.0
 20
0.0
 30
0.0
210
0.0
220
0.0
230
1.0
  2
SOLID
 70
     1
 71
     0
 91
        1
 92
        1
 93
        3
 72
     1
 10
-64.62473690528122
 20
61.82500003837055
 11
-65.15390356555281
 21
65.00000000000006
 72
     1
 10
-65.15390356555281
 20
65.00000000000006
 11
-65.6830702258244
 21
61.82500003837055
 72
     1
 10
-65.6830702258244
 20
61.82500003837055
 11
-64.62473690528122
 21
61.82500003837055
 97
        0
 75
     0
 76
     1
 98
        0
  0
HATCH
  5
302
330
300
100
AcDbEntity
  8
寸法
  6
Continuous
 62
     7
100
AcDbHatch
 10
0.0
 20
0.0
 30
0.0
210
0.0
220
0.0
230
1.0
  2
SOLID
 70
     1
 71
     0
 91
        1
 92
        1
 93
        3
 72
     1
 10
-64.62473690528122
 20
81.20103933818592
 11
-65.6830702258244
 21
81.20103933818592
 72
     1
 10
-65.6830702258244
 20
81.20103933818592
 11
-65.15390356555281
 21
78.02603937655641
 72
     1
 10
-65.15390356555281
 20
78.02603937655641
 11
-64.62473690528122
 21
81.20103933818592
 97
        0
 75
     0
 76
     1
 98
        0
  0
LINE
  5
303
330
300
100
AcDbEntity
  8
寸法
  6
Continuous
 62
     7
100
AcDbLine
 10
-83.4731891567
 20
65.0
 30
0.0
 11
-63.5250624085
 21
65.0
 31
0.0
  0
LINE
  5
304
330
300
100
AcDbEntity
  8
寸法
  6
Continuous
 62
     7
100
AcDbLine
 10
-83.4731891567
 20
78.0260393766
 30
0.0
 11
-63.5250624085
 21
78.0260393766
 31
0.0
  0
LINE
  5
305
330
300
100
AcDbEntity
  8
寸法
  6
Continuous
 62
     7
100
AcDbLine
 10
-65.1539035656
 20
58.6500000767
 30
0.0
 11
-65.1539035656
 21
84.376039505
 31
0.0
  0
TEXT
  5
306
330
300
100
AcDbEntity
  8
寸法
  6
Continuous
 62
     7
100
AcDbText
 10
-65.9683241385
 20
68.9635290689
 30
0.0
 40
3.2576822917
  1
13
 50
90.0
  7
SEACAD_Arial
 11
-69.2260064301
 21
68.9635290689
 31
0.0
100
AcDbText
 73
     3
  0
ENDBLK
  5
308
330
300
100
AcDbEntity
  8
0
100
AcDbBlockEnd
  0
BLOCK
  5
311
330
30A
100
AcDbEntity
  8
0
100
AcDbBlockBegin
  2
DMBLK34
 70
     0
 10
0.0
 20
0.0
 30
0.0
  3
DMBLK34
  1

  0
HATCH
  5
30B
330
30A
100
AcDbEntity
  8
寸法
  6
Continuous
 62
     7
100
AcDbHatch
 10
0.0
 20
0.0
 30
0.0
210
0.0
220
0.0
230
1.0
  2
SOLID
 70
     1
 71
     0
 91
        1
 92
        1
 93
        3
 72
     1
 10
-64.62473690528122
 20
-24.82500003837049
 11
-65.6830702258244
 21
-24.82500003837049
 72
     1
 10
-65.6830702258244
 20
-24.82500003837049
 11
-65.15390356555281
 21
-28.0
 72
     1
 10
-65.15390356555281
 20
-28.0
 11
-64.62473690528122
 21
-24.82500003837049
 97
        0
 75
     0
 76
     1
 98
        0
  0
HATCH
  5
30C
330
30A
100
AcDbEntity
  8
寸法
  6
Continuous
 62
     7
100
AcDbHatch
 10
0.0
 20
0.0
 30
0.0
210
0.0
220
0.0
230
1.0
  2
SOLID
 70
     1
 71
     0
 91
        1
 92
        1
 93
        3
 72
     1
 10
-64.62473690528122
 20
61.82500224374235
 11
-65.15390356555281
 21
65.00000220537186
 72
     1
 10
-65.15390356555281
 20
65.00000220537186
 11
-65.6830702258244
 21
61.82500224374235
 72
     1
 10
-65.6830702258244
 20
61.82500224374235
 11
-64.62473690528122
 21
61.82500224374235
 97
        0
 75
     0
 76
     1
 98
        0
  0
LINE
  5
30D
330
30A
100
AcDbEntity
  8
寸法
  6
Continuous
 62
     7
100
AcDbLine
 10
-83.4731891567
 20
-28.0
 30
0.0
 11
-63.5250624085
 21
-28.0
 31
0.0
  0
LINE
  5
30E
330
30A
100
AcDbEntity
  8
寸法
  6
Continuous
 62
     7
100
AcDbLine
 10
-83.4731891567
 20
65.0
 30
0.0
 11
-63.5250624085
 21
65.0
 31
0.0
  0
LINE
  5
30F
330
30A
100
AcDbEntity
  8
寸法
  6
Continuous
 62
     7
100
AcDbLine
 10
-65.1539035656
 20
-28.0
 30
0.0
 11
-65.1539035656
 21
65.0000022054
 31
0.0
  0
TEXT
  5
310
330
30A
100
AcDbEntity
  8
寸法
  6
Continuous
 62
     7
100
AcDbText
 10
-65.9683241385
 20
15.9505106136
 30
0.0
 40
3.2576822917
  1
93
 50
90.0
  7
SEACAD_Arial
 11
-69.2260064301
 21
15.9505106136
 31
0.0
100
AcDbText
 73
     3
  0
ENDBLK
  5
312
330
30A
100
AcDbEntity
  8
0
100
AcDbBlockEnd
  0
BLOCK
  5
31B
330
314
100
AcDbEntity
  8
0
100
AcDbBlockBegin
  2
DMBLK35
 70
     0
 10
0.0
 20
0.0
 30
0.0
  3
DMBLK35
  1

  0
HATCH
  5
315
330
314
100
AcDbEntity
  8
寸法
  6
Continuous
 62
     7
100
AcDbHatch
 10
0.0
 20
0.0
 30
0.0
210
0.0
220
0.0
230
1.0
  2
SOLID
 70
     1
 71
     0
 91
        1
 92
        1
 93
        3
 72
     1
 10
-104.5220172433078
 20
-61.83894814516361
 11
-101.3470172816783
 21
-61.30978148489203
 72
     1
 10
-101.3470172816783
 20
-61.30978148489203
 11
-104.5220172433078
 21
-60.78061482462044
 72
     1
 10
-104.5220172433078
 20
-60.78061482462044
 11
-104.5220172433078
 21
-61.83894814516361
 97
        0
 75
     0
 76
     1
 98
        0
  0
HATCH
  5
316
330
314
100
AcDbEntity
  8
寸法
  6
Continuous
 62
     7
100
AcDbHatch
 10
0.0
 20
0.0
 30
0.0
210
0.0
220
0.0
230
1.0
  2
SOLID
 70
     1
 71
     0
 91
        1
 92
        1
 93
        3
 72
     1
 10
-85.17201732004878
 20
-61.83894814516361
 11
-85.17201732004878
 21
-60.78061482462044
 72
     1
 10
-85.17201732004878
 20
-60.78061482462044
 11
-88.34701728167829
 21
-61.30978148489203
 72
     1
 10
-88.34701728167829
 20
-61.30978148489203
 11
-85.17201732004878
 21
-61.83894814516361
 97
        0
 75
     0
 76
     1
 98
        0
  0
LINE
  5
317
330
314
100
AcDbEntity
  8
寸法
  6
Continuous
 62
     7
100
AcDbLine
 10
-101.3470172817
 20
-52.9386228655
 30
0.0
 11
-101.3470172817
 21
-62.938622642
 31
0.0
  0
LINE
  5
318
330
314
100
AcDbEntity
  8
寸法
  6
Continuous
 62
     7
100
AcDbLine
 10
-88.3470172817
 20
-48.8198728655
 30
0.0
 11
-88.3470172817
 21
-62.938622642
 31
0.0
  0
LINE
  5
319
330
314
100
AcDbEntity
  8
寸法
  6
Continuous
 62
     7
100
AcDbLine
 10
-107.6970172049
 20
-61.3097814849
 30
0.0
 11
-81.9970175559
 21
-61.3097814849
 31
0.0
  0
TEXT
  5
31A
330
314
100
AcDbEntity
  8
寸法
  6
Continuous
 62
     7
100
AcDbText
 10
-97.3965076367
 20
-60.495360912
 30
0.0
 40
3.2576822917
  1
13
  7
SEACAD_Arial
 11
-97.3965076367
 21
-57.2376786203
 31
0.0
100
AcDbText
 73
     3
  0
ENDBLK
  5
31C
330
314
100
AcDbEntity
  8
0
100
AcDbBlockEnd
  0
BLOCK
  5
325
330
31E
100
AcDbEntity
  8
0
100
AcDbBlockBegin
  2
DMBLK36
 70
     0
 10
0.0
 20
0.0
 30
0.0
  3
DMBLK36
  1

  0
HATCH
  5
31F
330
31E
100
AcDbEntity
  8
寸法
  6
Continuous
 62
     7
100
AcDbHatch
 10
0.0
 20
0.0
 30
0.0
210
0.0
220
0.0
230
1.0
  2
SOLID
 70
     1
 71
     0
 91
        1
 92
        1
 93
        3
 72
     1
 10
-147.5177115335097
 20
-61.83894826378673
 11
-144.3427115718802
 21
-61.30978160351515
 72
     1
 10
-144.3427115718802
 20
-61.30978160351515
 11
-147.5177115335097
 21
-60.78061494324356
 72
     1
 10
-147.5177115335097
 20
-60.78061494324356
 11
-147.5177115335097
 21
-61.83894826378673
 97
        0
 75
     0
 76
     1
 98
        0
  0
HATCH
  5
320
330
31E
100
AcDbEntity
  8
寸法
  6
Continuous
 62
     7
100
AcDbHatch
 10
0.0
 20
0.0
 30
0.0
210
0.0
220
0.0
230
1.0
  2
SOLID
 70
     1
 71
     0
 91
        1
 92
        1
 93
        3
 72
     1
 10
-98.16771161025078
 20
-61.83894826378673
 11
-98.16771161025078
 21
-60.78061494324356
 72
     1
 10
-98.16771161025078
 20
-60.78061494324356
 11
-101.3427115718803
 21
-61.30978160351515
 72
     1
 10
-101.3427115718803
 20
-61.30978160351515
 11
-98.16771161025078
 21
-61.83894826378673
 97
        0
 75
     0
 76
     1
 98
        0
  0
LINE
  5
321
330
31E
100
AcDbEntity
  8
寸法
  6
Continuous
 62
     7
100
AcDbLine
 10
-144.3427115719
 20
-48.6288411571
 30
0.0
 11
-144.3427115719
 21
-62.9386227606
 31
0.0
  0
LINE
  5
322
330
31E
100
AcDbEntity
  8
寸法
  6
Continuous
 62
     7
100
AcDbLine
 10
-101.3427115719
 20
-48.6288411571
 30
0.0
 11
-101.3427115719
 21
-62.9386227606
 31
0.0
  0
LINE
  5
323
330
31E
100
AcDbEntity
  8
寸法
  6
Continuous
 62
     7
100
AcDbLine
 10
-150.6927114951
 20
-61.3097816035
 30
0.0
 11
-94.992710654
 21
-61.3097816035
 31
0.0
  0
TEXT
  5
324
330
31E
100
AcDbEntity
  8
寸法
  6
Continuous
 62
     7
100
AcDbText
 10
-125.3922013309
 20
-60.4953610306
 30
0.0
 40
3.2576822917
  1
43
  7
SEACAD_Arial
 11
-125.3922013309
 21
-57.2376787389
 31
0.0
100
AcDbText
 73
     3
  0
ENDBLK
  5
326
330
31E
100
AcDbEntity
  8
0
100
AcDbBlockEnd
  0
BLOCK
  5
32F
330
328
100
AcDbEntity
  8
0
100
AcDbBlockBegin
  2
DMBLK37
 70
     0
 10
0.0
 20
0.0
 30
0.0
  3
DMBLK37
  1

  0
HATCH
  5
329
330
328
100
AcDbEntity
  8
寸法
  6
Continuous
 62
     7
100
AcDbHatch
 10
0.0
 20
0.0
 30
0.0
210
0.0
220
0.0
230
1.0
  2
SOLID
 70
     1
 71
     0
 91
        1
 92
        1
 93
        3
 72
     1
 10
-72.4708334358379
 20
-31.17499996162951
 11
-73.00000009610949
 21
-28.0
 72
     1
 10
-73.00000009610949
 20
-28.0
 11
-73.52916675638107
 21
-31.17499996162951
 72
     1
 10
-73.52916675638107
 20
-31.17499996162951
 11
-72.4708334358379
 21
-31.17499996162951
 97
        0
 75
     0
 76
     1
 98
        0
  0
HATCH
  5
32A
330
328
100
AcDbEntity
  8
寸法
  6
Continuous
 62
     7
100
AcDbHatch
 10
0.0
 20
0.0
 30
0.0
210
0.0
220
0.0
230
1.0
  2
SOLID
 70
     1
 71
     0
 91
        1
 92
        1
 93
        3
 72
     1
 10
-72.4708334358379
 20
-9.825000038370492
 11
-73.52916675638107
 21
-9.825000038370492
 72
     1
 10
-73.52916675638107
 20
-9.825000038370492
 11
-73.00000009610949
 21
-13.0
 72
     1
 10
-73.00000009610949
 20
-13.0
 11
-72.4708334358379
 21
-9.825000038370492
 97
        0
 75
     0
 76
     1
 98
        0
  0
LINE
  5
32B
330
328
100
AcDbEntity
  8
寸法
  6
Continuous
 62
     7
100
AcDbLine
 10
-83.2017156111
 20
-28.0
 30
0.0
 11
-71.0996853935
 21
-28.0
 31
0.0
  0
LINE
  5
32C
330
328
100
AcDbEntity
  8
寸法
  6
Continuous
 62
     7
100
AcDbLine
 10
-82.5121852973
 20
-13.0
 30
0.0
 11
-71.0996853935
 21
-13.0
 31
0.0
  0
LINE
  5
32D
330
328
100
AcDbEntity
  8
寸法
  6
Continuous
 62
     7
100
AcDbLine
 10
-73.0000000961
 20
-34.3499999233
 30
0.0
 11
-73.0000000961
 21
-6.6499999464
 31
0.0
  0
TEXT
  5
32E
330
328
100
AcDbEntity
  8
寸法
  6
Continuous
 62
     7
100
AcDbText
 10
-73.9501574312
 20
-23.4744057383
 30
0.0
 40
3.8006293403
  1
15
 50
90.0
  7
SEACAD_Arial
 11
-77.7507867715
 21
-23.4744057383
 31
0.0
100
AcDbText
 73
     3
  0
ENDBLK
  5
330
330
328
100
AcDbEntity
  8
0
100
AcDbBlockEnd
  0
BLOCK
  5
33B
330
331
100
AcDbEntity
  8
0
100
AcDbBlockBegin
  2
SE18
 70
     0
 10
0.0
 20
0.0
 30
0.0
  3
SE18
  1

  0
INSERT
  5
334
330
331
100
AcDbEntity
  8
一般
100
AcDbBlockReference
  2
SE19
 10
0.0
 20
0.0
 30
0.0
  0
ENDBLK
  5
33C
330
331
100
AcDbEntity
  8
0
100
AcDbBlockEnd
  0
BLOCK
  5
339
330
333
100
AcDbEntity
  8
0
100
AcDbBlockBegin
  2
SE19
 70
     0
 10
0.0
 20
0.0
 30
0.0
  3
SE19
  1

  0
LINE
  5
335
330
333
100
AcDbEntity
  8
一般
  6
Continuous
 62
     7
100
AcDbLine
 10
-129.3427115719
 20
0.0
 30
0.0
 11
-116.3427115719
 21
0.0
 31
0.0
  0
LINE
  5
336
330
333
100
AcDbEntity
  8
一般
  6
Continuous
 62
     7
100
AcDbLine
 10
-116.3427115719
 20
0.0
 30
0.0
 11
-116.3427115719
 21
-13.0
 31
0.0
  0
LINE
  5
337
330
333
100
AcDbEntity
  8
一般
  6
Continuous
 62
     7
100
AcDbLine
 10
-116.3427115719
 20
-13.0
 30
0.0
 11
-129.3427115719
 21
-13.0
 31
0.0
  0
LINE
  5
338
330
333
100
AcDbEntity
  8
一般
  6
Continuous
 62
     7
100
AcDbLine
 10
-129.3427115719
 20
-13.0
 30
0.0
 11
-129.3427115719
 21
0.0
 31
0.0
  0
ENDBLK
  5
33A
330
333
100
AcDbEntity
  8
0
100
AcDbBlockEnd
  0
BLOCK
  5
345
330
33E
100
AcDbEntity
  8
0
100
AcDbBlockBegin
  2
DMBLK38
 70
     0
 10
0.0
 20
0.0
 30
0.0
  3
DMBLK38
  1

  0
HATCH
  5
33F
330
33E
100
AcDbEntity
  8
寸法
  6
Continuous
 62
     7
100
AcDbHatch
 10
0.0
 20
0.0
 30
0.0
210
0.0
220
0.0
230
1.0
  2
SOLID
 70
     1
 71
     0
 91
        1
 92
        1
 93
        3
 72
     1
 10
-72.47083307150751
 20
3.17499996162951
 11
-73.52916639205068
 21
3.17499996162951
 72
     1
 10
-73.52916639205068
 20
3.17499996162951
 11
-72.9999997317791
 21
0.0
 72
     1
 10
-72.9999997317791
 20
0.0
 11
-72.47083307150751
 21
3.17499996162951
 97
        0
 75
     0
 76
     1
 98
        0
  0
HATCH
  5
340
330
33E
100
AcDbEntity
  8
寸法
  6
Continuous
 62
     7
100
AcDbHatch
 10
0.0
 20
0.0
 30
0.0
210
0.0
220
0.0
230
1.0
  2
SOLID
 70
     1
 71
     0
 91
        1
 92
        1
 93
        3
 72
     1
 10
-72.47083307150751
 20
-16.17499996162951
 11
-72.9999997317791
 21
-13.0
 72
     1
 10
-72.9999997317791
 20
-13.0
 11
-73.52916639205068
 21
-16.17499996162951
 72
     1
 10
-73.52916639205068
 20
-16.17499996162951
 11
-72.47083307150751
 21
-16.17499996162951
 97
        0
 75
     0
 76
     1
 98
        0
  0
LINE
  5
341
330
33E
100
AcDbEntity
  8
寸法
  6
Continuous
 62
     7
100
AcDbLine
 10
-84.0996852973
 20
0.0
 30
0.0
 11
-71.0996850291
 21
0.0
 31
0.0
  0
LINE
  5
342
330
33E
100
AcDbEntity
  8
寸法
  6
Continuous
 62
     7
100
AcDbLine
 10
-84.0996852973
 20
-13.0
 30
0.0
 11
-71.0996850291
 21
-13.0
 31
0.0
  0
LINE
  5
343
330
33E
100
AcDbEntity
  8
寸法
  6
Continuous
 62
     7
100
AcDbLine
 10
-72.9999997318
 20
6.3499999233
 30
0.0
 11
-72.9999997318
 21
-19.3499997258
 31
0.0
  0
TEXT
  5
344
330
33E
100
AcDbEntity
  8
寸法
  6
Continuous
 62
     7
100
AcDbText
 10
-73.9501570668
 20
-9.4744057048
 30
0.0
 40
3.8006293403
  1
13
 50
90.0
  7
SEACAD_Arial
 11
-77.7507864071
 21
-9.4744057048
 31
0.0
100
AcDbText
 73
     3
  0
ENDBLK
  5
346
330
33E
100
AcDbEntity
  8
0
100
AcDbBlockEnd
  0
BLOCK
  5
34F
330
348
100
AcDbEntity
  8
0
100
AcDbBlockBegin
  2
DMBLK39
 70
     0
 10
0.0
 20
0.0
 30
0.0
  3
DMBLK39
  1

  0
HATCH
  5
349
330
348
100
AcDbEntity
  8
寸法
  6
Continuous
 62
     7
100
AcDbHatch
 10
0.0
 20
0.0
 30
0.0
210
0.0
220
0.0
230
1.0
  2
SOLID
 70
     1
 71
     0
 91
        1
 92
        1
 93
        3
 72
     1
 10
-120.1601034415521
 20
12.13187951050753
 11
-120.1601034415521
 21
11.07354618996436
 72
     1
 10
-120.1601034415521
 20
11.07354618996436
 11
-116.9851034799226
 21
11.60271285023595
 72
     1
 10
-116.9851034799226
 20
11.60271285023595
 11
-120.1601034415521
 21
12.13187951050753
 97
        0
 75
     0
 76
     1
 98
        0
  0
HATCH
  5
34A
330
348
100
AcDbEntity
  8
寸法
  6
Continuous
 62
     7
100
AcDbHatch
 10
0.0
 20
0.0
 30
0.0
210
0.0
220
0.0
230
1.0
  2
SOLID
 70
     1
 71
     0
 91
        1
 92
        1
 93
        3
 72
     1
 10
-98.81010351829309
 20
12.13187951050753
 11
-101.9851034799226
 21
11.60271285023595
 72
     1
 10
-101.9851034799226
 20
11.60271285023595
 11
-98.81010351829309
 21
11.07354618996436
 72
     1
 10
-98.81010351829309
 20
11.07354618996436
 11
-98.81010351829309
 21
12.13187951050753
 97
        0
 75
     0
 76
     1
 98
        0
  0
LINE
  5
34B
330
348
100
AcDbEntity
  8
寸法
  6
Continuous
 62
     7
100
AcDbLine
 10
-116.9851034799
 20
6.5030273368
 30
0.0
 11
-116.9851034799
 21
13.5030275529
 31
0.0
  0
LINE
  5
34C
330
348
100
AcDbEntity
  8
寸法
  6
Continuous
 62
     7
100
AcDbLine
 10
-101.9851034799
 20
6.5030273368
 30
0.0
 11
-101.9851034799
 21
13.5030275529
 31
0.0
  0
LINE
  5
34D
330
348
100
AcDbEntity
  8
寸法
  6
Continuous
 62
     7
100
AcDbLine
 10
-123.3351034032
 20
11.6027128502
 30
0.0
 11
-95.6351034263
 21
11.6027128502
 31
0.0
  0
TEXT
  5
34E
330
348
100
AcDbEntity
  8
寸法
  6
Continuous
 62
     7
100
AcDbText
 10
-112.4595092182
 20
12.5528701853
 30
0.0
 40
3.8006293403
  1
15
  7
SEACAD_Arial
 11
-112.4595092182
 21
16.3534995256
 31
0.0
100
AcDbText
 73
     3
  0
ENDBLK
  5
350
330
348
100
AcDbEntity
  8
0
100
AcDbBlockEnd
  0
BLOCK
  5
35A
330
351
100
AcDbEntity
  8
0
100
AcDbBlockBegin
  2
グループ-10
 70
     0
 10
0.0
 20
0.0
 30
0.0
  3
グループ-10
  1

  0
LINE
  5
352
330
351
100
AcDbEntity
  8
一般
  6
Continuous
 62
     7
100
AcDbLine
 10
0.0
 20
13.0
 30
0.0
 11
13.0
 21
13.0
 31
0.0
  0
LINE
  5
353
330
351
100
AcDbEntity
  8
一般
  6
Continuous
 62
     7
100
AcDbLine
 10
13.0
 20
13.0
 30
0.0
 11
13.0
 21
0.0
 31
0.0
  0
LINE
  5
354
330
351
100
AcDbEntity
  8
一般
  6
Continuous
 62
     7
100
AcDbLine
 10
13.0
 20
0.0
 30
0.0
 11
0.0
 21
0.0
 31
0.0
  0
LINE
  5
355
330
351
100
AcDbEntity
  8
一般
  6
Continuous
 62
     7
100
AcDbLine
 10
0.0
 20
0.0
 30
0.0
 11
0.0
 21
13.0
 31
0.0
  0
LINE
  5
356
330
351
100
AcDbEntity
  8
一般
  6
Continuous
 62
     7
100
AcDbLine
 10
5.0
 20
11.0
 30
0.0
 11
8.0
 21
11.0
 31
0.0
  0
LINE
  5
357
330
351
100
AcDbEntity
  8
一般
  6
Continuous
 62
     7
100
AcDbLine
 10
8.0
 20
11.0
 30
0.0
 11
8.0
 21
9.0
 31
0.0
  0
LINE
  5
358
330
351
100
AcDbEntity
  8
一般
  6
Continuous
 62
     7
100
AcDbLine
 10
8.0
 20
9.0
 30
0.0
 11
5.0
 21
9.0
 31
0.0
  0
LINE
  5
359
330
351
100
AcDbEntity
  8
一般
  6
Continuous
 62
     7
100
AcDbLine
 10
5.0
 20
9.0
 30
0.0
 11
5.0
 21
11.0
 31
0.0
  0
ENDBLK
  5
35B
330
351
100
AcDbEntity
  8
0
100
AcDbBlockEnd
  0
BLOCK
  5
365
330
35E
100
AcDbEntity
  8
0
100
AcDbBlockBegin
  2
DMBLK40
 70
     0
 10
0.0
 20
0.0
 30
0.0
  3
DMBLK40
  1

  0
HATCH
  5
35F
330
35E
100
AcDbEntity
  8
寸法
  6
Continuous
 62
     7
100
AcDbHatch
 10
0.0
 20
0.0
 30
0.0
210
0.0
220
0.0
230
1.0
  2
SOLID
 70
     1
 71
     0
 91
        1
 92
        1
 93
        3
 72
     1
 10
-22.69672886668104
 20
7.401885343123233
 11
-25.87172882831055
 21
6.872718682851648
 72
     1
 10
-25.87172882831055
 20
6.872718682851648
 11
-22.69672886668104
 21
6.343552022580063
 72
     1
 10
-22.69672886668104
 20
6.343552022580063
 11
-22.69672886668104
 21
7.401885343123233
 97
        0
 75
     0
 76
     1
 98
        0
  0
HATCH
  5
360
330
35E
100
AcDbEntity
  8
寸法
  6
Continuous
 62
     7
100
AcDbHatch
 10
0.0
 20
0.0
 30
0.0
210
0.0
220
0.0
230
1.0
  2
SOLID
 70
     1
 71
     0
 91
        1
 92
        1
 93
        3
 72
     1
 10
-42.04672878994006
 20
7.401885343123233
 11
-42.04672878994006
 21
6.343552022580063
 72
     1
 10
-42.04672878994006
 20
6.343552022580063
 11
-38.87172882831055
 21
6.872718682851648
 72
     1
 10
-38.87172882831055
 20
6.872718682851648
 11
-42.04672878994006
 21
7.401885343123233
 97
        0
 75
     0
 76
     1
 98
        0
  0
LINE
  5
361
330
35E
100
AcDbEntity
  8
寸法
  6
Continuous
 62
     7
100
AcDbLine
 10
-25.8717288283
 20
-2.4931508867
 30
0.0
 11
-25.8717288283
 21
8.0943495216
 31
0.0
  0
LINE
  5
362
330
35E
100
AcDbEntity
  8
寸法
  6
Continuous
 62
     7
100
AcDbLine
 10
-38.8717288283
 20
-0.9056508867
 30
0.0
 11
-38.8717288283
 21
8.0943495216
 31
0.0
  0
LINE
  5
363
330
35E
100
AcDbEntity
  8
寸法
  6
Continuous
 62
     7
100
AcDbLine
 10
-19.5217289051
 20
6.8727186829
 30
0.0
 11
-45.2217285541
 21
6.8727186829
 31
0.0
  0
TEXT
  5
364
330
35E
100
AcDbEntity
  8
寸法
  6
Continuous
 62
     7
100
AcDbText
 10
-34.2838468293
 20
7.4835341125
 30
0.0
 40
2.4432617188
  1
13
  7
SEACAD_Arial
 11
-34.2838468293
 21
9.9267958313
 31
0.0
100
AcDbText
 73
     3
  0
ENDBLK
  5
366
330
35E
100
AcDbEntity
  8
0
100
AcDbBlockEnd
  0
BLOCK
  5
36F
330
368
100
AcDbEntity
  8
0
100
AcDbBlockBegin
  2
DMBLK41
 70
     0
 10
0.0
 20
0.0
 30
0.0
  3
DMBLK41
  1

  0
HATCH
  5
369
330
368
100
AcDbEntity
  8
寸法
  6
Continuous
 62
     7
100
AcDbHatch
 10
0.0
 20
0.0
 30
0.0
210
0.0
220
0.0
230
1.0
  2
SOLID
 70
     1
 71
     0
 91
        1
 92
        1
 93
        3
 72
     1
 10
-30.69672886668105
 20
0.8143850298263202
 11
-33.87172882831055
 21
0.2852183695547352
 72
     1
 10
-33.87172882831056
 20
0.2852183695547352
 11
-30.69672886668105
 21
-0.2439482907168498
 72
     1
 10
-30.69672886668105
 20
-0.2439482907168498
 11
-30.69672886668105
 21
0.8143850298263202
 97
        0
 75
     0
 76
     1
 98
        0
  0
HATCH
  5
36A
330
368
100
AcDbEntity
  8
寸法
  6
Continuous
 62
     7
100
AcDbHatch
 10
0.0
 20
0.0
 30
0.0
210
0.0
220
0.0
230
1.0
  2
SOLID
 70
     1
 71
     0
 91
        1
 92
        1
 93
        3
 72
     1
 10
-42.04672878994006
 20
0.8143850298263202
 11
-42.04672878994006
 21
-0.2439482907168498
 72
     1
 10
-42.04672878994006
 20
-0.2439482907168498
 11
-38.87172882831055
 21
0.2852183695547352
 72
     1
 10
-38.87172882831055
 20
0.2852183695547352
 11
-42.04672878994006
 21
0.8143850298263202
 97
        0
 75
     0
 76
     1
 98
        0
  0
LINE
  5
36B
330
368
100
AcDbEntity
  8
寸法
  6
Continuous
 62
     7
100
AcDbLine
 10
-33.8717288283
 20
-0.4931508867
 30
0.0
 11
-33.8717288283
 21
1.5068492083
 31
0.0
  0
LINE
  5
36C
330
368
100
AcDbEntity
  8
寸法
  6
Continuous
 62
     7
100
AcDbLine
 10
-38.8717288283
 20
-1.4931508867
 30
0.0
 11
-38.8717288283
 21
1.5068492083
 31
0.0
  0
LINE
  5
36D
330
368
100
AcDbEntity
  8
寸法
  6
Continuous
 62
     7
100
AcDbLine
 10
-27.5217289051
 20
0.2852183696
 30
0.0
 11
-45.2217291055
 21
0.2852183696
 31
0.0
  0
TEXT
  5
36E
330
368
100
AcDbEntity
  8
寸法
  6
Continuous
 62
     7
100
AcDbText
 10
-37.3277877059
 20
0.8960337992
 30
0.0
 40
2.4432617188
  1
5
  7
SEACAD_Arial
 11
-37.3277877059
 21
3.339295518
 31
0.0
100
AcDbText
 73
     3
  0
ENDBLK
  5
370
330
368
100
AcDbEntity
  8
0
100
AcDbBlockEnd
  0
BLOCK
  5
379
330
372
100
AcDbEntity
  8
0
100
AcDbBlockBegin
  2
DMBLK42
 70
     0
 10
0.0
 20
0.0
 30
0.0
  3
DMBLK42
  1

  0
HATCH
  5
373
330
372
100
AcDbEntity
  8
寸法
  6
Continuous
 62
     7
100
AcDbHatch
 10
0.0
 20
0.0
 30
0.0
210
0.0
220
0.0
230
1.0
  2
SOLID
 70
     1
 71
     0
 91
        1
 92
        1
 93
        3
 72
     1
 10
-27.71997564539583
 20
0.8143850275911797
 11
-30.89497560702534
 21
0.2852183673195947
 72
     1
 10
-30.89497560702534
 20
0.2852183673195947
 11
-27.71997564539583
 21
-0.2439482929519903
 72
     1
 10
-27.71997564539583
 20
-0.2439482929519903
 11
-27.71997564539583
 21
0.8143850275911797
 97
        0
 75
     0
 76
     1
 98
        0
  0
HATCH
  5
374
330
372
100
AcDbEntity
  8
寸法
  6
Continuous
 62
     7
100
AcDbHatch
 10
0.0
 20
0.0
 30
0.0
210
0.0
220
0.0
230
1.0
  2
SOLID
 70
     1
 71
     0
 91
        1
 92
        1
 93
        3
 72
     1
 10
-37.06997556865485
 20
0.8143850275911797
 11
-37.06997556865485
 21
-0.2439482929519903
 72
     1
 10
-37.06997556865485
 20
-0.2439482929519903
 11
-33.89497560702534
 21
0.2852183673195947
 72
     1
 10
-33.89497560702534
 20
0.2852183673195947
 11
-37.06997556865485
 21
0.8143850275911797
 97
        0
 75
     0
 76
     1
 98
        0
  0
LINE
  5
375
330
372
100
AcDbEntity
  8
寸法
  6
Continuous
 62
     7
100
AcDbLine
 10
-30.894975607
 20
-0.9056508867
 30
0.0
 11
-30.894975607
 21
1.506849206
 31
0.0
  0
LINE
  5
376
330
372
100
AcDbEntity
  8
寸法
  6
Continuous
 62
     7
100
AcDbLine
 10
-33.894975607
 20
-0.7972377811
 30
0.0
 11
-33.894975607
 21
1.506849206
 31
0.0
  0
LINE
  5
377
330
372
100
AcDbEntity
  8
寸法
  6
Continuous
 62
     7
100
AcDbLine
 10
-24.5449756838
 20
0.2852183673
 30
0.0
 11
-40.2449755564
 21
0.2852183673
 31
0.0
  0
TEXT
  5
378
330
372
100
AcDbEntity
  8
寸法
  6
Continuous
 62
     7
100
AcDbText
 10
-33.3510345535
 20
0.896033797
 30
0.0
 40
2.4432617188
  1
3
  7
SEACAD_Arial
 11
-33.3510345535
 21
3.3392955158
 31
0.0
100
AcDbText
 73
     3
  0
ENDBLK
  5
37A
330
372
100
AcDbEntity
  8
0
100
AcDbBlockEnd
  0
BLOCK
  5
383
330
37C
100
AcDbEntity
  8
0
100
AcDbBlockBegin
  2
DMBLK43
 70
     0
 10
0.0
 20
0.0
 30
0.0
  3
DMBLK43
  1

  0
HATCH
  5
37D
330
37C
100
AcDbEntity
  8
寸法
  6
Continuous
 62
     7
100
AcDbHatch
 10
0.0
 20
0.0
 30
0.0
210
0.0
220
0.0
230
1.0
  2
SOLID
 70
     1
 71
     0
 91
        1
 92
        1
 93
        3
 72
     1
 10
-17.34256195420744
 20
-8.889781687069675
 11
-17.87172861447903
 21
-5.714781725440166
 72
     1
 10
-17.87172861447903
 20
-5.714781725440166
 11
-18.40089527475061
 21
-8.889781687069675
 72
     1
 10
-18.40089527475061
 20
-8.889781687069675
 11
-17.34256195420744
 21
-8.889781687069675
 97
        0
 75
     0
 76
     1
 98
        0
  0
HATCH
  5
37E
330
37C
100
AcDbEntity
  8
寸法
  6
Continuous
 62
     7
100
AcDbHatch
 10
0.0
 20
0.0
 30
0.0
210
0.0
220
0.0
230
1.0
  2
SOLID
 70
     1
 71
     0
 91
        1
 92
        1
 93
        3
 72
     1
 10
-17.34256195420744
 20
-0.539781763810658
 11
-18.40089527475061
 21
-0.539781763810658
 72
     1
 10
-18.40089527475061
 20
-0.539781763810658
 11
-17.87172861447903
 21
-3.714781725440168
 72
     1
 10
-17.87172861447903
 20
-3.714781725440168
 11
-17.34256195420744
 21
-0.5397817638106579
 97
        0
 75
     0
 76
     1
 98
        0
  0
LINE
  5
37F
330
37C
100
AcDbEntity
  8
寸法
  6
Continuous
 62
     7
100
AcDbLine
 10
-24.0625979896
 20
-5.7147817254
 30
0.0
 11
-16.6500977758
 21
-5.7147817254
 31
0.0
  0
LINE
  5
380
330
37C
100
AcDbEntity
  8
寸法
  6
Continuous
 62
     7
100
AcDbLine
 10
-25.6500979896
 20
-3.7147817254
 30
0.0
 11
-16.6500977758
 21
-3.7147817254
 31
0.0
  0
LINE
  5
381
330
37C
100
AcDbEntity
  8
寸法
  6
Continuous
 62
     7
100
AcDbLine
 10
-17.8717286145
 20
-12.0647816487
 30
0.0
 11
-17.8717286145
 21
2.63521806
 31
0.0
  0
TEXT
  5
382
330
37C
100
AcDbEntity
  8
寸法
  6
Continuous
 62
     7
100
AcDbText
 10
-18.4825440442
 20
-5.6708406114
 30
0.0
 40
2.4432617188
  1
2
 50
90.0
  7
SEACAD_Arial
 11
-20.9258057629
 21
-5.6708406114
 31
0.0
100
AcDbText
 73
     3
  0
ENDBLK
  5
384
330
37C
100
AcDbEntity
  8
0
100
AcDbBlockEnd
  0
BLOCK
  5
38D
330
386
100
AcDbEntity
  8
0
100
AcDbBlockBegin
  2
DMBLK44
 70
     0
 10
0.0
 20
0.0
 30
0.0
  3
DMBLK44
  1

  0
HATCH
  5
387
330
386
100
AcDbEntity
  8
寸法
  6
Continuous
 62
     7
100
AcDbHatch
 10
0.0
 20
0.0
 30
0.0
210
0.0
220
0.0
230
1.0
  2
SOLID
 70
     1
 71
     0
 91
        1
 92
        1
 93
        3
 72
     1
 10
-17.34256255546916
 20
-10.88978168706967
 11
-17.87172921574074
 21
-7.71478172544016
 72
     1
 10
-17.87172921574074
 20
-7.71478172544016
 11
-18.40089587601233
 21
-10.88978168706967
 72
     1
 10
-18.40089587601233
 20
-10.88978168706967
 11
-17.34256255546916
 21
-10.88978168706967
 97
        0
 75
     0
 76
     1
 98
        0
  0
HATCH
  5
388
330
386
100
AcDbEntity
  8
寸法
  6
Continuous
 62
     7
100
AcDbHatch
 10
0.0
 20
0.0
 30
0.0
210
0.0
220
0.0
230
1.0
  2
SOLID
 70
     1
 71
     0
 91
        1
 92
        1
 93
        3
 72
     1
 10
-17.34256255546916
 20
-2.539781763810656
 11
-18.40089587601233
 21
-2.539781763810656
 72
     1
 10
-18.40089587601233
 20
-2.539781763810656
 11
-17.87172921574074
 21
-5.714781725440165
 72
     1
 10
-17.87172921574074
 20
-5.714781725440166
 11
-17.34256255546916
 21
-2.539781763810656
 97
        0
 75
     0
 76
     1
 98
        0
  0
LINE
  5
389
330
386
100
AcDbEntity
  8
寸法
  6
Continuous
 62
     7
100
AcDbLine
 10
-25.6500979896
 20
-7.7147817254
 30
0.0
 11
-16.650098377
 21
-7.7147817254
 31
0.0
  0
LINE
  5
38A
330
386
100
AcDbEntity
  8
寸法
  6
Continuous
 62
     7
100
AcDbLine
 10
-25.6500979896
 20
-5.7147817254
 30
0.0
 11
-16.650098377
 21
-5.7147817254
 31
0.0
  0
LINE
  5
38B
330
386
100
AcDbEntity
  8
寸法
  6
Continuous
 62
     7
100
AcDbLine
 10
-17.8717292157
 20
-14.0647816487
 30
0.0
 11
-17.8717292157
 21
0.63521806
 31
0.0
  0
TEXT
  5
38C
330
386
100
AcDbEntity
  8
寸法
  6
Continuous
 62
     7
100
AcDbText
 10
-18.4825446454
 20
-7.6708406114
 30
0.0
 40
2.4432617188
  1
2
 50
90.0
  7
SEACAD_Arial
 11
-20.9258063642
 21
-7.6708406114
 31
0.0
100
AcDbText
 73
     3
  0
ENDBLK
  5
38E
330
386
100
AcDbEntity
  8
0
100
AcDbBlockEnd
  0
BLOCK
  5
397
330
390
100
AcDbEntity
  8
0
100
AcDbBlockBegin
  2
DMBLK45
 70
     0
 10
0.0
 20
0.0
 30
0.0
  3
DMBLK45
  1

  0
HATCH
  5
391
330
390
100
AcDbEntity
  8
寸法
  6
Continuous
 62
     7
100
AcDbHatch
 10
0.0
 20
0.0
 30
0.0
210
0.0
220
0.0
230
1.0
  2
SOLID
 70
     1
 71
     0
 91
        1
 92
        1
 93
        3
 72
     1
 10
-45.4008955407362
 20
-19.88978168706961
 11
-44.34256222019303
 21
-19.88978168706961
 72
     1
 10
-44.34256222019303
 20
-19.88978168706961
 11
-44.87172888046462
 21
-16.7147817254401
 72
     1
 10
-44.87172888046462
 20
-16.7147817254401
 11
-45.4008955407362
 21
-19.88978168706961
 97
        0
 75
     0
 76
     1
 98
        0
  0
HATCH
  5
392
330
390
100
AcDbEntity
  8
寸法
  6
Continuous
 62
     7
100
AcDbHatch
 10
0.0
 20
0.0
 30
0.0
210
0.0
220
0.0
230
1.0
  2
SOLID
 70
     1
 71
     0
 91
        1
 92
        1
 93
        3
 72
     1
 10
-45.4008955407362
 20
-0.5397817638106585
 11
-44.87172888046462
 21
-3.714781725440168
 72
     1
 10
-44.87172888046462
 20
-3.714781725440168
 11
-44.34256222019303
 21
-0.5397817638106583
 72
     1
 10
-44.34256222019303
 20
-0.5397817638106585
 11
-45.4008955407362
 21
-0.5397817638106585
 97
        0
 75
     0
 76
     1
 98
        0
  0
LINE
  5
393
330
390
100
AcDbEntity
  8
寸法
  6
Continuous
 62
     7
100
AcDbLine
 10
-40.093359667
 20
-16.7147817254
 30
0.0
 11
-46.0933597192
 21
-16.7147817254
 31
0.0
  0
LINE
  5
394
330
390
100
AcDbEntity
  8
寸法
  6
Continuous
 62
     7
100
AcDbLine
 10
-40.093359667
 20
-3.7147817254
 30
0.0
 11
-46.0933597192
 21
-3.7147817254
 31
0.0
  0
LINE
  5
395
330
390
100
AcDbEntity
  8
寸法
  6
Continuous
 62
     7
100
AcDbLine
 10
-44.8717288805
 20
-23.0647816487
 30
0.0
 11
-44.8717288805
 21
2.6352180004
 31
0.0
  0
TEXT
  5
396
330
390
100
AcDbEntity
  8
寸法
  6
Continuous
 62
     7
100
AcDbText
 10
-45.4825443102
 20
-12.1268994582
 30
0.0
 40
2.4432617188
  1
13
 50
90.0
  7
SEACAD_Arial
 11
-47.9258060289
 21
-12.1268994582
 31
0.0
100
AcDbText
 73
     3
  0
ENDBLK
  5
398
330
390
100
AcDbEntity
  8
0
100
AcDbBlockEnd
  0
BLOCK
  5
3A3
330
399
100
AcDbEntity
  8
0
100
AcDbBlockBegin
  2
SE20
 70
     0
 10
0.0
 20
0.0
 30
0.0
  3
SE20
  1

  0
INSERT
  5
39C
330
399
100
AcDbEntity
  8
一般
100
AcDbBlockReference
  2
SE21
 10
0.0
 20
0.0
 30
0.0
  0
ENDBLK
  5
3A4
330
399
100
AcDbEntity
  8
0
100
AcDbBlockEnd
  0
BLOCK
  5
3A1
330
39B
100
AcDbEntity
  8
0
100
AcDbBlockBegin
  2
SE21
 70
     0
 10
0.0
 20
0.0
 30
0.0
  3
SE21
  1

  0
LINE
  5
39D
330
39B
100
AcDbEntity
  8
一般
  6
Continuous
 62
     7
100
AcDbLine
 10
-38.8717288283
 20
-3.7147817254
 30
0.0
 11
-25.8717288283
 21
-3.7147817254
 31
0.0
  0
LINE
  5
39E
330
39B
100
AcDbEntity
  8
一般
  6
Continuous
 62
     7
100
AcDbLine
 10
-25.8717288283
 20
-3.7147817254
 30
0.0
 11
-25.8717288283
 21
-16.7147817254
 31
0.0
  0
LINE
  5
39F
330
39B
100
AcDbEntity
  8
一般
  6
Continuous
 62
     7
100
AcDbLine
 10
-25.8717288283
 20
-16.7147817254
 30
0.0
 11
-38.8717288283
 21
-16.7147817254
 31
0.0
  0
LINE
  5
3A0
330
39B
100
AcDbEntity
  8
一般
  6
Continuous
 62
     7
100
AcDbLine
 10
-38.8717288283
 20
-16.7147817254
 30
0.0
 11
-38.8717288283
 21
-3.7147817254
 31
0.0
  0
ENDBLK
  5
3A2
330
39B
100
AcDbEntity
  8
0
100
AcDbBlockEnd
  0
BLOCK
  5
3AF
330
3A5
100
AcDbEntity
  8
0
100
AcDbBlockBegin
  2
SE22
 70
     0
 10
0.0
 20
0.0
 30
0.0
  3
SE22
  1

  0
INSERT
  5
3A8
330
3A5
100
AcDbEntity
  8
一般
100
AcDbBlockReference
  2
SE23
 10
0.0
 20
0.0
 30
0.0
  0
ENDBLK
  5
3B0
330
3A5
100
AcDbEntity
  8
0
100
AcDbBlockEnd
  0
BLOCK
  5
3AD
330
3A7
100
AcDbEntity
  8
0
100
AcDbBlockBegin
  2
SE23
 70
     0
 10
0.0
 20
0.0
 30
0.0
  3
SE23
  1

  0
LINE
  5
3A9
330
3A7
100
AcDbEntity
  8
一般
  6
Continuous
 62
     7
100
AcDbLine
 10
-33.8717288283
 20
-5.7147817254
 30
0.0
 11
-30.8717288283
 21
-5.7147817254
 31
0.0
  0
LINE
  5
3AA
330
3A7
100
AcDbEntity
  8
一般
  6
Continuous
 62
     7
100
AcDbLine
 10
-30.8717288283
 20
-5.7147817254
 30
0.0
 11
-30.8717288283
 21
-7.7147817254
 31
0.0
  0
LINE
  5
3AB
330
3A7
100
AcDbEntity
  8
一般
  6
Continuous
 62
     7
100
AcDbLine
 10
-30.8717288283
 20
-7.7147817254
 30
0.0
 11
-33.8717288283
 21
-7.7147817254
 31
0.0
  0
LINE
  5
3AC
330
3A7
100
AcDbEntity
  8
一般
  6
Continuous
 62
     7
100
AcDbLine
 10
-33.8717288283
 20
-7.7147817254
 30
0.0
 11
-33.8717288283
 21
-5.7147817254
 31
0.0
  0
ENDBLK
  5
3AE
330
3A7
100
AcDbEntity
  8
0
100
AcDbBlockEnd
  0
BLOCK
  5
3BB
330
3B1
100
AcDbEntity
  8
0
100
AcDbBlockBegin
  2
SE24
 70
     0
 10
0.0
 20
0.0
 30
0.0
  3
SE24
  1

  0
INSERT
  5
3B4
330
3B1
100
AcDbEntity
  8
一般
100
AcDbBlockReference
  2
SE25
 10
0.0
 20
0.0
 30
0.0
  0
ENDBLK
  5
3BC
330
3B1
100
AcDbEntity
  8
0
100
AcDbBlockEnd
  0
BLOCK
  5
3B9
330
3B3
100
AcDbEntity
  8
0
100
AcDbBlockBegin
  2
SE25
 70
     0
 10
0.0
 20
0.0
 30
0.0
  3
SE25
  1

  0
LINE
  5
3B5
330
3B3
100
AcDbEntity
  8
一般
  6
Continuous
 62
     7
100
AcDbLine
 10
-105.0601691586
 20
78.0195522051
 30
0.0
 11
-105.0601691586
 21
98.0505723492
 31
0.0
  0
LINE
  5
3B6
330
3B3
100
AcDbEntity
  8
一般
  6
Continuous
 62
     7
100
AcDbLine
 10
-105.0601691586
 20
98.0505723492
 30
0.0
 11
-104.0601691586
 21
98.0505723492
 31
0.0
  0
LINE
  5
3B7
330
3B3
100
AcDbEntity
  8
一般
  6
Continuous
 62
     7
100
AcDbLine
 10
-104.0601691586
 20
98.0505723492
 30
0.0
 11
-104.0601691586
 21
78.0195522051
 31
0.0
  0
LINE
  5
3B8
330
3B3
100
AcDbEntity
  8
一般
  6
Continuous
 62
     7
100
AcDbLine
 10
-104.0601691586
 20
78.0195522051
 30
0.0
 11
-105.0601691586
 21
78.0195522051
 31
0.0
  0
ENDBLK
  5
3BA
330
3B3
100
AcDbEntity
  8
0
100
AcDbBlockEnd
  0
BLOCK
  5
3D9
330
3BD
100
AcDbEntity
  8
0
100
AcDbBlockBegin
  2
グループ-11
 70
     0
 10
0.0
 20
0.0
 30
0.0
  3
グループ-11
  1

  0
LINE
  5
3BE
330
3BD
100
AcDbEntity
  8
一般
  6
Continuous
 62
     7
100
AcDbLine
 10
0.0
 20
0.0
 30
0.0
 11
0.0
 21
34.8408759237
 31
0.0
  0
LINE
  5
3BF
330
3BD
100
AcDbEntity
  8
一般
  6
Continuous
 62
     7
100
AcDbLine
 10
0.0
 20
34.8408759237
 30
0.0
 11
1.0
 21
34.8408759237
 31
0.0
  0
LINE
  5
3C0
330
3BD
100
AcDbEntity
  8
一般
  6
Continuous
 62
     7
100
AcDbLine
 10
1.0
 20
34.8408759237
 30
0.0
 11
1.0
 21
0.0
 31
0.0
  0
LINE
  5
3C1
330
3BD
100
AcDbEntity
  8
一般
  6
Continuous
 62
     7
100
AcDbLine
 10
1.0
 20
0.0
 30
0.0
 11
0.0
 21
0.0
 31
0.0
  0
HATCH
  5
3C2
330
3BD
100
AcDbEntity
  8
一般
  6
Continuous
 62
     7
100
AcDbHatch
 10
0.0
 20
0.0
 30
0.0
210
0.0
220
0.0
230
1.0
  2
SOLID
 70
     1
 71
     0
 91
        1
 92
        1
 93
        4
 72
     1
 10
1.0
 20
0.0
 11
1.0
 21
34.84087592373135
 72
     1
 10
1.0
 20
34.84087592373135
 11
-0.0000000000000009
 21
34.84087592373135
 72
     1
 10
0.0
 20
34.84087592373135
 11
0.0
 21
0.0
 72
     1
 10
0.0
 20
0.0
 11
1.000000000000001
 21
0.0
 97
        0
 75
     0
 76
     1
 98
        0
  0
LINE
  5
3C3
330
3BD
100
AcDbEntity
  8
一般
  6
Continuous
 62
     7
100
AcDbLine
 10
0.0
 20
0.0
 30
0.0
 11
0.0
 21
34.8408759237
 31
0.0
  0
LINE
  5
3C4
330
3BD
100
AcDbEntity
  8
一般
  6
Continuous
 62
     7
100
AcDbLine
 10
0.0
 20
34.8408759237
 30
0.0
 11
1.0
 21
34.8408759237
 31
0.0
  0
LINE
  5
3C5
330
3BD
100
AcDbEntity
  8
一般
  6
Continuous
 62
     7
100
AcDbLine
 10
1.0
 20
34.8408759237
 30
0.0
 11
1.0
 21
0.0
 31
0.0
  0
LINE
  5
3C6
330
3BD
100
AcDbEntity
  8
一般
  6
Continuous
 62
     7
100
AcDbLine
 10
1.0
 20
0.0
 30
0.0
 11
0.0
 21
0.0
 31
0.0
  0
LINE
  5
3C7
330
3BD
100
AcDbEntity
  8
一般
  6
Continuous
 62
     7
100
AcDbLine
 10
2.3614926379
 20
0.0
 30
0.0
 11
2.3614926379
 21
34.8408759237
 31
0.0
  0
LINE
  5
3C8
330
3BD
100
AcDbEntity
  8
一般
  6
Continuous
 62
     7
100
AcDbLine
 10
2.3614926379
 20
34.8408759237
 30
0.0
 11
3.3614926379
 21
34.8408759237
 31
0.0
  0
LINE
  5
3C9
330
3BD
100
AcDbEntity
  8
一般
  6
Continuous
 62
     7
100
AcDbLine
 10
3.3614926379
 20
34.8408759237
 30
0.0
 11
3.3614926379
 21
0.0
 31
0.0
  0
LINE
  5
3CA
330
3BD
100
AcDbEntity
  8
一般
  6
Continuous
 62
     7
100
AcDbLine
 10
3.3614926379
 20
0.0
 30
0.0
 11
2.3614926379
 21
0.0
 31
0.0
  0
HATCH
  5
3CB
330
3BD
100
AcDbEntity
  8
一般
  6
Continuous
 62
     7
100
AcDbHatch
 10
0.0
 20
0.0
 30
0.0
210
0.0
220
0.0
230
1.0
  2
SOLID
 70
     1
 71
     0
 91
        1
 92
        1
 93
        4
 72
     1
 10
8.166575975391652
 20
0.0
 11
8.166575975391652
 21
34.84087592373135
 72
     1
 10
8.166575975391652
 20
34.84087592373135
 11
7.166575975391651
 21
34.84087592373135
 72
     1
 10
7.166575975391652
 20
34.84087592373135
 11
7.166575975391652
 21
0.0
 72
     1
 10
7.166575975391652
 20
0.0
 11
8.166575975391652
 21
0.0
 97
        0
 75
     0
 76
     1
 98
        0
  0
LINE
  5
3CC
330
3BD
100
AcDbEntity
  8
一般
  6
Continuous
 62
     7
100
AcDbLine
 10
7.1665759754
 20
0.0
 30
0.0
 11
7.1665759754
 21
34.8408759237
 31
0.0
  0
LINE
  5
3CD
330
3BD
100
AcDbEntity
  8
一般
  6
Continuous
 62
     7
100
AcDbLine
 10
7.1665759754
 20
34.8408759237
 30
0.0
 11
8.1665759754
 21
34.8408759237
 31
0.0
  0
LINE
  5
3CE
330
3BD
100
AcDbEntity
  8
一般
  6
Continuous
 62
     7
100
AcDbLine
 10
8.1665759754
 20
34.8408759237
 30
0.0
 11
8.1665759754
 21
0.0
 31
0.0
  0
LINE
  5
3CF
330
3BD
100
AcDbEntity
  8
一般
  6
Continuous
 62
     7
100
AcDbLine
 10
8.1665759754
 20
0.0
 30
0.0
 11
7.1665759754
 21
0.0
 31
0.0
  0
LINE
  5
3D0
330
3BD
100
AcDbEntity
  8
一般
  6
Continuous
 62
     7
100
AcDbLine
 10
4.8614926379
 20
0.0
 30
0.0
 11
4.8614926379
 21
34.8408759237
 31
0.0
  0
LINE
  5
3D1
330
3BD
100
AcDbEntity
  8
一般
  6
Continuous
 62
     7
100
AcDbLine
 10
4.8614926379
 20
34.8408759237
 30
0.0
 11
5.8614926379
 21
34.8408759237
 31
0.0
  0
LINE
  5
3D2
330
3BD
100
AcDbEntity
  8
一般
  6
Continuous
 62
     7
100
AcDbLine
 10
5.8614926379
 20
34.8408759237
 30
0.0
 11
5.8614926379
 21
0.0
 31
0.0
  0
LINE
  5
3D3
330
3BD
100
AcDbEntity
  8
一般
  6
Continuous
 62
     7
100
AcDbLine
 10
5.8614926379
 20
0.0
 30
0.0
 11
4.8614926379
 21
0.0
 31
0.0
  0
HATCH
  5
3D4
330
3BD
100
AcDbEntity
  8
一般
  6
Continuous
 62
     7
100
AcDbHatch
 10
0.0
 20
0.0
 30
0.0
210
0.0
220
0.0
230
1.0
  2
SOLID
 70
     1
 71
     0
 91
        1
 92
        1
 93
        4
 72
     1
 10
5.861492637902302
 20
0.0
 11
5.861492637902302
 21
34.84087592373135
 72
     1
 10
5.861492637902302
 20
34.84087592373135
 11
4.861492637902301
 21
34.84087592373135
 72
     1
 10
4.861492637902302
 20
34.84087592373135
 11
4.861492637902302
 21
0.0
 72
     1
 10
4.861492637902302
 20
0.0
 11
5.861492637902303
 21
0.0
 97
        0
 75
     0
 76
     1
 98
        0
  0
LINE
  5
3D5
330
3BD
100
AcDbEntity
  8
一般
  6
Continuous
 62
     7
100
AcDbLine
 10
4.8614926379
 20
0.0
 30
0.0
 11
4.8614926379
 21
34.8408759237
 31
0.0
  0
LINE
  5
3D6
330
3BD
100
AcDbEntity
  8
一般
  6
Continuous
 62
     7
100
AcDbLine
 10
4.8614926379
 20
34.8408759237
 30
0.0
 11
5.8614926379
 21
34.8408759237
 31
0.0
  0
LINE
  5
3D7
330
3BD
100
AcDbEntity
  8
一般
  6
Continuous
 62
     7
100
AcDbLine
 10
5.8614926379
 20
34.8408759237
 30
0.0
 11
5.8614926379
 21
0.0
 31
0.0
  0
LINE
  5
3D8
330
3BD
100
AcDbEntity
  8
一般
  6
Continuous
 62
     7
100
AcDbLine
 10
5.8614926379
 20
0.0
 30
0.0
 11
4.8614926379
 21
0.0
 31
0.0
  0
ENDBLK
  5
3DA
330
3BD
100
AcDbEntity
  8
0
100
AcDbBlockEnd
  0
BLOCK
  5
428
330
3DC
100
AcDbEntity
  8
0
100
AcDbBlockBegin
  2
グループ-12
 70
     0
 10
0.0
 20
0.0
 30
0.0
  3
グループ-12
  1

  0
LINE
  5
3DD
330
3DC
100
AcDbEntity
  8
0
  6
Continuous
 62
     7
100
AcDbLine
 10
44.99991
 20
3.499993
 30
0.0
 11
44.99991
 21
98.499799
 31
0.0
  0
LINE
  5
3DE
330
3DC
100
AcDbEntity
  8
0
  6
Continuous
 62
     7
100
AcDbLine
 10
2.999994
 20
30.999938
 30
0.0
 11
2.999994
 21
45.999901
 31
0.0
  0
LINE
  5
3DF
330
3DC
100
AcDbEntity
  8
0
  6
Continuous
 62
     7
100
AcDbLine
 10
6.999986
 20
23.999952
 30
0.0
 11
44.99991
 21
23.999952
 31
0.0
  0
LINE
  5
3E0
330
3DC
100
AcDbEntity
  8
0
  6
Continuous
 62
     7
100
AcDbLine
 10
6.999986
 20
27.999944
 30
0.0
 11
44.99991
 21
27.999944
 31
0.0
  0
LINE
  5
3E1
330
3DC
100
AcDbEntity
  8
0
  6
Continuous
 62
     7
100
AcDbLine
 10
2.999994
 20
19.99996
 30
0.0
 11
44.99991
 21
19.99996
 31
0.0
  0
LINE
  5
3E2
330
3DC
100
AcDbEntity
  8
0
  6
Continuous
 62
     7
100
AcDbLine
 10
10.999978
 20
48.999895
 30
0.0
 11
44.99991
 21
48.999895
 31
0.0
  0
LINE
  5
3E3
330
3DC
100
AcDbEntity
  8
0
  6
Continuous
 62
     7
100
AcDbLine
 10
3.999992
 20
29.99994
 30
0.0
 11
44.99991
 21
29.99994
 31
0.0
  0
LINE
  5
3E4
330
3DC
100
AcDbEntity
  8
0
  6
Continuous
 62
     7
100
AcDbLine
 10
4.99999
 20
51.49989
 30
0.0
 11
4.99999
 21
50.499892
 31
0.0
  0
LINE
  5
3E5
330
3DC
100
AcDbEntity
  8
0
  6
Continuous
 62
     7
100
AcDbLine
 10
6.999986
 20
77.999837
 30
0.0
 11
44.99991
 21
77.999837
 31
0.0
  0
LINE
  5
3E6
330
3DC
100
AcDbEntity
  8
0
  6
Continuous
 62
     7
100
AcDbLine
 10
6.999986
 20
73.999845
 30
0.0
 11
44.99991
 21
73.999845
 31
0.0
  0
LINE
  5
3E7
330
3DC
100
AcDbEntity
  8
0
  6
Continuous
 62
     7
100
AcDbLine
 10
2.999994
 20
81.999829
 30
0.0
 11
44.99991
 21
81.999829
 31
0.0
  0
LINE
  5
3E8
330
3DC
100
AcDbEntity
  8
0
  6
Continuous
 62
     7
100
AcDbLine
 10
10.999978
 20
52.999887
 30
0.0
 11
44.99991
 21
52.999887
 31
0.0
  0
LINE
  5
3E9
330
3DC
100
AcDbEntity
  8
0
  6
Continuous
 62
     7
100
AcDbLine
 10
3.999992
 20
71.999849
 30
0.0
 11
44.99991
 21
71.999849
 31
0.0
  0
LINE
  5
3EA
330
3DC
100
AcDbEntity
  8
0
  6
Continuous
 62
     7
100
AcDbLine
 10
43.3999072
 20
77.999837
 30
0.0
 11
43.3999072
 21
81.999829
 31
0.0
  0
LINE
  5
3EB
330
3DC
100
AcDbEntity
  8
0
  6
Continuous
 62
     7
100
AcDbLine
 10
43.3999072
 20
19.99996
 30
0.0
 11
43.3999072
 21
23.999952
 31
0.0
  0
LINE
  5
3EC
330
3DC
100
AcDbEntity
  8
0
  6
Continuous
 62
     7
100
AcDbLine
 10
42.499915
 20
73.999845
 30
0.0
 11
42.499915
 21
77.999837
 31
0.0
  0
LINE
  5
3ED
330
3DC
100
AcDbEntity
  8
0
  6
Continuous
 62
     7
100
AcDbLine
 10
42.499915
 20
23.999952
 30
0.0
 11
42.499915
 21
27.999944
 31
0.0
  0
LINE
  5
3EE
330
3DC
100
AcDbEntity
  8
0
  6
Continuous
 62
     7
100
AcDbLine
 10
42.499915
 20
48.999895
 30
0.0
 11
42.499915
 21
52.999887
 31
0.0
  0
LINE
  5
3EF
330
3DC
100
AcDbEntity
  8
0
  6
Continuous
 62
     7
100
AcDbLine
 10
3.999992
 20
46.999899
 30
0.0
 11
44.99991
 21
46.999899
 31
0.0
  0
LINE
  5
3F0
330
3DC
100
AcDbEntity
  8
0
  6
Continuous
 62
     7
100
AcDbLine
 10
3.999992
 20
54.999883
 30
0.0
 11
44.99991
 21
54.999883
 31
0.0
  0
LINE
  5
3F1
330
3DC
100
AcDbEntity
  8
0
  6
Continuous
 62
     7
100
AcDbLine
 10
2.999994
 20
70.999851
 30
0.0
 11
2.999994
 21
55.999881
 31
0.0
  0
ARC
  5
3F2
330
3DC
100
AcDbEntity
  8
0
  6
Continuous
 62
     7
100
AcDbCircle
 10
3.999992
 20
45.999901
 30
0.0
 40
0.9999980000000049
100
AcDbArc
 50
90.0
 51
179.999992
  0
ARC
  5
3F3
330
3DC
100
AcDbEntity
  8
0
  6
Continuous
 62
     7
100
AcDbCircle
 10
3.999992
 20
30.999938
 30
0.0
 40
0.999998000000062
100
AcDbArc
 50
180.0
 51
270.0
  0
ARC
  5
3F4
330
3DC
100
AcDbEntity
  8
0
  6
Continuous
 62
     7
100
AcDbCircle
 10
3.999992
 20
55.999881
 30
0.0
 40
0.999998000000062
100
AcDbArc
 50
180.0
 51
270.0
  0
ARC
  5
3F5
330
3DC
100
AcDbEntity
  8
0
  6
Continuous
 62
     7
100
AcDbCircle
 10
3.999992
 20
70.999851
 30
0.0
 40
0.9999980000000049
100
AcDbArc
 50
90.0
 51
179.999992
  0
ARC
  5
3F6
330
3DC
100
AcDbEntity
  8
0
  6
Continuous
 62
     7
100
AcDbCircle
 10
2.999994
 20
78.999835
 30
0.0
 40
2.999993999999902
100
AcDbArc
 50
90.0
 51
180.0
  0
ARC
  5
3F7
330
3DC
100
AcDbEntity
  8
0
  6
Continuous
 62
     7
100
AcDbCircle
 10
2.999994
 20
22.999954
 30
0.0
 40
2.999993999999959
100
AcDbArc
 50
180.0
 51
270.0
  0
LINE
  5
3F8
330
3DC
100
AcDbEntity
  8
0
  6
Continuous
 62
     7
100
AcDbLine
 10
0.0
 20
0.0
 30
0.0
 11
0.0
 21
101.999792
 31
0.0
  0
LINE
  5
3F9
330
3DC
100
AcDbEntity
  8
0
  6
Continuous
 62
     7
100
AcDbLine
 10
1.6000038
 20
48.999895
 30
0.0
 11
1.6000038
 21
52.999887
 31
0.0
  0
LINE
  5
3FA
330
3DC
100
AcDbEntity
  8
0
  6
Continuous
 62
     7
100
AcDbLine
 10
0.0
 20
48.999895
 30
0.0
 11
1.6000038
 21
48.999895
 31
0.0
  0
LINE
  5
3FB
330
3DC
100
AcDbEntity
  8
0
  6
Continuous
 62
     7
100
AcDbLine
 10
0.0
 20
52.999887
 30
0.0
 11
1.6000038
 21
52.999887
 31
0.0
  0
LINE
  5
3FC
330
3DC
100
AcDbEntity
  8
0
  6
Continuous
 62
     7
100
AcDbLine
 10
1.6000038
 20
71.999849
 30
0.0
 11
1.6000038
 21
75.999841
 31
0.0
  0
LINE
  5
3FD
330
3DC
100
AcDbEntity
  8
0
  6
Continuous
 62
     7
100
AcDbLine
 10
0.0
 20
71.999849
 30
0.0
 11
1.6000038
 21
71.999849
 31
0.0
  0
LINE
  5
3FE
330
3DC
100
AcDbEntity
  8
0
  6
Continuous
 62
     7
100
AcDbLine
 10
0.0
 20
75.999841
 30
0.0
 11
1.6000038
 21
75.999841
 31
0.0
  0
LINE
  5
3FF
330
3DC
100
AcDbEntity
  8
0
  6
Continuous
 62
     7
100
AcDbLine
 10
1.6000038
 20
25.999948
 30
0.0
 11
1.6000038
 21
29.99994
 31
0.0
  0
LINE
  5
400
330
3DC
100
AcDbEntity
  8
0
  6
Continuous
 62
     7
100
AcDbLine
 10
0.0
 20
25.999948
 30
0.0
 11
1.6000038
 21
25.999948
 31
0.0
  0
LINE
  5
401
330
3DC
100
AcDbEntity
  8
0
  6
Continuous
 62
     7
100
AcDbLine
 10
0.0
 20
29.99994
 30
0.0
 11
1.6000038
 21
29.99994
 31
0.0
  0
LINE
  5
402
330
3DC
100
AcDbEntity
  8
0
  6
Continuous
 62
     7
100
AcDbLine
 10
5.999988
 20
49.499894
 30
0.0
 11
10.6999606
 21
49.499894
 31
0.0
  0
LINE
  5
403
330
3DC
100
AcDbEntity
  8
0
  6
Continuous
 62
     7
100
AcDbLine
 10
5.999988
 20
52.499888
 30
0.0
 11
10.6999606
 21
52.499888
 31
0.0
  0
LINE
  5
404
330
3DC
100
AcDbEntity
  8
0
  6
Continuous
 62
     7
100
AcDbLine
 10
10.999978
 20
52.7998744
 30
0.0
 11
10.999978
 21
52.999887
 31
0.0
  0
LINE
  5
405
330
3DC
100
AcDbEntity
  8
0
  6
Continuous
 62
     7
100
AcDbLine
 10
10.999978
 20
48.999895
 30
0.0
 11
10.999978
 21
49.1999066
 31
0.0
  0
ARC
  5
406
330
3DC
100
AcDbEntity
  8
0
  6
Continuous
 62
     7
100
AcDbCircle
 10
5.999988
 20
50.499892
 30
0.0
 40
0.9999980000000049
100
AcDbArc
 50
180.0
 51
270.0
  0
ARC
  5
407
330
3DC
100
AcDbEntity
  8
0
  6
Continuous
 62
     7
100
AcDbCircle
 10
5.999988
 20
51.49989
 30
0.0
 40
0.9999980000000049
100
AcDbArc
 50
90.0
 51
179.999992
  0
LINE
  5
408
330
3DC
100
AcDbEntity
  8
0
  6
Continuous
 62
     7
100
AcDbLine
 10
0.0
 20
2.499995
 30
0.0
 11
43.999912
 21
2.499995
 31
0.0
  0
LINE
  5
409
330
3DC
100
AcDbEntity
  8
0
  6
Continuous
 62
     7
100
AcDbLine
 10
0.0
 20
99.499797
 30
0.0
 11
43.999912
 21
99.499797
 31
0.0
  0
LINE
  5
40A
330
3DC
100
AcDbEntity
  8
0
  6
Continuous
 62
     7
100
AcDbLine
 10
0.0
 20
0.0
 30
0.0
 11
6.999986
 21
0.0
 31
0.0
  0
LINE
  5
40B
330
3DC
100
AcDbEntity
  8
0
  6
Continuous
 62
     7
100
AcDbLine
 10
7.999984
 20
0.999998
 30
0.0
 11
7.999984
 21
2.499995
 31
0.0
  0
LINE
  5
40C
330
3DC
100
AcDbEntity
  8
0
  6
Continuous
 62
     7
100
AcDbLine
 10
0.0
 20
101.999792
 30
0.0
 11
6.999986
 21
101.999792
 31
0.0
  0
LINE
  5
40D
330
3DC
100
AcDbEntity
  8
0
  6
Continuous
 62
     7
100
AcDbLine
 10
7.999984
 20
100.999794
 30
0.0
 11
7.999984
 21
99.499797
 31
0.0
  0
ARC
  5
40E
330
3DC
100
AcDbEntity
  8
0
  6
Continuous
 62
     7
100
AcDbCircle
 10
43.999912
 20
3.499993
 30
0.0
 40
0.9999980000000392
100
AcDbArc
 50
270.000015
 51
0.0
  0
ARC
  5
40F
330
3DC
100
AcDbEntity
  8
0
  6
Continuous
 62
     7
100
AcDbCircle
 10
43.999912
 20
98.499799
 30
0.0
 40
0.9999979999999765
100
AcDbArc
 50
0.0
 51
90.0
  0
ARC
  5
410
330
3DC
100
AcDbEntity
  8
0
  6
Continuous
 62
     7
100
AcDbCircle
 10
10.6999606
 20
49.1999066
 30
0.0
 40
0.299999400000047
100
AcDbArc
 50
0.0
 51
90.0
  0
ARC
  5
411
330
3DC
100
AcDbEntity
  8
0
  6
Continuous
 62
     7
100
AcDbCircle
 10
10.6999606
 20
52.7998744
 30
0.0
 40
0.2999993999998299
100
AcDbArc
 50
270.000015
 51
0.0
  0
ARC
  5
412
330
3DC
100
AcDbEntity
  8
0
  6
Continuous
 62
     7
100
AcDbCircle
 10
6.999986
 20
100.999794
 30
0.0
 40
0.9999980000000904
100
AcDbArc
 50
0.0
 51
90.0
  0
ARC
  5
413
330
3DC
100
AcDbEntity
  8
0
  6
Continuous
 62
     7
100
AcDbCircle
 10
6.999986
 20
0.999998
 30
0.0
 40
0.9999980000000392
100
AcDbArc
 50
270.000015
 51
0.0
  0
ARC
  5
414
330
3DC
100
AcDbEntity
  8
0
  6
Continuous
 62
     7
100
AcDbCircle
 10
6.999986
 20
25.999948
 30
0.0
 40
1.999995999999982
100
AcDbArc
 50
180.0
 51
270.0
  0
ARC
  5
415
330
3DC
100
AcDbEntity
  8
0
  6
Continuous
 62
     7
100
AcDbCircle
 10
6.999986
 20
25.999948
 30
0.0
 40
1.99999600000001
100
AcDbArc
 50
90.0
 51
179.999992
  0
ARC
  5
416
330
3DC
100
AcDbEntity
  8
0
  6
Continuous
 62
     7
100
AcDbCircle
 10
6.999986
 20
75.999841
 30
0.0
 40
1.999995999999982
100
AcDbArc
 50
180.0
 51
270.0
  0
ARC
  5
417
330
3DC
100
AcDbEntity
  8
0
  6
Continuous
 62
     7
100
AcDbCircle
 10
6.999986
 20
75.999841
 30
0.0
 40
1.999996000000124
100
AcDbArc
 50
90.0
 51
179.999992
  0
LINE
  5
418
330
3DC
100
AcDbEntity
  8
0
  6
Continuous
 62
     7
100
AcDbLine
 10
0.0
 20
84.499824
 30
0.0
 11
6.499987
 21
84.499824
 31
0.0
  0
LINE
  5
419
330
3DC
100
AcDbEntity
  8
0
  6
Continuous
 62
     7
100
AcDbLine
 10
6.499987
 20
84.499824
 30
0.0
 11
6.499987
 21
99.499797
 31
0.0
  0
LINE
  5
41A
330
3DC
100
AcDbEntity
  8
0
  6
Continuous
 62
     7
100
AcDbLine
 10
0.0
 20
17.499965
 30
0.0
 11
6.499987
 21
17.499965
 31
0.0
  0
LINE
  5
41B
330
3DC
100
AcDbEntity
  8
0
  6
Continuous
 62
     7
100
AcDbLine
 10
6.499987
 20
17.499965
 30
0.0
 11
6.499987
 21
2.499995
 31
0.0
  0
LINE
  5
41C
330
3DC
100
AcDbEntity
  8
0
  6
Continuous
 62
     7
100
AcDbLine
 10
40.2999074
 20
27.999944
 30
0.0
 11
40.2999074
 21
23.999952
 31
0.0
  0
LINE
  5
41D
330
3DC
100
AcDbEntity
  8
0
  6
Continuous
 62
     7
100
AcDbLine
 10
39.9499021
 20
27.999944
 30
0.0
 11
39.9499021
 21
23.999952
 31
0.0
  0
LINE
  5
41E
330
3DC
100
AcDbEntity
  8
0
  6
Continuous
 62
     7
100
AcDbLine
 10
36.6499207
 20
27.999944
 30
0.0
 11
36.6499207
 21
23.999952
 31
0.0
  0
LINE
  5
41F
330
3DC
100
AcDbEntity
  8
0
  6
Continuous
 62
     7
100
AcDbLine
 10
36.2999154
 20
27.999944
 30
0.0
 11
36.2999154
 21
23.999952
 31
0.0
  0
LINE
  5
420
330
3DC
100
AcDbEntity
  8
0
  6
Continuous
 62
     7
100
AcDbLine
 10
40.2999074
 20
73.999845
 30
0.0
 11
40.2999074
 21
77.999837
 31
0.0
  0
LINE
  5
421
330
3DC
100
AcDbEntity
  8
0
  6
Continuous
 62
     7
100
AcDbLine
 10
39.9499021
 20
73.999845
 30
0.0
 11
39.9499021
 21
77.999837
 31
0.0
  0
LINE
  5
422
330
3DC
100
AcDbEntity
  8
0
  6
Continuous
 62
     7
100
AcDbLine
 10
36.6499207
 20
73.999845
 30
0.0
 11
36.6499207
 21
77.999837
 31
0.0
  0
LINE
  5
423
330
3DC
100
AcDbEntity
  8
0
  6
Continuous
 62
     7
100
AcDbLine
 10
36.2999154
 20
73.999845
 30
0.0
 11
36.2999154
 21
77.999837
 31
0.0
  0
LINE
  5
424
330
3DC
100
AcDbEntity
  8
0
  6
Continuous
 62
     7
100
AcDbLine
 10
2.999994
 20
32.499928
 30
0.0
 11
44.99991
 21
32.499928
 31
0.0
  0
LINE
  5
425
330
3DC
100
AcDbEntity
  8
0
  6
Continuous
 62
     7
100
AcDbLine
 10
2.999994
 20
44.499904
 30
0.0
 11
44.99991
 21
44.499904
 31
0.0
  0
LINE
  5
426
330
3DC
100
AcDbEntity
  8
0
  6
Continuous
 62
     7
100
AcDbLine
 10
2.999994
 20
57.499878
 30
0.0
 11
44.99991
 21
57.499878
 31
0.0
  0
LINE
  5
427
330
3DC
100
AcDbEntity
  8
0
  6
Continuous
 62
     7
100
AcDbLine
 10
2.999994
 20
69.499854
 30
0.0
 11
44.99991
 21
69.499854
 31
0.0
  0
ENDBLK
  5
429
330
3DC
100
AcDbEntity
  8
0
100
AcDbBlockEnd
  0
BLOCK
  5
433
330
42C
100
AcDbEntity
  8
0
100
AcDbBlockBegin
  2
DMBLK46
 70
     0
 10
0.0
 20
0.0
 30
0.0
  3
DMBLK46
  1

  0
HATCH
  5
42D
330
42C
100
AcDbEntity
  8
寸法
  6
Continuous
 62
     7
100
AcDbHatch
 10
0.0
 20
0.0
 30
0.0
210
0.0
220
0.0
230
1.0
  2
SOLID
 70
     1
 71
     0
 91
        1
 92
        1
 93
        3
 72
     1
 10
196.5291677927598
 20
-34.12338883988736
 11
195.4708344722167
 21
-34.12338883988736
 72
     1
 10
195.4708344722167
 20
-34.12338883988736
 11
196.0000011324883
 21
-37.29838880151687
 72
     1
 10
196.0000011324883
 20
-37.29838880151687
 11
196.5291677927598
 21
-34.12338883988736
 97
        0
 75
     0
 76
     1
 98
        0
  0
HATCH
  5
42E
330
42C
100
AcDbEntity
  8
寸法
  6
Continuous
 62
     7
100
AcDbHatch
 10
0.0
 20
0.0
 30
0.0
210
0.0
220
0.0
230
1.0
  2
SOLID
 70
     1
 71
     0
 91
        1
 92
        1
 93
        3
 72
     1
 10
196.5291677927598
 20
61.55231383256437
 11
196.0000011324883
 21
64.72731379419389
 72
     1
 10
196.0000011324883
 20
64.72731379419389
 11
195.4708344722167
 21
61.55231383256438
 72
     1
 10
195.4708344722167
 20
61.55231383256437
 11
196.5291677927598
 21
61.55231383256437
 97
        0
 75
     0
 76
     1
 98
        0
  0
LINE
  5
42F
330
42C
100
AcDbEntity
  8
寸法
  6
Continuous
 62
     7
100
AcDbLine
 10
156.6288411571
 20
-37.2983888015
 30
0.0
 11
197.6288422896
 21
-37.2983888015
 31
0.0
  0
LINE
  5
430
330
42C
100
AcDbEntity
  8
寸法
  6
Continuous
 62
     7
100
AcDbLine
 10
152.6288411571
 20
64.7273111975
 30
0.0
 11
197.6288422896
 21
64.7273111975
 31
0.0
  0
LINE
  5
431
330
42C
100
AcDbEntity
  8
寸法
  6
Continuous
 62
     7
100
AcDbLine
 10
196.0000011325
 20
-37.2983888015
 30
0.0
 11
196.0000011325
 21
64.7273137942
 31
0.0
  0
TEXT
  5
432
330
42C
100
AcDbEntity
  8
寸法
  6
Continuous
 62
     7
100
AcDbText
 10
195.1855805596
 20
9.8902267626
 30
0.0
 40
3.2576822917
  1
102
 50
90.0
  7
SEACAD_Arial
 11
191.9278982679
 21
9.8902267626
 31
0.0
100
AcDbText
 73
     3
  0
ENDBLK
  5
434
330
42C
100
AcDbEntity
  8
0
100
AcDbBlockEnd
  0
BLOCK
  5
43D
330
436
100
AcDbEntity
  8
0
100
AcDbBlockBegin
  2
DMBLK47
 70
     0
 10
0.0
 20
0.0
 30
0.0
  3
DMBLK47
  1

  0
HATCH
  5
437
330
436
100
AcDbEntity
  8
寸法
  6
Continuous
 62
     7
100
AcDbHatch
 10
0.0
 20
0.0
 30
0.0
210
0.0
220
0.0
230
1.0
  2
SOLID
 70
     1
 71
     0
 91
        1
 92
        1
 93
        3
 72
     1
 10
107.1428766344876
 20
-59.52916632499546
 11
110.3178765961171
 21
-58.99999966472387
 72
     1
 10
110.3178765961171
 20
-58.99999966472387
 11
107.1428766344876
 21
-58.47083300445229
 72
     1
 10
107.1428766344876
 20
-58.47083300445229
 11
107.1428766344876
 21
-59.52916632499546
 97
        0
 75
     0
 76
     1
 98
        0
  0
HATCH
  5
438
330
436
100
AcDbEntity
  8
寸法
  6
Continuous
 62
     7
100
AcDbHatch
 10
0.0
 20
0.0
 30
0.0
210
0.0
220
0.0
230
1.0
  2
SOLID
 70
     1
 71
     0
 91
        1
 92
        1
 93
        3
 72
     1
 10
178.1091597587549
 20
-59.52916632499546
 11
178.1091597587549
 21
-58.47083300445229
 72
     1
 10
178.1091597587549
 20
-58.47083300445229
 11
174.9341597971253
 21
-58.99999966472387
 72
     1
 10
174.9341597971253
 20
-58.99999966472387
 11
178.1091597587549
 21
-59.52916632499546
 97
        0
 75
     0
 76
     1
 98
        0
  0
LINE
  5
439
330
436
100
AcDbEntity
  8
寸法
  6
Continuous
 62
     7
100
AcDbLine
 10
110.3178765961
 20
-45.6288411571
 30
0.0
 11
110.3178765961
 21
-60.6288408218
 31
0.0
  0
LINE
  5
43A
330
436
100
AcDbEntity
  8
寸法
  6
Continuous
 62
     7
100
AcDbLine
 10
174.9341597971
 20
-43.6288411571
 30
0.0
 11
174.9341597971
 21
-60.6288408218
 31
0.0
  0
LINE
  5
43B
330
436
100
AcDbEntity
  8
寸法
  6
Continuous
 62
     7
100
AcDbLine
 10
103.9678766729
 20
-58.9999996647
 30
0.0
 11
181.2841575929
 21
-58.9999996647
 31
0.0
  0
TEXT
  5
43C
330
436
100
AcDbEntity
  8
寸法
  6
Continuous
 62
     7
100
AcDbText
 10
138.1644108724
 20
-58.1855790918
 30
0.0
 40
3.2576822917
  1
64.6
  7
SEACAD_Arial
 11
138.1644108724
 21
-54.9278968001
 31
0.0
100
AcDbText
 73
     3
  0
ENDBLK
  5
43E
330
436
100
AcDbEntity
  8
0
100
AcDbBlockEnd
  0
BLOCK
  5
449
330
43F
100
AcDbEntity
  8
0
100
AcDbBlockBegin
  2
SE26
 70
     0
 10
0.0
 20
0.0
 30
0.0
  3
SE26
  1

  0
INSERT
  5
442
330
43F
100
AcDbEntity
  8
0
100
AcDbBlockReference
  2
SE27
 10
0.0
 20
0.0
 30
0.0
  0
ENDBLK
  5
44A
330
43F
100
AcDbEntity
  8
0
100
AcDbBlockEnd
  0
BLOCK
  5
447
330
441
100
AcDbEntity
  8
0
100
AcDbBlockBegin
  2
SE27
 70
     0
 10
0.0
 20
0.0
 30
0.0
  3
SE27
  1

  0
LINE
  5
443
330
441
100
AcDbEntity
  8
0
  6
Continuous
 62
     7
100
AcDbLine
 10
133.6999579544
 20
-52.0
 30
0.0
 11
149.6999579544
 21
-52.0
 31
0.0
  0
LINE
  5
444
330
441
100
AcDbEntity
  8
0
  6
Continuous
 62
     7
100
AcDbLine
 10
149.6999579544
 20
-52.0
 30
0.0
 11
149.6999579544
 21
-57.4125
 31
0.0
  0
LINE
  5
445
330
441
100
AcDbEntity
  8
0
  6
Continuous
 62
     7
100
AcDbLine
 10
149.6999579544
 20
-57.4125
 30
0.0
 11
133.6999579544
 21
-57.4125
 31
0.0
  0
LINE
  5
446
330
441
100
AcDbEntity
  8
0
  6
Continuous
 62
     7
100
AcDbLine
 10
133.6999579544
 20
-57.4125
 30
0.0
 11
133.6999579544
 21
-52.0
 31
0.0
  0
ENDBLK
  5
448
330
441
100
AcDbEntity
  8
0
100
AcDbBlockEnd
  0
BLOCK
  5
453
330
44C
100
AcDbEntity
  8
0
100
AcDbBlockBegin
  2
DMBLK48
 70
     0
 10
0.0
 20
0.0
 30
0.0
  3
DMBLK48
  1

  0
HATCH
  5
44D
330
44C
100
AcDbEntity
  8
寸法
  6
Continuous
 62
     7
100
AcDbHatch
 10
0.0
 20
0.0
 30
0.0
210
0.0
220
0.0
230
1.0
  2
SOLID
 70
     1
 71
     0
 91
        1
 92
        1
 93
        3
 72
     1
 10
-63.47083362285048
 20
-89.54681295667336
 11
-64.52916694339365
 21
-89.54681295667336
 72
     1
 10
-64.52916694339365
 20
-89.54681295667336
 11
-64.00000028312206
 21
-92.72181291830287
 72
     1
 10
-64.00000028312206
 20
-92.72181291830287
 11
-63.47083362285048
 21
-89.54681295667336
 97
        0
 75
     0
 76
     1
 98
        0
  0
HATCH
  5
44E
330
44C
100
AcDbEntity
  8
寸法
  6
Continuous
 62
     7
100
AcDbHatch
 10
0.0
 20
0.0
 30
0.0
210
0.0
220
0.0
230
1.0
  2
SOLID
 70
     1
 71
     0
 91
        1
 92
        1
 93
        3
 72
     1
 10
-63.47083362285048
 20
-140.9463237183679
 11
-64.00000028312206
 21
-137.7713237567384
 72
     1
 10
-64.00000028312206
 20
-137.7713237567384
 11
-64.52916694339365
 21
-140.9463237183679
 72
     1
 10
-64.52916694339365
 20
-140.9463237183679
 11
-63.47083362285048
 21
-140.9463237183679
 97
        0
 75
     0
 76
     1
 98
        0
  0
LINE
  5
44F
330
44C
100
AcDbEntity
  8
寸法
  6
Continuous
 62
     7
100
AcDbLine
 10
-83.6426323885
 20
-92.7218129183
 30
0.0
 11
-62.6426326716
 21
-92.7218129183
 31
0.0
  0
LINE
  5
450
330
44C
100
AcDbEntity
  8
寸法
  6
Continuous
 62
     7
100
AcDbLine
 10
-83.6426323885
 20
-137.7713237567
 30
0.0
 11
-62.6426326716
 21
-137.7713237567
 31
0.0
  0
LINE
  5
451
330
44C
100
AcDbEntity
  8
寸法
  6
Continuous
 62
     7
100
AcDbLine
 10
-64.0000002831
 20
-86.371812995
 30
0.0
 11
-64.0000002831
 21
-144.1213232721
 31
0.0
  0
TEXT
  5
452
330
44C
100
AcDbEntity
  8
寸法
  6
Continuous
 62
     7
100
AcDbText
 10
-64.6786840939
 20
-117.371143774
 30
0.0
 40
2.7147352431
  1
45
 50
90.0
  7
SEACAD_Arial
 11
-67.3934193369
 21
-117.371143774
 31
0.0
100
AcDbText
 73
     3
  0
ENDBLK
  5
454
330
44C
100
AcDbEntity
  8
0
100
AcDbBlockEnd
  0
BLOCK
  5
45D
330
456
100
AcDbEntity
  8
0
100
AcDbBlockBegin
  2
DMBLK49
 70
     0
 10
0.0
 20
0.0
 30
0.0
  3
DMBLK49
  1

  0
HATCH
  5
457
330
456
100
AcDbEntity
  8
寸法
  6
Continuous
 62
     7
100
AcDbHatch
 10
0.0
 20
0.0
 30
0.0
210
0.0
220
0.0
230
1.0
  2
SOLID
 70
     1
 71
     0
 91
        1
 92
        1
 93
        3
 72
     1
 10
-63.47083291298572
 20
-80.54681295667336
 11
-64.52916623352888
 21
-80.54681295667336
 72
     1
 10
-64.52916623352888
 20
-80.54681295667336
 11
-63.9999995732573
 21
-83.72181291830287
 72
     1
 10
-63.99999957325731
 20
-83.72181291830287
 11
-63.47083291298572
 21
-80.54681295667336
 97
        0
 75
     0
 76
     1
 98
        0
  0
HATCH
  5
458
330
456
100
AcDbEntity
  8
寸法
  6
Continuous
 62
     7
100
AcDbHatch
 10
0.0
 20
0.0
 30
0.0
210
0.0
220
0.0
230
1.0
  2
SOLID
 70
     1
 71
     0
 91
        1
 92
        1
 93
        3
 72
     1
 10
-63.47083291298572
 20
-95.89681287993238
 11
-63.99999957325731
 21
-92.72181291830287
 72
     1
 10
-63.99999957325731
 20
-92.72181291830287
 11
-64.52916623352888
 21
-95.89681287993238
 72
     1
 10
-64.52916623352888
 20
-95.89681287993238
 11
-63.47083291298571
 21
-95.89681287993238
 97
        0
 75
     0
 76
     1
 98
        0
  0
LINE
  5
459
330
456
100
AcDbEntity
  8
寸法
  6
Continuous
 62
     7
100
AcDbLine
 10
-83.3146496702
 20
-83.7218129183
 30
0.0
 11
-62.6426319618
 21
-83.7218129183
 31
0.0
  0
LINE
  5
45A
330
456
100
AcDbEntity
  8
寸法
  6
Continuous
 62
     7
100
AcDbLine
 10
-83.6426323885
 20
-92.7218129183
 30
0.0
 11
-62.6426319618
 21
-92.7218129183
 31
0.0
  0
LINE
  5
45B
330
456
100
AcDbEntity
  8
寸法
  6
Continuous
 62
     7
100
AcDbLine
 10
-63.9999995733
 20
-77.371812995
 30
0.0
 11
-63.9999995733
 21
-99.0718129198
 31
0.0
  0
TEXT
  5
45C
330
456
100
AcDbEntity
  8
寸法
  6
Continuous
 62
     7
100
AcDbText
 10
-64.678683384
 20
-89.2841004284
 30
0.0
 40
2.7147352431
  1
9
 50
90.0
  7
SEACAD_Arial
 11
-67.3934186271
 21
-89.2841004284
 31
0.0
100
AcDbText
 73
     3
  0
ENDBLK
  5
45E
330
456
100
AcDbEntity
  8
0
100
AcDbBlockEnd
  0
BLOCK
  5
467
330
460
100
AcDbEntity
  8
0
100
AcDbBlockBegin
  2
DMBLK50
 70
     0
 10
0.0
 20
0.0
 30
0.0
  3
DMBLK50
  1

  0
HATCH
  5
461
330
460
100
AcDbEntity
  8
寸法
  6
Continuous
 62
     7
100
AcDbHatch
 10
0.0
 20
0.0
 30
0.0
210
0.0
220
0.0
230
1.0
  2
SOLID
 70
     1
 71
     0
 91
        1
 92
        1
 93
        3
 72
     1
 10
-63.47083397990887
 20
-67.54681295667336
 11
-64.52916730045203
 21
-67.54681295667336
 72
     1
 10
-64.52916730045203
 20
-67.54681295667336
 11
-64.00000064018045
 21
-70.72181291830287
 72
     1
 10
-64.00000064018045
 20
-70.72181291830287
 11
-63.47083397990886
 21
-67.54681295667336
 97
        0
 75
     0
 76
     1
 98
        0
  0
HATCH
  5
462
330
460
100
AcDbEntity
  8
寸法
  6
Continuous
 62
     7
100
AcDbHatch
 10
0.0
 20
0.0
 30
0.0
210
0.0
220
0.0
230
1.0
  2
SOLID
 70
     1
 71
     0
 91
        1
 92
        1
 93
        3
 72
     1
 10
-63.47083397990887
 20
-86.89681287993238
 11
-64.00000064018045
 21
-83.72181291830287
 72
     1
 10
-64.00000064018045
 20
-83.72181291830287
 11
-64.52916730045203
 21
-86.89681287993238
 72
     1
 10
-64.52916730045203
 20
-86.89681287993238
 11
-63.47083397990886
 21
-86.89681287993238
 97
        0
 75
     0
 76
     1
 98
        0
  0
LINE
  5
463
330
460
100
AcDbEntity
  8
寸法
  6
Continuous
 62
     7
100
AcDbLine
 10
-84.9021496702
 20
-70.7218129183
 30
0.0
 11
-62.6426330287
 21
-70.7218129183
 31
0.0
  0
LINE
  5
464
330
460
100
AcDbEntity
  8
寸法
  6
Continuous
 62
     7
100
AcDbLine
 10
-83.3146496702
 20
-83.7218129183
 30
0.0
 11
-62.6426330287
 21
-83.7218129183
 31
0.0
  0
LINE
  5
465
330
460
100
AcDbEntity
  8
寸法
  6
Continuous
 62
     7
100
AcDbLine
 10
-64.0000006402
 20
-64.371812995
 30
0.0
 11
-64.0000006402
 21
-90.0718126441
 31
0.0
  0
TEXT
  5
466
330
460
100
AcDbEntity
  8
寸法
  6
Continuous
 62
     7
100
AcDbText
 10
-64.6786844509
 20
-79.34638846
 30
0.0
 40
2.7147352431
  1
13
 50
90.0
  7
SEACAD_Arial
 11
-67.393419694
 21
-79.34638846
 31
0.0
100
AcDbText
 73
     3
  0
ENDBLK
  5
468
330
460
100
AcDbEntity
  8
0
100
AcDbBlockEnd
  0
BLOCK
  5
46F
330
469
100
AcDbEntity
  8
0
100
AcDbBlockBegin
  2
グループ-13
 70
     0
 10
0.0
 20
0.0
 30
0.0
  3
グループ-13
  1

  0
MTEXT
  5
46A
330
469
100
AcDbEntity
  8
0
100
AcDbMText
 10
5.0
 20
7.4255234375
 30
0.0
 40
4.8865234375
 41
31.9845270455
 46
6.3969134091
 71
     1
 72
     1
  1
{\fHGPｺﾞｼｯｸM|b0||i0||c0|p34;\C7;\H4.886523438;\W1.;開口寸法図}
 73
     1
 44
1.0
1001
ACAD
1000
ACAD_MTEXT_DEFINED_HEIGHT_BEGIN
1070
    46
1040
6.3969134091
1000
ACAD_MTEXT_DEFINED_HEIGHT_END
  0
LINE
  5
46B
330
469
100
AcDbEntity
  8
0
  6
Continuous
 62
     7
100
AcDbLine
 10
0.0
 20
10.0
 30
0.0
 11
41.0
 21
10.0
 31
0.0
  0
LINE
  5
46C
330
469
100
AcDbEntity
  8
0
  6
Continuous
 62
     7
100
AcDbLine
 10
41.0
 20
10.0
 30
0.0
 11
41.0
 21
0.0
 31
0.0
  0
LINE
  5
46D
330
469
100
AcDbEntity
  8
0
  6
Continuous
 62
     7
100
AcDbLine
 10
41.0
 20
0.0
 30
0.0
 11
0.0
 21
0.0
 31
0.0
  0
LINE
  5
46E
330
469
100
AcDbEntity
  8
0
  6
Continuous
 62
     7
100
AcDbLine
 10
0.0
 20
0.0
 30
0.0
 11
0.0
 21
10.0
 31
0.0
  0
ENDBLK
  5
470
330
469
100
AcDbEntity
  8
0
100
AcDbBlockEnd
  0
ENDSEC
  0
SECTION
  2
ENTITIES
  0
MTEXT
  5
6F
330
1F
100
AcDbEntity
  8
一般
100
AcDbMText
 10
-48.5462239815
 20
129.7030580559
 30
0.0
 40
7.9813216146
 41
100.7097772822
 46
10.4482855682
 71
     1
 72
     1
  1
{\fHGPｺﾞｼｯｸM|b0||i0||c0|p34;\C7;\H7.981321615;\W1.;LC-MS15AKL  仕様図}
 73
     1
 44
1.0
1001
ACAD
1000
ACAD_MTEXT_DEFINED_HEIGHT_BEGIN
1070
    46
1040
10.4482855682
1000
ACAD_MTEXT_DEFINED_HEIGHT_END
  0
MTEXT
  5
70
330
1F
100
AcDbEntity
  8
一般
100
AcDbMText
 10
-47.6920482845
 20
-118.8788638974
 30
0.0
 40
4.3435763889
 41
144.5226425758
 46
5.6861463636
 71
     1
 72
     1
  1
{\fHGPｺﾞｼｯｸM|b0||i0||c0|p34;\C7;\H4.343576389;\W1.;※　子機を連結する場合はLC-MS15AKLRを使用して下さい。}
 73
     1
 44
1.0
1001
ACAD
1000
ACAD_MTEXT_DEFINED_HEIGHT_BEGIN
1070
    46
1040
5.6861463636
1000
ACAD_MTEXT_DEFINED_HEIGHT_END
  0
CIRCLE
  5
71
330
1F
100
AcDbEntity
  8
一般
  6
Continuous
 62
     7
100
AcDbCircle
 10
-32.1539030917
 20
-6.2873903043
 30
0.0
 40
22.02271554554524
  0
LINE
  5
72
330
1F
100
AcDbEntity
  8
一般
  6
Continuous
 62
     7
100
AcDbLine
 10
-157.3470172817
 20
68.0260393766
 30
0.0
 11
-157.3470172817
 21
-31.9739606234
 31
0.0
  0
HATCH
  5
73
330
1F
100
AcDbEntity
  8
一般
  6
Continuous
 62
     7
100
AcDbHatch
 10
0.0
 20
0.0
 30
0.0
210
0.0
220
0.0
230
1.0
  2
SOLID
 70
     1
 71
     0
 91
        1
 92
        1
 93
        4
 72
     1
 10
-140.0018078821603
 20
78.00717676105495
 11
-139.0018078821603
 21
78.00717676105495
 72
     1
 10
-139.0018078821603
 20
78.00717676105495
 11
-139.0018078821603
 21
98.03819690516187
 72
     1
 10
-139.0018078821603
 20
98.03819690516187
 11
-140.0018078821603
 21
98.03819690516187
 72
     1
 10
-140.0018078821603
 20
98.03819690516187
 11
-140.0018078821603
 21
78.00717676105495
 97
        0
 75
     0
 76
     1
 98
        0
  0
LINE
  5
74
330
1F
100
AcDbEntity
  8
一般
  6
Continuous
 62
     7
100
AcDbLine
 10
-140.0018078822
 20
78.0071767611
 30
0.0
 11
-140.0018078822
 21
98.0381969052
 31
0.0
  0
LINE
  5
75
330
1F
100
AcDbEntity
  8
一般
  6
Continuous
 62
     7
100
AcDbLine
 10
-140.0018078822
 20
98.0381969052
 30
0.0
 11
-139.0018078822
 21
98.0381969052
 31
0.0
  0
LINE
  5
76
330
1F
100
AcDbEntity
  8
一般
  6
Continuous
 62
     7
100
AcDbLine
 10
-139.0018078822
 20
98.0381969052
 30
0.0
 11
-139.0018078822
 21
78.0071767611
 31
0.0
  0
LINE
  5
77
330
1F
100
AcDbEntity
  8
一般
  6
Continuous
 62
     7
100
AcDbLine
 10
-139.0018078822
 20
78.0071767611
 30
0.0
 11
-140.0018078822
 21
78.0071767611
 31
0.0
  0
HATCH
  5
78
330
1F
100
AcDbEntity
  8
一般
  6
Continuous
 62
     7
100
AcDbHatch
 10
0.0
 20
0.0
 30
0.0
210
0.0
220
0.0
230
1.0
  2
SOLID
 70
     1
 71
     0
 91
        1
 92
        1
 93
        4
 72
     1
 10
-142.153938241011
 20
78.00717676105495
 11
-141.153938241011
 21
78.00717676105495
 72
     1
 10
-141.153938241011
 20
78.00717676105495
 11
-141.153938241011
 21
98.03819690516187
 72
     1
 10
-141.153938241011
 20
98.03819690516187
 11
-142.153938241011
 21
98.03819690516187
 72
     1
 10
-142.153938241011
 20
98.03819690516187
 11
-142.153938241011
 21
78.00717676105495
 97
        0
 75
     0
 76
     1
 98
        0
  0
LINE
  5
79
330
1F
100
AcDbEntity
  8
一般
  6
Continuous
 62
     7
100
AcDbLine
 10
-142.153938241
 20
78.0071767611
 30
0.0
 11
-142.153938241
 21
98.0381969052
 31
0.0
  0
LINE
  5
7A
330
1F
100
AcDbEntity
  8
一般
  6
Continuous
 62
     7
100
AcDbLine
 10
-142.153938241
 20
98.0381969052
 30
0.0
 11
-141.153938241
 21
98.0381969052
 31
0.0
  0
LINE
  5
7B
330
1F
100
AcDbEntity
  8
一般
  6
Continuous
 62
     7
100
AcDbLine
 10
-141.153938241
 20
98.0381969052
 30
0.0
 11
-141.153938241
 21
78.0071767611
 31
0.0
  0
LINE
  5
7C
330
1F
100
AcDbEntity
  8
一般
  6
Continuous
 62
     7
100
AcDbLine
 10
-141.153938241
 20
78.0071767611
 30
0.0
 11
-142.153938241
 21
78.0071767611
 31
0.0
  0
CIRCLE
  5
7D
330
1F
100
AcDbEntity
  8
一般
  6
Continuous
 62
     7
100
AcDbCircle
 10
-138.2896360408
 20
-113.5369310967
 30
0.0
 40
11.50000000000001
  0
CIRCLE
  5
7E
330
1F
100
AcDbEntity
  8
一般
  6
Continuous
 62
     7
100
AcDbCircle
 10
-106.8134607582
 20
-113.5369310967
 30
0.0
 40
11.50000000000001
  0
CIRCLE
  5
80
330
1F
100
AcDbEntity
  8
_Translation
  6
Continuous
 62
     7
100
AcDbCircle
 10
-160.0
 20
-40.9739606234
 30
0.0
 40
0.01
  0
CIRCLE
  5
81
330
1F
100
AcDbEntity
  8
_Translation
  6
Continuous
 62
     7
100
AcDbCircle
 10
-158.8479277157
 20
78.0260393766
 30
0.0
 40
0.01
  0
CIRCLE
  5
82
330
1F
100
AcDbEntity
  8
_Translation
  6
Continuous
 62
     7
100
AcDbCircle
 10
171.0
 20
-34.7977588015
 30
0.0
 40
0.01
  0
CIRCLE
  5
83
330
1F
100
AcDbEntity
  8
_Translation
  6
Continuous
 62
     7
100
AcDbCircle
 10
171.0
 20
63.2096964255
 30
0.0
 40
0.01
  0
CIRCLE
  5
84
330
1F
100
AcDbEntity
  8
_Translation
  6
Continuous
 62
     7
100
AcDbCircle
 10
33.6673350993
 20
-42.6646117912
 30
0.0
 40
0.01
  0
CIRCLE
  5
85
330
1F
100
AcDbEntity
  8
_Translation
  6
Continuous
 62
     7
100
AcDbCircle
 10
42.6782008428
 20
-44.6646117912
 30
0.0
 40
0.01
  0
CIRCLE
  5
86
330
1F
100
AcDbEntity
  8
_Translation
  6
Continuous
 62
     7
100
AcDbCircle
 10
-88.3470172817
 20
86.0
 30
0.0
 40
0.01
  0
CIRCLE
  5
87
330
1F
100
AcDbEntity
  8
_Translation
  6
Continuous
 62
     7
100
AcDbCircle
 10
-157.3470172817
 20
86.0
 30
0.0
 40
0.01
  0
LINE
  5
88
330
1F
100
AcDbEntity
  8
一般
  6
Continuous
 62
     7
100
AcDbLine
 10
-147.3470172817
 20
78.0260393766
 30
0.0
 11
-97.3470172817
 21
78.0260393766
 31
0.0
  0
CIRCLE
  5
89
330
1F
100
AcDbEntity
  8
_Translation
  6
Continuous
 62
     7
100
AcDbCircle
 10
-160.0
 20
41.5260393766
 30
0.0
 40
0.01
  0
CIRCLE
  5
8A
330
1F
100
AcDbEntity
  8
_Translation
  6
Continuous
 62
     7
100
AcDbCircle
 10
-158.8479277157
 20
78.0260393766
 30
0.0
 40
0.01
  0
MTEXT
  5
8B
330
1F
100
AcDbEntity
  8
一般
100
AcDbMText
 10
-102.1851276494
 20
62.4916781705
 30
0.0
 40
3.2576822917
 41
4.9753793182
 46
4.2646122727
 71
     1
 72
     1
  1
{\fHGPｺﾞｼｯｸM|b0||i0||c0|p34;\C7;\H3.257682292;\W1.;23}
 73
     1
 44
1.0
1001
ACAD
1000
ACAD_MTEXT_DEFINED_HEIGHT_BEGIN
1070
    46
1040
4.2646122727
1000
ACAD_MTEXT_DEFINED_HEIGHT_END
  0
LINE
  5
8C
330
1F
100
AcDbEntity
  8
一般
  6
Continuous
 62
     7
100
AcDbLine
 10
-116.6907118533
 20
49.5260393766
 30
0.0
 11
-111.8870788548
 21
57.8461757909
 31
0.0
  0
LINE
  5
8D
330
1F
100
AcDbEntity
  8
一般
  6
Continuous
 62
     7
100
AcDbLine
 10
-111.8870788548
 20
57.8461757909
 30
0.0
 11
-91.6907118533
 21
57.8461757909
 31
0.0
  0
LINE
  5
8E
330
1F
100
AcDbEntity
  8
一般
  6
Continuous
 62
     7
100
AcDbLine
 10
33.149232919
 20
65.0
 30
0.0
 11
33.2406963499
 21
-28.0
 31
0.0
  0
LINE
  5
8F
330
1F
100
AcDbEntity
  8
一般
  6
Continuous
 62
     7
100
AcDbLine
 10
33.2406963499
 20
-28.0
 30
0.0
 11
33.6457949959
 21
-28.0
 31
0.0
  0
LINE
  5
90
330
1F
100
AcDbEntity
  8
一般
  6
Continuous
 62
     7
100
AcDbLine
 10
33.149232919
 20
65.0
 30
0.0
 11
33.649232919
 21
65.0
 31
0.0
  0
CIRCLE
  5
91
330
1F
100
AcDbEntity
  8
_Translation
  6
Continuous
 62
     7
100
AcDbCircle
 10
87.6782008428
 20
-41.0
 30
0.0
 40
0.01
  0
CIRCLE
  5
92
330
1F
100
AcDbEntity
  8
_Translation
  6
Continuous
 62
     7
100
AcDbCircle
 10
42.6782008428
 20
-43.6646117912
 30
0.0
 40
0.01
  0
CIRCLE
  5
93
330
1F
100
AcDbEntity
  8
_Translation
  6
Continuous
 62
     7
100
AcDbCircle
 10
-162.0
 20
-5.964816218
 30
0.0
 40
0.01
  0
CIRCLE
  5
94
330
1F
100
AcDbEntity
  8
_Translation
  6
Continuous
 62
     7
100
AcDbCircle
 10
-162.0
 20
-40.964816218
 30
0.0
 40
0.01
  0
CIRCLE
  5
95
330
1F
100
AcDbEntity
  8
_Translation
  6
Continuous
 62
     7
100
AcDbCircle
 10
-85.1020303138
 20
65.0
 30
0.0
 40
0.01
  0
CIRCLE
  5
96
330
1F
100
AcDbEntity
  8
_Translation
  6
Continuous
 62
     7
100
AcDbCircle
 10
-85.1020303138
 20
78.0260393766
 30
0.0
 40
0.01
  0
CIRCLE
  5
97
330
1F
100
AcDbEntity
  8
_Translation
  6
Continuous
 62
     7
100
AcDbCircle
 10
-85.1020303138
 20
-28.0
 30
0.0
 40
0.01
  0
CIRCLE
  5
98
330
1F
100
AcDbEntity
  8
_Translation
  6
Continuous
 62
     7
100
AcDbCircle
 10
-85.1020303138
 20
65.0
 30
0.0
 40
0.01
  0
CIRCLE
  5
99
330
1F
100
AcDbEntity
  8
_Translation
  6
Continuous
 62
     7
100
AcDbCircle
 10
-101.3470172817
 20
-51.3097817084
 30
0.0
 40
0.01
  0
CIRCLE
  5
9A
330
1F
100
AcDbEntity
  8
_Translation
  6
Continuous
 62
     7
100
AcDbCircle
 10
-88.3470172817
 20
-47.1910317084
 30
0.0
 40
0.01
  0
CIRCLE
  5
9B
330
1F
100
AcDbEntity
  8
_Translation
  6
Continuous
 62
     7
100
AcDbCircle
 10
-144.3427115719
 20
-47.0
 30
0.0
 40
0.01
  0
CIRCLE
  5
9C
330
1F
100
AcDbEntity
  8
_Translation
  6
Continuous
 62
     7
100
AcDbCircle
 10
-101.3427115719
 20
-47.0
 30
0.0
 40
0.01
  0
LINE
  5
9D
330
1F
100
AcDbEntity
  8
一般
  6
Continuous
 62
     7
100
AcDbLine
 10
-122.3470172817
 20
-137.1538242091
 30
0.0
 11
-122.3470172817
 21
85.3353882088
 31
0.0
  0
CIRCLE
  5
9E
330
1F
100
AcDbEntity
  8
_Translation
  6
Continuous
 62
     7
100
AcDbCircle
 10
-85.1020303138
 20
-28.0
 30
0.0
 40
0.01
  0
CIRCLE
  5
9F
330
1F
100
AcDbEntity
  8
_Translation
  6
Continuous
 62
     7
100
AcDbCircle
 10
-84.4125
 20
-13.0
 30
0.0
 40
0.01
  0
CIRCLE
  5
A0
330
1F
100
AcDbEntity
  8
_Translation
  6
Continuous
 62
     7
100
AcDbCircle
 10
-86.0
 20
0.0
 30
0.0
 40
0.01
  0
CIRCLE
  5
A1
330
1F
100
AcDbEntity
  8
_Translation
  6
Continuous
 62
     7
100
AcDbCircle
 10
-86.0
 20
-13.0
 30
0.0
 40
0.01
  0
CIRCLE
  5
A2
330
1F
100
AcDbEntity
  8
_Translation
  6
Continuous
 62
     7
100
AcDbCircle
 10
-116.9851034799
 20
4.6027126342
 30
0.0
 40
0.01
  0
CIRCLE
  5
A3
330
1F
100
AcDbEntity
  8
_Translation
  6
Continuous
 62
     7
100
AcDbCircle
 10
-101.9851034799
 20
4.6027126342
 30
0.0
 40
0.01
  0
CIRCLE
  5
A4
330
1F
100
AcDbEntity
  8
_Translation
  6
Continuous
 62
     7
100
AcDbCircle
 10
-25.8717288283
 20
-3.7147817254
 30
0.0
 40
0.01
  0
CIRCLE
  5
A5
330
1F
100
AcDbEntity
  8
_Translation
  6
Continuous
 62
     7
100
AcDbCircle
 10
-38.8717288283
 20
-2.1272817254
 30
0.0
 40
0.01
  0
CIRCLE
  5
A6
330
1F
100
AcDbEntity
  8
_Translation
  6
Continuous
 62
     7
100
AcDbCircle
 10
-33.8717288283
 20
-1.7147817254
 30
0.0
 40
0.01
  0
CIRCLE
  5
A7
330
1F
100
AcDbEntity
  8
_Translation
  6
Continuous
 62
     7
100
AcDbCircle
 10
-38.8717288283
 20
-2.7147817254
 30
0.0
 40
0.01
  0
CIRCLE
  5
A8
330
1F
100
AcDbEntity
  8
_Translation
  6
Continuous
 62
     7
100
AcDbCircle
 10
-30.894975607
 20
-2.1272817254
 30
0.0
 40
0.01
  0
CIRCLE
  5
A9
330
1F
100
AcDbEntity
  8
_Translation
  6
Continuous
 62
     7
100
AcDbCircle
 10
-33.894975607
 20
-2.0188686198
 30
0.0
 40
0.01
  0
CIRCLE
  5
AA
330
1F
100
AcDbEntity
  8
_Translation
  6
Continuous
 62
     7
100
AcDbCircle
 10
-25.2842288283
 20
-5.7147817254
 30
0.0
 40
0.01
  0
CIRCLE
  5
AB
330
1F
100
AcDbEntity
  8
_Translation
  6
Continuous
 62
     7
100
AcDbCircle
 10
-26.8717288283
 20
-3.7147817254
 30
0.0
 40
0.01
  0
CIRCLE
  5
AC
330
1F
100
AcDbEntity
  8
_Translation
  6
Continuous
 62
     7
100
AcDbCircle
 10
-26.8717288283
 20
-7.7147817254
 30
0.0
 40
0.01
  0
CIRCLE
  5
AD
330
1F
100
AcDbEntity
  8
_Translation
  6
Continuous
 62
     7
100
AcDbCircle
 10
-26.8717288283
 20
-5.7147817254
 30
0.0
 40
0.01
  0
CIRCLE
  5
AE
330
1F
100
AcDbEntity
  8
_Translation
  6
Continuous
 62
     7
100
AcDbCircle
 10
-38.8717288283
 20
-16.7147817254
 30
0.0
 40
0.01
  0
CIRCLE
  5
AF
330
1F
100
AcDbEntity
  8
_Translation
  6
Continuous
 62
     7
100
AcDbCircle
 10
-38.8717288283
 20
-3.7147817254
 30
0.0
 40
0.01
  0
HATCH
  5
B0
330
1F
100
AcDbEntity
  8
一般
  6
Continuous
 62
     7
100
AcDbHatch
 10
0.0
 20
0.0
 30
0.0
210
0.0
220
0.0
230
1.0
  2
SOLID
 70
     1
 71
     0
 91
        1
 92
        1
 93
        4
 72
     1
 10
-33.87172882831056
 20
-5.71478172544016
 11
-33.87172882831056
 21
-7.71478172544016
 72
     1
 10
-33.87172882831056
 20
-7.71478172544016
 11
-30.87172882831056
 21
-7.71478172544016
 72
     1
 10
-30.87172882831055
 20
-7.71478172544016
 11
-30.87172882831055
 21
-5.71478172544016
 72
     1
 10
-30.87172882831055
 20
-5.71478172544016
 11
-33.87172882831055
 21
-5.71478172544016
 97
        0
 75
     0
 76
     1
 98
        0
  0
LINE
  5
B1
330
1F
100
AcDbEntity
  8
一般
  6
Continuous
 62
     7
100
AcDbLine
 10
-33.8717288283
 20
-5.7147817254
 30
0.0
 11
-30.8717288283
 21
-5.7147817254
 31
0.0
  0
LINE
  5
B2
330
1F
100
AcDbEntity
  8
一般
  6
Continuous
 62
     7
100
AcDbLine
 10
-30.8717288283
 20
-5.7147817254
 30
0.0
 11
-30.8717288283
 21
-7.7147817254
 31
0.0
  0
LINE
  5
B3
330
1F
100
AcDbEntity
  8
一般
  6
Continuous
 62
     7
100
AcDbLine
 10
-30.8717288283
 20
-7.7147817254
 30
0.0
 11
-33.8717288283
 21
-7.7147817254
 31
0.0
  0
LINE
  5
B4
330
1F
100
AcDbEntity
  8
一般
  6
Continuous
 62
     7
100
AcDbLine
 10
-33.8717288283
 20
-7.7147817254
 30
0.0
 11
-33.8717288283
 21
-5.7147817254
 31
0.0
  0
MTEXT
  5
B5
330
1F
100
AcDbEntity
  8
一般
100
AcDbMText
 10
-43.0987311416
 20
-21.5898412197
 30
0.0
 40
2.4432617188
 41
23.721860142
 46
3.1984617045
 71
     1
 72
     1
  1
{\fHGPｺﾞｼｯｸM|b0||i0||c0|p34;\C7;\H2.443261719;\W1.;ホタ ルランプ詳細}
 73
     1
 44
1.0
1001
ACAD
1000
ACAD_MTEXT_DEFINED_HEIGHT_BEGIN
1070
    46
1040
3.1984617045
1000
ACAD_MTEXT_DEFINED_HEIGHT_END
  0
HATCH
  5
B6
330
1F
100
AcDbEntity
  8
一般
  6
Continuous
 62
     7
100
AcDbHatch
 10
0.0
 20
0.0
 30
0.0
210
0.0
220
0.0
230
1.0
  2
SOLID
 70
     1
 71
     0
 91
        1
 92
        1
 93
        4
 72
     1
 10
-105.0601691585839
 20
78.01955220509097
 11
-104.0601691585839
 21
78.01955220509097
 72
     1
 10
-104.0601691585839
 20
78.01955220509097
 11
-104.0601691585839
 21
98.05057234919789
 72
     1
 10
-104.0601691585839
 20
98.05057234919789
 11
-105.0601691585839
 21
98.05057234919789
 72
     1
 10
-105.0601691585839
 20
98.05057234919789
 11
-105.0601691585839
 21
78.01955220509097
 97
        0
 75
     0
 76
     1
 98
        0
  0
LINE
  5
B7
330
1F
100
AcDbEntity
  8
一般
  6
Continuous
 62
     7
100
AcDbLine
 10
-105.0601691586
 20
78.0195522051
 30
0.0
 11
-105.0601691586
 21
98.0505723492
 31
0.0
  0
LINE
  5
B8
330
1F
100
AcDbEntity
  8
一般
  6
Continuous
 62
     7
100
AcDbLine
 10
-105.0601691586
 20
98.0505723492
 30
0.0
 11
-104.0601691586
 21
98.0505723492
 31
0.0
  0
LINE
  5
B9
330
1F
100
AcDbEntity
  8
一般
  6
Continuous
 62
     7
100
AcDbLine
 10
-104.0601691586
 20
98.0505723492
 30
0.0
 11
-104.0601691586
 21
78.0195522051
 31
0.0
  0
LINE
  5
BA
330
1F
100
AcDbEntity
  8
一般
  6
Continuous
 62
     7
100
AcDbLine
 10
-104.0601691586
 20
78.0195522051
 30
0.0
 11
-105.0601691586
 21
78.0195522051
 31
0.0
  0
MTEXT
  5
BB
330
1F
100
AcDbEntity
  8
一般
100
AcDbMText
 10
-75.6993196091
 20
101.5331192697
 30
0.0
 40
4.8865234375
 41
6.3969134091
 46
6.3969134091
 71
     1
 72
     1
  1
{\fHGPｺﾞｼｯｸM|b0||i0||c0|p34;\C7;\H4.886523438;\W1.;①}
 73
     1
 44
1.0
1001
ACAD
1000
ACAD_MTEXT_DEFINED_HEIGHT_BEGIN
1070
    46
1040
6.3969134091
1000
ACAD_MTEXT_DEFINED_HEIGHT_END
  0
MTEXT
  5
BC
330
1F
100
AcDbEntity
  8
一般
100
AcDbMText
 10
90.7825482823
 20
87.4032216957
 30
0.0
 40
4.8865234375
 41
6.3969134091
 46
6.3969134091
 71
     1
 72
     1
  1
{\fHGPｺﾞｼｯｸM|b0||i0||c0|p34;\C7;\H4.886523438;\W1.;②}
 73
     1
 44
1.0
1001
ACAD
1000
ACAD_MTEXT_DEFINED_HEIGHT_BEGIN
1070
    46
1040
6.3969134091
1000
ACAD_MTEXT_DEFINED_HEIGHT_END
  0
MTEXT
  5
BD
330
1F
100
AcDbEntity
  8
一般
100
AcDbMText
 10
-186.6993196091
 20
100.8124317744
 30
0.0
 40
4.8865234375
 41
6.3969134091
 46
6.3969134091
 71
     1
 72
     1
  1
{\fHGPｺﾞｼｯｸM|b0||i0||c0|p34;\C7;\H4.886523438;\W1.;③}
 73
     1
 44
1.0
1001
ACAD
1000
ACAD_MTEXT_DEFINED_HEIGHT_BEGIN
1070
    46
1040
6.3969134091
1000
ACAD_MTEXT_DEFINED_HEIGHT_END
  0
MTEXT
  5
BE
330
1F
100
AcDbEntity
  8
一般
100
AcDbMText
 10
-184.1974639139
 20
-61.3458536352
 30
0.0
 40
4.8865234375
 41
6.3969134091
 46
6.3969134091
 71
     1
 72
     1
  1
{\fHGPｺﾞｼｯｸM|b0||i0||c0|p34;\C7;\H4.886523438;\W1.;④}
 73
     1
 44
1.0
1001
ACAD
1000
ACAD_MTEXT_DEFINED_HEIGHT_BEGIN
1070
    46
1040
6.3969134091
1000
ACAD_MTEXT_DEFINED_HEIGHT_END
  0
MTEXT
  5
BF
330
1F
100
AcDbEntity
  8
一般
100
AcDbMText
 10
-77.9974880008
 20
114.0410949912
 30
0.0
 40
4.8865234375
 41
6.3969134091
 46
6.3969134091
 71
     1
 72
     1
  1
{\fHGPｺﾞｼｯｸM|b0||i0||c0|p34;\C7;\H4.886523438;\W1.;⑤}
 73
     1
 44
1.0
1001
ACAD
1000
ACAD_MTEXT_DEFINED_HEIGHT_BEGIN
1070
    46
1040
6.3969134091
1000
ACAD_MTEXT_DEFINED_HEIGHT_END
  0
MTEXT
  5
C0
330
1F
100
AcDbEntity
  8
一般
100
AcDbMText
 10
-89.6993196091
 20
115.8124317744
 30
0.0
 40
4.8865234375
 41
6.3969134091
 46
6.3969134091
 71
     1
 72
     1
  1
{\fHGPｺﾞｼｯｸM|b0||i0||c0|p34;\C7;\H4.886523438;\W1.;⑥}
 73
     1
 44
1.0
1001
ACAD
1000
ACAD_MTEXT_DEFINED_HEIGHT_BEGIN
1070
    46
1040
6.3969134091
1000
ACAD_MTEXT_DEFINED_HEIGHT_END
  0
MTEXT
  5
C1
330
1F
100
AcDbEntity
  8
一般
100
AcDbMText
 10
-161.8657118533
 20
117.6374317744
 30
0.0
 40
4.8865234375
 41
6.3969134091
 46
6.3969134091
 71
     1
 72
     1
  1
{\fHGPｺﾞｼｯｸM|b0||i0||c0|p34;\C7;\H4.886523438;\W1.;⑦}
 73
     1
 44
1.0
1001
ACAD
1000
ACAD_MTEXT_DEFINED_HEIGHT_BEGIN
1070
    46
1040
6.3969134091
1000
ACAD_MTEXT_DEFINED_HEIGHT_END
  0
MTEXT
  5
C2
330
1F
100
AcDbEntity
  8
一般
100
AcDbMText
 10
-174.6993196091
 20
113.9327063027
 30
0.0
 40
4.8865234375
 41
6.3969134091
 46
6.3969134091
 71
     1
 72
     1
  1
{\fHGPｺﾞｼｯｸM|b0||i0||c0|p34;\C7;\H4.886523438;\W1.;⑧}
 73
     1
 44
1.0
1001
ACAD
1000
ACAD_MTEXT_DEFINED_HEIGHT_BEGIN
1070
    46
1040
6.3969134091
1000
ACAD_MTEXT_DEFINED_HEIGHT_END
  0
LINE
  5
C3
330
1F
100
AcDbEntity
  8
一般
  6
Continuous
 62
     7
100
AcDbLine
 10
-100.5243196091
 20
71.2119083369
 30
0.0
 11
-74.5243196091
 21
97.2119083369
 31
0.0
  0
LINE
  5
C4
330
1F
100
AcDbEntity
  8
一般
  6
Continuous
 62
     7
100
AcDbLine
 10
67.7763665074
 20
58.5253459801
 30
0.0
 11
91.7763665074
 21
82.5253459801
 31
0.0
  0
LINE
  5
C5
330
1F
100
AcDbEntity
  8
一般
  6
Continuous
 62
     7
100
AcDbLine
 10
-127.5243196091
 20
42.2119083369
 30
0.0
 11
-181.5243196091
 21
96.2119083369
 31
0.0
  0
LINE
  5
C6
330
1F
100
AcDbEntity
  8
一般
  6
Continuous
 62
     7
100
AcDbLine
 10
-123.8408558766
 20
-6.9463770727
 30
0.0
 11
-178.8408558766
 21
-61.9463770727
 31
0.0
  0
LINE
  5
C7
330
1F
100
AcDbEntity
  8
一般
  6
Continuous
 62
     7
100
AcDbLine
 10
-107.5637017589
 20
92.2119083369
 30
0.0
 11
-88.5637017589
 21
111.2119083369
 31
0.0
  0
LINE
  5
C8
330
1F
100
AcDbEntity
  8
一般
  6
Continuous
 62
     7
100
AcDbLine
 10
-104.0601691586
 20
82.0795905317
 30
0.0
 11
-76.9278513534
 21
109.2119083369
 31
0.0
  0
LINE
  5
C9
330
1F
100
AcDbEntity
  8
一般
  6
Continuous
 62
     7
100
AcDbLine
 10
-139.0018078822
 20
93.2119083369
 30
0.0
 11
-158.5243196091
 21
112.7344200639
 31
0.0
  0
LINE
  5
CA
330
1F
100
AcDbEntity
  8
一般
  6
Continuous
 62
     7
100
AcDbLine
 10
-142.153938241
 20
82.2119083369
 30
0.0
 11
-169.5243196091
 21
109.582289705
 31
0.0
  0
HATCH
  5
CB
330
1F
100
AcDbEntity
  8
一般
  6
Continuous
 62
     7
100
AcDbHatch
 10
0.0
 20
0.0
 30
0.0
210
0.0
220
0.0
230
1.0
  2
SOLID
 70
     1
 71
     0
 91
        1
 92
        1
 93
        4
 72
     1
 10
-132.1776738648477
 20
33.53408582638184
 11
-129.7028001306948
 21
33.53408582638184
 72
     1
 10
-129.7028001306948
 20
33.53408582638184
 11
-129.7028001306948
 21
36.00895956053476
 72
     1
 10
-129.7028001306948
 20
36.00895956053476
 11
-132.1776738648477
 21
36.00895956053476
 72
     1
 10
-132.1776738648477
 20
36.00895956053476
 11
-132.1776738648477
 21
33.53408582638184
 97
        0
 75
     0
 76
     1
 98
        0
  0
LINE
  5
CC
330
1F
100
AcDbEntity
  8
一般
  6
Continuous
 62
     7
100
AcDbLine
 10
-132.1776738648
 20
33.5340858264
 30
0.0
 11
-132.1776738648
 21
36.0089595605
 31
0.0
  0
LINE
  5
CD
330
1F
100
AcDbEntity
  8
一般
  6
Continuous
 62
     7
100
AcDbLine
 10
-132.1776738648
 20
36.0089595605
 30
0.0
 11
-129.7028001307
 21
36.0089595605
 31
0.0
  0
LINE
  5
CE
330
1F
100
AcDbEntity
  8
一般
  6
Continuous
 62
     7
100
AcDbLine
 10
-129.7028001307
 20
36.0089595605
 30
0.0
 11
-129.7028001307
 21
33.5340858264
 31
0.0
  0
LINE
  5
CF
330
1F
100
AcDbEntity
  8
一般
  6
Continuous
 62
     7
100
AcDbLine
 10
-129.7028001307
 20
33.5340858264
 30
0.0
 11
-132.1776738648
 21
33.5340858264
 31
0.0
  0
LINE
  5
D0
330
1F
100
AcDbEntity
  8
0
  6
Continuous
 62
     7
100
AcDbLine
 10
131.0368254558
 20
64.7273111975
 30
0.0
 11
146.6133427493
 21
64.7273111975
 31
0.0
  0
LINE
  5
D1
330
1F
100
AcDbEntity
  8
0
  6
Continuous
 62
     7
100
AcDbLine
 10
167.3322475979
 20
45.7225201967
 30
0.0
 11
167.3322475979
 21
62.2266811975
 31
0.0
  0
LINE
  5
D2
330
1F
100
AcDbEntity
  8
0
  6
Continuous
 62
     7
100
AcDbLine
 10
110.3178765961
 20
-34.7977588015
 30
0.0
 11
110.3178765961
 21
62.2266811975
 31
0.0
  0
LINE
  5
D3
330
1F
100
AcDbEntity
  8
0
  6
Continuous
 62
     7
100
AcDbLine
 10
112.8185065961
 20
12.2140781967
 30
0.0
 11
112.8185065961
 21
13.7144561967
 31
0.0
  0
LINE
  5
D4
330
1F
100
AcDbEntity
  8
0
  6
Continuous
 62
     7
100
AcDbLine
 10
173.3337575974
 20
38.7207561967
 30
0.0
 11
173.3337575974
 21
44.7222681967
 31
0.0
  0
LINE
  5
D5
330
1F
100
AcDbEntity
  8
0
  6
Continuous
 62
     7
100
AcDbLine
 10
167.3322475979
 20
-34.7977588015
 30
0.0
 11
167.3322475979
 21
-18.2936008015
 31
0.0
  0
LINE
  5
D6
330
1F
100
AcDbEntity
  8
0
  6
Continuous
 62
     7
100
AcDbLine
 10
174.9341597971
 20
34.7197481967
 30
0.0
 11
174.9341597971
 21
38.7207561967
 31
0.0
  0
LINE
  5
D7
330
1F
100
AcDbEntity
  8
0
  6
Continuous
 62
     7
100
AcDbLine
 10
173.3337575974
 20
11.7139521967
 30
0.0
 11
174.9341597971
 21
11.7139521967
 31
0.0
  0
LINE
  5
D8
330
1F
100
AcDbEntity
  8
0
  6
Continuous
 62
     7
100
AcDbLine
 10
173.3337575974
 20
15.7149601967
 30
0.0
 11
174.9341597971
 21
15.7149601967
 31
0.0
  0
LINE
  5
D9
330
1F
100
AcDbEntity
  8
0
  6
Continuous
 62
     7
100
AcDbLine
 10
173.3337575974
 20
-7.2908288015
 30
0.0
 11
173.3337575974
 21
11.7139521967
 31
0.0
  0
LINE
  5
DA
330
1F
100
AcDbEntity
  8
0
  6
Continuous
 62
     7
100
AcDbLine
 10
173.3337575974
 20
34.7197481967
 30
0.0
 11
174.9341597971
 21
34.7197481967
 31
0.0
  0
LINE
  5
DB
330
1F
100
AcDbEntity
  8
0
  6
Continuous
 62
     7
100
AcDbLine
 10
173.3337575974
 20
38.7207561967
 30
0.0
 11
174.9341597971
 21
38.7207561967
 31
0.0
  0
LINE
  5
DC
330
1F
100
AcDbEntity
  8
0
  6
Continuous
 62
     7
100
AcDbLine
 10
174.9341597971
 20
11.7139521967
 30
0.0
 11
174.9341597971
 21
15.7149601967
 31
0.0
  0
LINE
  5
DD
330
1F
100
AcDbEntity
  8
0
  6
Continuous
 62
     7
100
AcDbLine
 10
173.3337575974
 20
15.7149601967
 30
0.0
 11
173.3337575974
 21
34.7197481967
 31
0.0
  0
LINE
  5
DE
330
1F
100
AcDbEntity
  8
0
  6
Continuous
 62
     7
100
AcDbLine
 10
174.9341597971
 20
-13.2923408015
 30
0.0
 11
174.9341597971
 21
-17.2933488015
 31
0.0
  0
LINE
  5
DF
330
1F
100
AcDbEntity
  8
0
  6
Continuous
 62
     7
100
AcDbLine
 10
173.3337575974
 20
-7.2908288015
 30
0.0
 11
174.9341597971
 21
-7.2908288015
 31
0.0
  0
LINE
  5
E0
330
1F
100
AcDbEntity
  8
0
  6
Continuous
 62
     7
100
AcDbLine
 10
173.3337575974
 20
-11.2918368015
 30
0.0
 11
174.9341597971
 21
-11.2918368015
 31
0.0
  0
LINE
  5
E1
330
1F
100
AcDbEntity
  8
0
  6
Continuous
 62
     7
100
AcDbLine
 10
173.3337575974
 20
-17.2933488015
 30
0.0
 11
173.3337575974
 21
-11.2918368015
 31
0.0
  0
LINE
  5
E2
330
1F
100
AcDbEntity
  8
0
  6
Continuous
 62
     7
100
AcDbLine
 10
173.3337575974
 20
-13.2923408015
 30
0.0
 11
174.9341597971
 21
-13.2923408015
 31
0.0
  0
LINE
  5
E3
330
1F
100
AcDbEntity
  8
0
  6
Continuous
 62
     7
100
AcDbLine
 10
174.9341597971
 20
-7.2908288015
 30
0.0
 11
174.9341597971
 21
-11.2918368015
 31
0.0
  0
LINE
  5
E4
330
1F
100
AcDbEntity
  8
0
  6
Continuous
 62
     7
100
AcDbLine
 10
173.3337575974
 20
40.7212601967
 30
0.0
 11
174.9341597971
 21
40.7212601967
 31
0.0
  0
LINE
  5
E5
330
1F
100
AcDbEntity
  8
0
  6
Continuous
 62
     7
100
AcDbLine
 10
174.9341597971
 20
40.7212601967
 30
0.0
 11
174.9341597971
 21
44.7222681967
 31
0.0
  0
LINE
  5
E6
330
1F
100
AcDbEntity
  8
0
  6
Continuous
 62
     7
100
AcDbLine
 10
136.8245605976
 20
-13.2923408015
 30
0.0
 11
140.8255685976
 21
-13.2923408015
 31
0.0
  0
LINE
  5
E7
330
1F
100
AcDbEntity
  8
0
  6
Continuous
 62
     7
100
AcDbLine
 10
136.8245605976
 20
-17.2933488015
 30
0.0
 11
140.8255685976
 21
-17.2933488015
 31
0.0
  0
ARC
  5
E8
330
1F
100
AcDbEntity
  8
0
  6
Continuous
 62
     7
100
AcDbCircle
 10
140.8255685976
 20
-15.2928448015
 30
0.0
 40
2.000504000000046
100
AcDbArc
 50
270.000015
 51
0.0
  0
ARC
  5
E9
330
1F
100
AcDbEntity
  8
0
  6
Continuous
 62
     7
100
AcDbCircle
 10
140.8255685976
 20
-15.2928448015
 30
0.0
 40
2.000503999999978
100
AcDbArc
 50
0.0
 51
90.0
  0
ARC
  5
EA
330
1F
100
AcDbEntity
  8
0
  6
Continuous
 62
     7
100
AcDbCircle
 10
136.8245605976
 20
-15.2928448015
 30
0.0
 40
2.000504000000063
100
AcDbArc
 50
180.0
 51
270.0
  0
ARC
  5
EB
330
1F
100
AcDbEntity
  8
0
  6
Continuous
 62
     7
100
AcDbCircle
 10
136.8245605976
 20
-15.2928448015
 30
0.0
 40
2.000504000000008
100
AcDbArc
 50
90.00001
 51
179.999992
  0
LINE
  5
EC
330
1F
100
AcDbEntity
  8
0
  6
Continuous
 62
     7
100
AcDbLine
 10
128.0723555976
 20
3.9118155536
 30
0.0
 11
128.0723555976
 21
23.5167297473
 31
0.0
  0
ARC
  5
ED
330
1F
100
AcDbEntity
  8
0
  6
Continuous
 62
     7
100
AcDbCircle
 10
138.8250645976
 20
2.9617471967
 30
0.0
 40
10.75270900000024
100
AcDbArc
 50
187.752701
 51
352.247192
  0
ARC
  5
EE
330
1F
100
AcDbEntity
  8
0
  6
Continuous
 62
     7
100
AcDbCircle
 10
138.8250645976
 20
24.4671651967
 30
0.0
 40
10.75270899999988
100
AcDbArc
 50
7.750977
 51
172.248825
  0
LINE
  5
EF
330
1F
100
AcDbEntity
  8
0
  6
Continuous
 62
     7
100
AcDbLine
 10
140.8255685976
 20
40.7212601967
 30
0.0
 11
140.8255685976
 21
44.7222681967
 31
0.0
  0
LINE
  5
F0
330
1F
100
AcDbEntity
  8
0
  6
Continuous
 62
     7
100
AcDbLine
 10
136.8245605976
 20
40.7212601967
 30
0.0
 11
136.8245605976
 21
44.7222681967
 31
0.0
  0
ARC
  5
F1
330
1F
100
AcDbEntity
  8
0
  6
Continuous
 62
     7
100
AcDbCircle
 10
138.8250645976
 20
40.7212601967
 30
0.0
 40
2.000503999999978
100
AcDbArc
 50
180.0
 51
270.0
  0
ARC
  5
F2
330
1F
100
AcDbEntity
  8
0
  6
Continuous
 62
     7
100
AcDbCircle
 10
138.8250645976
 20
40.7212601967
 30
0.0
 40
2.000504000000046
100
AcDbArc
 50
270.000015
 51
0.0
  0
ARC
  5
F3
330
1F
100
AcDbEntity
  8
0
  6
Continuous
 62
     7
100
AcDbCircle
 10
138.8250645976
 20
44.7222681967
 30
0.0
 40
2.00050399999995
100
AcDbArc
 50
0.0
 51
90.0
  0
ARC
  5
F4
330
1F
100
AcDbEntity
  8
0
  6
Continuous
 62
     7
100
AcDbCircle
 10
138.8250645976
 20
44.7222681967
 30
0.0
 40
2.000504000000008
100
AcDbArc
 50
90.00001
 51
179.999992
  0
LINE
  5
F5
330
1F
100
AcDbEntity
  8
0
  6
Continuous
 62
     7
100
AcDbLine
 10
162.3309875979
 20
9.2133221967
 30
0.0
 11
162.3309875979
 21
13.7144561967
 31
0.0
  0
LINE
  5
F6
330
1F
100
AcDbEntity
  8
0
  6
Continuous
 62
     7
100
AcDbLine
 10
162.3309875979
 20
9.2133221967
 30
0.0
 11
164.8316175979
 21
9.2133221967
 31
0.0
  0
LINE
  5
F7
330
1F
100
AcDbEntity
  8
0
  6
Continuous
 62
     7
100
AcDbLine
 10
162.3309875979
 20
-15.7929708015
 30
0.0
 11
162.3309875979
 21
-6.7907028015
 31
0.0
  0
LINE
  5
F8
330
1F
100
AcDbEntity
  8
0
  6
Continuous
 62
     7
100
AcDbLine
 10
162.3309875979
 20
-15.7929708015
 30
0.0
 11
164.8316175979
 21
-15.7929708015
 31
0.0
  0
LINE
  5
F9
330
1F
100
AcDbEntity
  8
0
  6
Continuous
 62
     7
100
AcDbLine
 10
162.3309875979
 20
-6.7907028015
 30
0.0
 11
164.8316175979
 21
-6.7907028015
 31
0.0
  0
LINE
  5
FA
330
1F
100
AcDbEntity
  8
0
  6
Continuous
 62
     7
100
AcDbLine
 10
114.0188209991
 20
11.2138261967
 30
0.0
 11
114.0188209991
 21
13.7144561967
 31
0.0
  0
LINE
  5
FB
330
1F
100
AcDbEntity
  8
0
  6
Continuous
 62
     7
100
AcDbLine
 10
115.3191435979
 20
-15.7929708015
 30
0.0
 11
115.3191435979
 21
-6.7907028015
 31
0.0
  0
LINE
  5
FC
330
1F
100
AcDbEntity
  8
0
  6
Continuous
 62
     7
100
AcDbLine
 10
115.3191435979
 20
-15.7929708015
 30
0.0
 11
112.8185065961
 21
-15.7929708015
 31
0.0
  0
LINE
  5
FD
330
1F
100
AcDbEntity
  8
0
  6
Continuous
 62
     7
100
AcDbLine
 10
115.3191435979
 20
-6.7907028015
 30
0.0
 11
112.8185065961
 21
-6.7907028015
 31
0.0
  0
LINE
  5
FE
330
1F
100
AcDbEntity
  8
0
  6
Continuous
 62
     7
100
AcDbLine
 10
125.8217885976
 20
-0.2890718033
 30
0.0
 11
125.8217885976
 21
3.7119361967
 31
0.0
  0
LINE
  5
FF
330
1F
100
AcDbEntity
  8
0
  6
Continuous
 62
     7
100
AcDbLine
 10
121.8207805976
 20
-0.2890718033
 30
0.0
 11
121.8207805976
 21
3.7119361967
 31
0.0
  0
ARC
  5
100
330
1F
100
AcDbEntity
  8
0
  6
Continuous
 62
     7
100
AcDbCircle
 10
123.8212845976
 20
-0.2890718033
 30
0.0
 40
2.000504000000006
100
AcDbArc
 50
180.0
 51
270.0
  0
ARC
  5
101
330
1F
100
AcDbEntity
  8
0
  6
Continuous
 62
     7
100
AcDbCircle
 10
123.8212845976
 20
-0.2890718033
 30
0.0
 40
2.000504000000046
100
AcDbArc
 50
270.000015
 51
0.0
  0
ARC
  5
102
330
1F
100
AcDbEntity
  8
0
  6
Continuous
 62
     7
100
AcDbCircle
 10
123.8212845976
 20
3.7119361967
 30
0.0
 40
2.000504000000008
100
AcDbArc
 50
90.00001
 51
179.999992
  0
ARC
  5
103
330
1F
100
AcDbEntity
  8
0
  6
Continuous
 62
     7
100
AcDbCircle
 10
123.8212845976
 20
3.7119361967
 30
0.0
 40
2.000504000000021
100
AcDbArc
 50
0.0
 51
90.0
  0
LINE
  5
104
330
1F
100
AcDbEntity
  8
0
  6
Continuous
 62
     7
100
AcDbLine
 10
151.8283415979
 20
-0.2890718033
 30
0.0
 11
151.8283415979
 21
3.7119361967
 31
0.0
  0
LINE
  5
105
330
1F
100
AcDbEntity
  8
0
  6
Continuous
 62
     7
100
AcDbLine
 10
155.8293495979
 20
-0.2890718033
 30
0.0
 11
155.8293495979
 21
3.7119361967
 31
0.0
  0
ARC
  5
106
330
1F
100
AcDbEntity
  8
0
  6
Continuous
 62
     7
100
AcDbCircle
 10
153.8288455979
 20
-0.2890718033
 30
0.0
 40
2.000504000000046
100
AcDbArc
 50
269.999985
 51
0.0
  0
ARC
  5
107
330
1F
100
AcDbEntity
  8
0
  6
Continuous
 62
     7
100
AcDbCircle
 10
153.8288455979
 20
-0.2890718033
 30
0.0
 40
2.00050399999995
100
AcDbArc
 50
180.0
 51
269.999985
  0
ARC
  5
108
330
1F
100
AcDbEntity
  8
0
  6
Continuous
 62
     7
100
AcDbCircle
 10
153.8288455979
 20
3.7119361967
 30
0.0
 40
2.00050399999995
100
AcDbArc
 50
0.0
 51
90.0
  0
ARC
  5
109
330
1F
100
AcDbEntity
  8
0
  6
Continuous
 62
     7
100
AcDbCircle
 10
153.8288455979
 20
3.7119361967
 30
0.0
 40
2.000503999999978
100
AcDbArc
 50
90.0
 51
180.0
  0
ARC
  5
10A
330
1F
100
AcDbEntity
  8
0
  6
Continuous
 62
     7
100
AcDbCircle
 10
154.8290975979
 20
-22.2946088015
 30
0.0
 40
7.50189000000003
100
AcDbArc
 50
19.471222
 51
90.0
  0
ARC
  5
10B
330
1F
100
AcDbEntity
  8
0
  6
Continuous
 62
     7
100
AcDbCircle
 10
154.8290975979
 20
-22.2946088015
 30
0.0
 40
7.501890000000572
100
AcDbArc
 50
90.00001
 51
160.528778
  0
LINE
  5
10C
330
1F
100
AcDbEntity
  8
0
  6
Continuous
 62
     7
100
AcDbLine
 10
151.8283415979
 20
-10.2915848015
 30
0.0
 11
155.8293495979
 21
-10.2915848015
 31
0.0
  0
LINE
  5
10D
330
1F
100
AcDbEntity
  8
0
  6
Continuous
 62
     7
100
AcDbLine
 10
151.8283415979
 20
-6.2905768015
 30
0.0
 11
155.8293495979
 21
-6.2905768015
 31
0.0
  0
ARC
  5
10E
330
1F
100
AcDbEntity
  8
0
  6
Continuous
 62
     7
100
AcDbCircle
 10
155.8293495979
 20
-8.2910808015
 30
0.0
 40
2.000504000000046
100
AcDbArc
 50
270.000015
 51
0.0
  0
ARC
  5
10F
330
1F
100
AcDbEntity
  8
0
  6
Continuous
 62
     7
100
AcDbCircle
 10
155.8293495979
 20
-8.2910808015
 30
0.0
 40
2.00050399999995
100
AcDbArc
 50
0.0
 51
90.00001
  0
ARC
  5
110
330
1F
100
AcDbEntity
  8
0
  6
Continuous
 62
     7
100
AcDbCircle
 10
151.8283415979
 20
-8.2910808015
 30
0.0
 40
2.00050399999995
100
AcDbArc
 50
180.0
 51
270.0
  0
ARC
  5
111
330
1F
100
AcDbEntity
  8
0
  6
Continuous
 62
     7
100
AcDbCircle
 10
151.8283415979
 20
-8.2910808015
 30
0.0
 40
2.000504000000008
100
AcDbArc
 50
90.00001
 51
179.999992
  0
LINE
  5
112
330
1F
100
AcDbEntity
  8
0
  6
Continuous
 62
     7
100
AcDbLine
 10
125.8217885976
 20
-10.2915848015
 30
0.0
 11
121.8207805976
 21
-10.2915848015
 31
0.0
  0
LINE
  5
113
330
1F
100
AcDbEntity
  8
0
  6
Continuous
 62
     7
100
AcDbLine
 10
125.8217885976
 20
-6.2905768015
 30
0.0
 11
121.8207805976
 21
-6.2905768015
 31
0.0
  0
ARC
  5
114
330
1F
100
AcDbEntity
  8
0
  6
Continuous
 62
     7
100
AcDbCircle
 10
121.8207805976
 20
-8.2910808015
 30
0.0
 40
2.00050400000012
100
AcDbArc
 50
180.0
 51
269.999985
  0
ARC
  5
115
330
1F
100
AcDbEntity
  8
0
  6
Continuous
 62
     7
100
AcDbCircle
 10
121.8207805976
 20
-8.2910808015
 30
0.0
 40
2.000503999999978
100
AcDbArc
 50
90.0
 51
180.0
  0
ARC
  5
116
330
1F
100
AcDbEntity
  8
0
  6
Continuous
 62
     7
100
AcDbCircle
 10
125.8217885976
 20
-8.2910808015
 30
0.0
 40
2.000504000000046
100
AcDbArc
 50
269.999985
 51
0.0
  0
ARC
  5
117
330
1F
100
AcDbEntity
  8
0
  6
Continuous
 62
     7
100
AcDbCircle
 10
125.8217885976
 20
-8.2910808015
 30
0.0
 40
2.000504000000021
100
AcDbArc
 50
0.0
 51
90.0
  0
ARC
  5
118
330
1F
100
AcDbEntity
  8
0
  6
Continuous
 62
     7
100
AcDbCircle
 10
138.8250645976
 20
2.9617471967
 30
0.0
 40
9.752457000000227
100
AcDbArc
 50
187.522079
 51
352.477814
  0
LINE
  5
119
330
1F
100
AcDbEntity
  8
0
  6
Continuous
 62
     7
100
AcDbLine
 10
129.0726075976
 20
3.7354401182
 30
0.0
 11
129.0726075976
 21
11.9640151967
 31
0.0
  0
LINE
  5
11A
330
1F
100
AcDbEntity
  8
0
  6
Continuous
 62
     7
100
AcDbLine
 10
148.5775215976
 20
3.7354401182
 30
0.0
 11
148.5775215976
 21
11.9640151967
 31
0.0
  0
ARC
  5
11B
330
1F
100
AcDbEntity
  8
0
  6
Continuous
 62
     7
100
AcDbCircle
 10
143.5762615976
 20
13.7144561967
 30
0.0
 40
4.501134000000247
100
AcDbArc
 50
270.000015
 51
337.114624
  0
ARC
  5
11C
330
1F
100
AcDbEntity
  8
0
  6
Continuous
 62
     7
100
AcDbCircle
 10
134.0738675976
 20
13.7144561967
 30
0.0
 40
4.501134000000184
100
AcDbArc
 50
202.885376
 51
269.999985
  0
LINE
  5
11D
330
1F
100
AcDbEntity
  8
0
  6
Continuous
 62
     7
100
AcDbLine
 10
112.8185065961
 20
15.2148341967
 30
0.0
 11
112.8185065961
 21
13.7144561967
 31
0.0
  0
LINE
  5
11E
330
1F
100
AcDbEntity
  8
0
  6
Continuous
 62
     7
100
AcDbLine
 10
162.3309875979
 20
18.2155901967
 30
0.0
 11
162.3309875979
 21
13.7144561967
 31
0.0
  0
LINE
  5
11F
330
1F
100
AcDbEntity
  8
0
  6
Continuous
 62
     7
100
AcDbLine
 10
162.3309875979
 20
18.2155901967
 30
0.0
 11
164.8316175979
 21
18.2155901967
 31
0.0
  0
LINE
  5
120
330
1F
100
AcDbEntity
  8
0
  6
Continuous
 62
     7
100
AcDbLine
 10
162.3309875979
 20
43.2218901967
 30
0.0
 11
162.3309875979
 21
34.2196221967
 31
0.0
  0
LINE
  5
121
330
1F
100
AcDbEntity
  8
0
  6
Continuous
 62
     7
100
AcDbLine
 10
162.3309875979
 20
43.2218901967
 30
0.0
 11
164.8316175979
 21
43.2218901967
 31
0.0
  0
LINE
  5
122
330
1F
100
AcDbEntity
  8
0
  6
Continuous
 62
     7
100
AcDbLine
 10
162.3309875979
 20
34.2196221967
 30
0.0
 11
164.8316175979
 21
34.2196221967
 31
0.0
  0
LINE
  5
123
330
1F
100
AcDbEntity
  8
0
  6
Continuous
 62
     7
100
AcDbLine
 10
114.0188209991
 20
17.2153381967
 30
0.0
 11
114.0188209991
 21
13.7144561967
 31
0.0
  0
LINE
  5
124
330
1F
100
AcDbEntity
  8
0
  6
Continuous
 62
     7
100
AcDbLine
 10
112.8185065961
 20
17.2153381967
 30
0.0
 11
114.0188209991
 21
17.2153381967
 31
0.0
  0
LINE
  5
125
330
1F
100
AcDbEntity
  8
0
  6
Continuous
 62
     7
100
AcDbLine
 10
115.3191435979
 20
43.2218901967
 30
0.0
 11
115.3191435979
 21
34.2196221967
 31
0.0
  0
LINE
  5
126
330
1F
100
AcDbEntity
  8
0
  6
Continuous
 62
     7
100
AcDbLine
 10
115.3191435979
 20
43.2218901967
 30
0.0
 11
112.8185065961
 21
43.2218901967
 31
0.0
  0
LINE
  5
127
330
1F
100
AcDbEntity
  8
0
  6
Continuous
 62
     7
100
AcDbLine
 10
115.3191435979
 20
34.2196221967
 30
0.0
 11
112.8185065961
 21
34.2196221967
 31
0.0
  0
LINE
  5
128
330
1F
100
AcDbEntity
  8
0
  6
Continuous
 62
     7
100
AcDbLine
 10
125.8217885976
 20
27.7179841967
 30
0.0
 11
125.8217885976
 21
23.7169761967
 31
0.0
  0
LINE
  5
129
330
1F
100
AcDbEntity
  8
0
  6
Continuous
 62
     7
100
AcDbLine
 10
121.8207805976
 20
27.7179841967
 30
0.0
 11
121.8207805976
 21
23.7169761967
 31
0.0
  0
ARC
  5
12A
330
1F
100
AcDbEntity
  8
0
  6
Continuous
 62
     7
100
AcDbCircle
 10
123.8212845976
 20
27.7179841967
 30
0.0
 40
2.000503999999921
100
AcDbArc
 50
90.0
 51
179.999992
  0
ARC
  5
12B
330
1F
100
AcDbEntity
  8
0
  6
Continuous
 62
     7
100
AcDbCircle
 10
123.8212845976
 20
27.7179841967
 30
0.0
 40
2.000504000000021
100
AcDbArc
 50
0.0
 51
90.0
  0
ARC
  5
12C
330
1F
100
AcDbEntity
  8
0
  6
Continuous
 62
     7
100
AcDbCircle
 10
123.8212845976
 20
23.7169761967
 30
0.0
 40
2.000504000000026
100
AcDbArc
 50
180.000008
 51
269.999985
  0
ARC
  5
12D
330
1F
100
AcDbEntity
  8
0
  6
Continuous
 62
     7
100
AcDbCircle
 10
123.8212845976
 20
23.7169761967
 30
0.0
 40
2.000504000000046
100
AcDbArc
 50
270.000015
 51
0.0
  0
LINE
  5
12E
330
1F
100
AcDbEntity
  8
0
  6
Continuous
 62
     7
100
AcDbLine
 10
151.8283415979
 20
27.7179841967
 30
0.0
 11
151.8283415979
 21
23.7169761967
 31
0.0
  0
LINE
  5
12F
330
1F
100
AcDbEntity
  8
0
  6
Continuous
 62
     7
100
AcDbLine
 10
155.8293495979
 20
27.7179841967
 30
0.0
 11
155.8293495979
 21
23.7169761967
 31
0.0
  0
ARC
  5
130
330
1F
100
AcDbEntity
  8
0
  6
Continuous
 62
     7
100
AcDbCircle
 10
153.8288455979
 20
27.7179841967
 30
0.0
 40
2.00050399999995
100
AcDbArc
 50
0.0
 51
90.000009
  0
ARC
  5
131
330
1F
100
AcDbEntity
  8
0
  6
Continuous
 62
     7
100
AcDbCircle
 10
153.8288455979
 20
27.7179841967
 30
0.0
 40
2.000503999999946
100
AcDbArc
 50
90.000009
 51
179.999992
  0
ARC
  5
132
330
1F
100
AcDbEntity
  8
0
  6
Continuous
 62
     7
100
AcDbCircle
 10
153.8288455979
 20
23.7169761967
 30
0.0
 40
2.000504000000046
100
AcDbArc
 50
270.000015
 51
0.0
  0
ARC
  5
133
330
1F
100
AcDbEntity
  8
0
  6
Continuous
 62
     7
100
AcDbCircle
 10
153.8288455979
 20
23.7169761967
 30
0.0
 40
2.000503999999969
100
AcDbArc
 50
179.999992
 51
270.0
  0
ARC
  5
134
330
1F
100
AcDbEntity
  8
0
  6
Continuous
 62
     7
100
AcDbCircle
 10
154.8290975979
 20
49.7235281967
 30
0.0
 40
7.501889999999976
100
AcDbArc
 50
270.000015
 51
340.528778
  0
ARC
  5
135
330
1F
100
AcDbEntity
  8
0
  6
Continuous
 62
     7
100
AcDbCircle
 10
154.8290975979
 20
49.7235281967
 30
0.0
 40
7.501889999999976
100
AcDbArc
 50
199.471222
 51
269.999985
  0
LINE
  5
136
330
1F
100
AcDbEntity
  8
0
  6
Continuous
 62
     7
100
AcDbLine
 10
151.8283415979
 20
37.7205041967
 30
0.0
 11
155.8293495979
 21
37.7205041967
 31
0.0
  0
LINE
  5
137
330
1F
100
AcDbEntity
  8
0
  6
Continuous
 62
     7
100
AcDbLine
 10
151.8283415979
 20
33.7194961967
 30
0.0
 11
155.8293495979
 21
33.7194961967
 31
0.0
  0
ARC
  5
138
330
1F
100
AcDbEntity
  8
0
  6
Continuous
 62
     7
100
AcDbCircle
 10
155.8293495979
 20
35.7200001967
 30
0.0
 40
2.00050399999995
100
AcDbArc
 50
0.0
 51
90.0
  0
ARC
  5
139
330
1F
100
AcDbEntity
  8
0
  6
Continuous
 62
     7
100
AcDbCircle
 10
155.8293495979
 20
35.7200001967
 30
0.0
 40
2.000504000000046
100
AcDbArc
 50
269.999985
 51
0.0
  0
ARC
  5
13A
330
1F
100
AcDbEntity
  8
0
  6
Continuous
 62
     7
100
AcDbCircle
 10
151.8283415979
 20
35.7200001967
 30
0.0
 40
2.000503999999978
100
AcDbArc
 50
90.0
 51
179.999992
  0
ARC
  5
13B
330
1F
100
AcDbEntity
  8
0
  6
Continuous
 62
     7
100
AcDbCircle
 10
151.8283415979
 20
35.7200001967
 30
0.0
 40
2.000503999999969
100
AcDbArc
 50
180.000008
 51
269.999985
  0
LINE
  5
13C
330
1F
100
AcDbEntity
  8
0
  6
Continuous
 62
     7
100
AcDbLine
 10
125.8217885976
 20
37.7205041967
 30
0.0
 11
121.8207805976
 21
37.7205041967
 31
0.0
  0
LINE
  5
13D
330
1F
100
AcDbEntity
  8
0
  6
Continuous
 62
     7
100
AcDbLine
 10
125.8217885976
 20
33.7194961967
 30
0.0
 11
121.8207805976
 21
33.7194961967
 31
0.0
  0
ARC
  5
13E
330
1F
100
AcDbEntity
  8
0
  6
Continuous
 62
     7
100
AcDbCircle
 10
121.8207805976
 20
35.7200001967
 30
0.0
 40
2.000504000000003
100
AcDbArc
 50
90.000009
 51
179.999992
  0
ARC
  5
13F
330
1F
100
AcDbEntity
  8
0
  6
Continuous
 62
     7
100
AcDbCircle
 10
121.8207805976
 20
35.7200001967
 30
0.0
 40
2.00050400000004
100
AcDbArc
 50
179.999992
 51
270.0
  0
ARC
  5
140
330
1F
100
AcDbEntity
  8
0
  6
Continuous
 62
     7
100
AcDbCircle
 10
125.8217885976
 20
35.7200001967
 30
0.0
 40
2.000504000000021
100
AcDbArc
 50
0.0
 51
90.000009
  0
ARC
  5
141
330
1F
100
AcDbEntity
  8
0
  6
Continuous
 62
     7
100
AcDbCircle
 10
125.8217885976
 20
35.7200001967
 30
0.0
 40
2.000504000000046
100
AcDbArc
 50
270.000015
 51
0.0
  0
ARC
  5
142
330
1F
100
AcDbEntity
  8
0
  6
Continuous
 62
     7
100
AcDbCircle
 10
138.8250645976
 20
24.4671651967
 30
0.0
 40
9.752456999999971
100
AcDbArc
 50
7.520142
 51
172.479607
  0
LINE
  5
143
330
1F
100
AcDbEntity
  8
0
  6
Continuous
 62
     7
100
AcDbLine
 10
129.0726075976
 20
23.6931051827
 30
0.0
 11
129.0726075976
 21
15.4648971967
 31
0.0
  0
LINE
  5
144
330
1F
100
AcDbEntity
  8
0
  6
Continuous
 62
     7
100
AcDbLine
 10
148.5775215976
 20
23.6931661981
 30
0.0
 11
148.5775215976
 21
15.4648971967
 31
0.0
  0
LINE
  5
145
330
1F
100
AcDbEntity
  8
0
  6
Continuous
 62
     7
100
AcDbLine
 10
134.0738675976
 20
18.2155901967
 30
0.0
 11
143.5762615976
 21
18.2155901967
 31
0.0
  0
LINE
  5
146
330
1F
100
AcDbEntity
  8
0
  6
Continuous
 62
     7
100
AcDbLine
 10
112.8343645913
 20
12.7142041967
 30
0.0
 11
113.8187655979
 21
12.7142041967
 31
0.0
  0
LINE
  5
147
330
1F
100
AcDbEntity
  8
0
  6
Continuous
 62
     7
100
AcDbLine
 10
113.8187655979
 20
12.2140781967
 30
0.0
 11
113.8187655979
 21
12.7142041967
 31
0.0
  0
LINE
  5
148
330
1F
100
AcDbEntity
  8
0
  6
Continuous
 62
     7
100
AcDbLine
 10
113.8186935797
 20
12.2124067756
 30
0.0
 11
112.8184185739
 21
11.2121317698
 31
0.0
  0
LINE
  5
149
330
1F
100
AcDbEntity
  8
0
  6
Continuous
 62
     7
100
AcDbLine
 10
112.8185065961
 20
14.7147081967
 30
0.0
 11
113.8187655979
 21
14.7147081967
 31
0.0
  0
LINE
  5
14A
330
1F
100
AcDbEntity
  8
0
  6
Continuous
 62
     7
100
AcDbLine
 10
113.8187655979
 20
15.2148341967
 30
0.0
 11
113.8187655979
 21
14.7147081967
 31
0.0
  0
LINE
  5
14B
330
1F
100
AcDbEntity
  8
0
  6
Continuous
 62
     7
100
AcDbLine
 10
113.818460521
 20
15.2131017603
 30
0.0
 11
112.8181855152
 21
16.2133767661
 31
0.0
  0
LINE
  5
14C
330
1F
100
AcDbEntity
  8
0
  6
Continuous
 62
     7
100
AcDbLine
 10
112.8185065961
 20
47.2228981967
 30
0.0
 11
112.8185065961
 21
-19.7939788015
 31
0.0
  0
LINE
  5
14D
330
1F
100
AcDbEntity
  8
0
  6
Continuous
 62
     7
100
AcDbLine
 10
157.5797905979
 20
11.2138261967
 30
0.0
 11
159.5802945979
 21
11.2138261967
 31
0.0
  0
ARC
  5
14E
330
1F
100
AcDbEntity
  8
0
  6
Continuous
 62
     7
100
AcDbCircle
 10
157.5797905979
 20
11.9640151967
 30
0.0
 40
0.7501889999995228
100
AcDbArc
 50
90.0
 51
270.0
  0
ARC
  5
14F
330
1F
100
AcDbEntity
  8
0
  6
Continuous
 62
     7
100
AcDbCircle
 10
159.5802945979
 20
11.9640151967
 30
0.0
 40
0.7501889999999776
100
AcDbArc
 50
0.0
 51
90.0
  0
ARC
  5
150
330
1F
100
AcDbEntity
  8
0
  6
Continuous
 62
     7
100
AcDbCircle
 10
159.5802945979
 20
11.9640151967
 30
0.0
 40
0.7501890000002874
100
AcDbArc
 50
270.000015
 51
0.0
  0
LINE
  5
151
330
1F
100
AcDbEntity
  8
0
  6
Continuous
 62
     7
100
AcDbLine
 10
112.8185065961
 20
10.2135741967
 30
0.0
 11
114.0188209991
 21
10.2135741967
 31
0.0
  0
LINE
  5
152
330
1F
100
AcDbEntity
  8
0
  6
Continuous
 62
     7
100
AcDbLine
 10
112.8185065961
 20
-18.7937268015
 30
0.0
 11
115.5692065979
 21
-18.7937268015
 31
0.0
  0
ARC
  5
153
330
1F
100
AcDbEntity
  8
0
  6
Continuous
 62
     7
100
AcDbCircle
 10
115.5692065979
 20
-18.0435378015
 30
0.0
 40
0.7501890000002874
100
AcDbArc
 50
270.000015
 51
302.230927
  0
ARC
  5
154
330
1F
100
AcDbEntity
  8
0
  6
Continuous
 62
     7
100
AcDbCircle
 10
115.5692065979
 20
-18.0435378015
 30
0.0
 40
0.7501889999994453
100
AcDbArc
 50
57.769073
 51
90.0
  0
LINE
  5
155
330
1F
100
AcDbEntity
  8
0
  6
Continuous
 62
     7
100
AcDbLine
 10
119.9703163981
 20
-17.2933488015
 30
0.0
 11
120.6204741966
 21
-17.2933488015
 31
0.0
  0
LINE
  5
156
330
1F
100
AcDbEntity
  8
0
  6
Continuous
 62
     7
100
AcDbLine
 10
173.3337575974
 20
34.7197481967
 30
0.0
 11
174.9341597971
 21
34.7197481967
 31
0.0
  0
LINE
  5
157
330
1F
100
AcDbEntity
  8
0
  6
Continuous
 62
     7
100
AcDbLine
 10
139.3251905976
 20
26.7177321967
 30
0.0
 11
139.3251905976
 21
34.2067399512
 31
0.0
  0
LINE
  5
158
330
1F
100
AcDbEntity
  8
0
  6
Continuous
 62
     7
100
AcDbLine
 10
138.3249385976
 20
26.7177321967
 30
0.0
 11
138.3249385976
 21
34.2067399512
 31
0.0
  0
LINE
  5
159
330
1F
100
AcDbEntity
  8
0
  6
Continuous
 62
     7
100
AcDbLine
 10
139.3251905976
 20
-6.7778815714
 30
0.0
 11
139.3251905976
 21
0.7111801967
 31
0.0
  0
LINE
  5
15A
330
1F
100
AcDbEntity
  8
0
  6
Continuous
 62
     7
100
AcDbLine
 10
138.3249385976
 20
-6.7778815714
 30
0.0
 11
138.3249385976
 21
0.7111801967
 31
0.0
  0
LINE
  5
15B
330
1F
100
AcDbEntity
  8
0
  6
Continuous
 62
     7
100
AcDbLine
 10
139.3251905976
 20
2.7116841967
 30
0.0
 11
139.3251905976
 21
9.2133221967
 31
0.0
  0
LINE
  5
15C
330
1F
100
AcDbEntity
  8
0
  6
Continuous
 62
     7
100
AcDbLine
 10
138.3249385976
 20
2.7116841967
 30
0.0
 11
138.3249385976
 21
9.2133221967
 31
0.0
  0
LINE
  5
15D
330
1F
100
AcDbEntity
  8
0
  6
Continuous
 62
     7
100
AcDbLine
 10
138.3249385976
 20
18.2155901967
 30
0.0
 11
138.3249385976
 21
24.7172281967
 31
0.0
  0
LINE
  5
15E
330
1F
100
AcDbEntity
  8
0
  6
Continuous
 62
     7
100
AcDbLine
 10
139.3251905976
 20
18.2155901967
 30
0.0
 11
139.3251905976
 21
24.7172281967
 31
0.0
  0
LINE
  5
15F
330
1F
100
AcDbEntity
  8
0
  6
Continuous
 62
     7
100
AcDbLine
 10
134.0738675976
 20
9.2133221967
 30
0.0
 11
143.5762615976
 21
9.2133221967
 31
0.0
  0
LINE
  5
160
330
1F
100
AcDbEntity
  8
0
  6
Continuous
 62
     7
100
AcDbLine
 10
172.3334755898
 20
12.2140781967
 30
0.0
 11
172.3334755898
 21
15.2148341967
 31
0.0
  0
LINE
  5
161
330
1F
100
AcDbEntity
  8
0
  6
Continuous
 62
     7
100
AcDbLine
 10
172.3331285024
 20
12.215222485
 30
0.0
 11
174.8344486763
 21
13.7155624754
 31
0.0
  0
LINE
  5
162
330
1F
100
AcDbEntity
  8
0
  6
Continuous
 62
     7
100
AcDbLine
 10
174.8344486763
 20
13.7155624754
 30
0.0
 11
172.3338306793
 21
15.2159404754
 31
0.0
  0
LINE
  5
163
330
1F
100
AcDbEntity
  8
0
  6
Continuous
 62
     7
100
AcDbLine
 10
112.8192197758
 20
12.2152534928
 30
0.0
 11
110.3175425119
 21
13.7153414197
 31
0.0
  0
LINE
  5
164
330
1F
100
AcDbEntity
  8
0
  6
Continuous
 62
     7
100
AcDbLine
 10
110.3175425119
 20
13.7153414197
 30
0.0
 11
112.8181114966
 21
15.2156804099
 31
0.0
  0
LINE
  5
165
330
1F
100
AcDbEntity
  8
0
  6
Continuous
 62
     7
100
AcDbLine
 10
138.8244644464
 20
-37.2971674938
 30
0.0
 11
137.3241224555
 21
-34.7965985092
 31
0.0
  0
LINE
  5
166
330
1F
100
AcDbEntity
  8
0
  6
Continuous
 62
     7
100
AcDbLine
 10
138.8257057592
 20
-37.2971824976
 30
0.0
 11
140.3260787579
 21
-34.7965685016
 31
0.0
  0
LINE
  5
167
330
1F
100
AcDbEntity
  8
0
  6
Continuous
 62
     7
100
AcDbLine
 10
138.8246965049
 20
64.7280483832
 30
0.0
 11
140.3250695036
 21
62.227425385
 31
0.0
  0
LINE
  5
168
330
1F
100
AcDbEntity
  8
0
  6
Continuous
 62
     7
100
AcDbLine
 10
138.8255237133
 20
64.7280823918
 30
0.0
 11
137.3251507146
 21
62.2274603938
 31
0.0
  0
LINE
  5
169
330
1F
100
AcDbEntity
  8
0
  6
Continuous
 62
     7
100
AcDbLine
 10
148.5776536309
 20
3.7355241394
 30
0.0
 11
149.5778906271
 21
3.9118995748
 31
0.0
  0
LINE
  5
16A
330
1F
100
AcDbEntity
  8
0
  6
Continuous
 62
     7
100
AcDbLine
 10
149.47942482
 20
1.5112697685
 30
0.0
 11
148.4935264362
 21
1.6851115656
 31
0.0
  0
LINE
  5
16B
330
1F
100
AcDbEntity
  8
0
  6
Continuous
 62
     7
100
AcDbLine
 10
129.0725475825
 20
3.7354941318
 30
0.0
 11
128.0722955825
 21
3.911868567
 31
0.0
  0
LINE
  5
16C
330
1F
100
AcDbEntity
  8
0
  6
Continuous
 62
     7
100
AcDbLine
 10
128.1707603894
 20
1.5113007763
 30
0.0
 11
129.1566427692
 21
1.6851415732
 31
0.0
  0
LINE
  5
16D
330
1F
100
AcDbEntity
  8
0
  6
Continuous
 62
     7
100
AcDbLine
 10
149.4796128674
 20
25.9174665806
 30
0.0
 11
148.4937164841
 21
25.7436327855
 31
0.0
  0
LINE
  5
16E
330
1F
100
AcDbEntity
  8
0
  6
Continuous
 62
     7
100
AcDbLine
 10
148.5774525802
 20
23.6932882289
 30
0.0
 11
149.5776965782
 21
23.5169127934
 31
0.0
  0
LINE
  5
16F
330
1F
100
AcDbEntity
  8
0
  6
Continuous
 62
     7
100
AcDbLine
 10
128.1705963481
 20
25.9175045902
 30
0.0
 11
129.1564897306
 21
25.7436627931
 31
0.0
  0
LINE
  5
170
330
1F
100
AcDbEntity
  8
0
  6
Continuous
 62
     7
100
AcDbLine
 10
129.0727436319
 20
23.6932502193
 30
0.0
 11
128.0724916319
 21
23.5168747839
 31
0.0
  0
LINE
  5
171
330
1F
100
AcDbEntity
  8
0
  6
Continuous
 62
     7
100
AcDbLine
 10
135.8243085976
 20
-34.7977588015
 30
0.0
 11
132.0741958073
 21
-34.7977588015
 31
0.0
  0
LINE
  5
172
330
1F
100
AcDbEntity
  8
0
  6
Continuous
 62
     7
100
AcDbLine
 10
145.5759383892
 20
-34.7977588015
 30
0.0
 11
135.538321547
 21
-34.7977588015
 31
0.0
  0
LINE
  5
173
330
1F
100
AcDbEntity
  8
0
  6
Continuous
 62
     7
100
AcDbLine
 10
131.0383968517
 20
-37.2983888015
 30
0.0
 11
146.6117333438
 21
-37.2983888015
 31
0.0
  0
LINE
  5
174
330
1F
100
AcDbEntity
  8
0
  6
Continuous
 62
     7
100
AcDbLine
 10
149.1133906026
 20
-34.7965985092
 30
0.0
 11
146.6127095897
 21
-37.2972745208
 31
0.0
  0
LINE
  5
175
330
1F
100
AcDbEntity
  8
0
  6
Continuous
 62
     7
100
AcDbLine
 10
128.5367736015
 20
-34.7967665515
 30
0.0
 11
131.0374366098
 21
-37.2974265591
 31
0.0
  0
LINE
  5
176
330
1F
100
AcDbEntity
  8
0
  6
Continuous
 62
     7
100
AcDbLine
 10
128.5369606486
 20
62.2274523918
 30
0.0
 11
131.0376216564
 21
64.7281164003
 31
0.0
  0
LINE
  5
177
330
1F
100
AcDbEntity
  8
0
  6
Continuous
 62
     7
100
AcDbLine
 10
149.1132905774
 20
62.227429386
 30
0.0
 11
146.6126275691
 21
64.7280933945
 31
0.0
  0
ARC
  5
178
330
1F
100
AcDbEntity
  8
0
  6
Continuous
 62
     7
100
AcDbCircle
 10
154.8290975979
 20
-22.2946088015
 30
0.0
 40
8.502142000000179
100
AcDbArc
 50
90.00001
 51
162.895363
  0
ARC
  5
179
330
1F
100
AcDbEntity
  8
0
  6
Continuous
 62
     7
100
AcDbCircle
 10
154.8290975979
 20
-22.2946088015
 30
0.0
 40
8.502142000000159
100
AcDbArc
 50
17.104645
 51
90.0
  0
ARC
  5
17A
330
1F
100
AcDbEntity
  8
0
  6
Continuous
 62
     7
100
AcDbCircle
 10
154.8290975979
 20
49.7235281967
 30
0.0
 40
8.502142000000113
100
AcDbArc
 50
197.104637
 51
269.999985
  0
ARC
  5
17B
330
1F
100
AcDbEntity
  8
0
  6
Continuous
 62
     7
100
AcDbCircle
 10
154.8290975979
 20
49.7235281967
 30
0.0
 40
8.50214200000034
100
AcDbArc
 50
270.000015
 51
342.89537
  0
LINE
  5
17C
330
1F
100
AcDbEntity
  8
0
  6
Continuous
 62
     7
100
AcDbLine
 10
121.6207261966
 20
-19.7939788015
 30
0.0
 11
121.6207261966
 21
-18.2936008015
 31
0.0
  0
ARC
  5
17D
330
1F
100
AcDbEntity
  8
0
  6
Continuous
 62
     7
100
AcDbCircle
 10
120.6204741966
 20
-18.2936008015
 30
0.0
 40
1.000252000000103
100
AcDbArc
 50
0.0
 51
90.0
  0
LINE
  5
17E
330
1F
100
AcDbEntity
  8
0
  6
Continuous
 62
     7
100
AcDbLine
 10
168.3324975974
 20
-17.2933488015
 30
0.0
 11
174.9341597971
 21
-17.2933488015
 31
0.0
  0
LINE
  5
17F
330
1F
100
AcDbEntity
  8
0
  6
Continuous
 62
     7
100
AcDbLine
 10
168.3324975974
 20
44.7222681967
 30
0.0
 11
174.9341597971
 21
44.7222681967
 31
0.0
  0
LINE
  5
180
330
1F
100
AcDbEntity
  8
0
  6
Continuous
 62
     7
100
AcDbLine
 10
167.3322475979
 20
-19.7939788015
 30
0.0
 11
110.3178765961
 21
-19.7939788015
 31
0.0
  0
LINE
  5
181
330
1F
100
AcDbEntity
  8
0
  6
Continuous
 62
     7
100
AcDbLine
 10
167.3322475979
 20
-34.7977588015
 30
0.0
 11
110.3178765961
 21
-34.7977588015
 31
0.0
  0
LINE
  5
182
330
1F
100
AcDbEntity
  8
0
  6
Continuous
 62
     7
100
AcDbLine
 10
110.3178765961
 20
47.2228981967
 30
0.0
 11
167.3322475979
 21
47.2228981967
 31
0.0
  0
LINE
  5
183
330
1F
100
AcDbEntity
  8
0
  6
Continuous
 62
     7
100
AcDbLine
 10
167.3322475979
 20
62.2266811975
 30
0.0
 11
110.3178765961
 21
62.2266811975
 31
0.0
  0
LINE
  5
184
330
1F
100
AcDbEntity
  8
0
  6
Continuous
 62
     7
100
AcDbLine
 10
115.9693093984
 20
9.0132587934
 30
0.0
 11
115.9693093984
 21
-19.7939788015
 31
0.0
  0
LINE
  5
185
330
1F
100
AcDbEntity
  8
0
  6
Continuous
 62
     7
100
AcDbLine
 10
116.3194035999
 20
9.0132587934
 30
0.0
 11
116.3194035999
 21
-19.7939788015
 31
0.0
  0
LINE
  5
186
330
1F
100
AcDbEntity
  8
0
  6
Continuous
 62
     7
100
AcDbLine
 10
119.6202221966
 20
9.0132587934
 30
0.0
 11
119.6202221966
 21
-19.7939788015
 31
0.0
  0
LINE
  5
187
330
1F
100
AcDbEntity
  8
0
  6
Continuous
 62
     7
100
AcDbLine
 10
119.9703163981
 20
9.0132587934
 30
0.0
 11
119.9703163981
 21
-19.7939788015
 31
0.0
  0
LINE
  5
188
330
1F
100
AcDbEntity
  8
0
  6
Continuous
 62
     7
100
AcDbLine
 10
115.9693093984
 20
9.0132587934
 30
0.0
 11
119.9703163981
 21
9.0132587934
 31
0.0
  0
LINE
  5
189
330
1F
100
AcDbEntity
  8
0
  6
Continuous
 62
     7
100
AcDbLine
 10
122.1709388153
 20
11.2140012408
 30
0.0
 11
119.970387416
 21
9.0134498416
 31
0.0
  0
LINE
  5
18A
330
1F
100
AcDbEntity
  8
0
  6
Continuous
 62
     7
100
AcDbLine
 10
113.7687429954
 20
11.2138261967
 30
0.0
 11
122.1708828012
 21
11.2138261967
 31
0.0
  0
LINE
  5
18B
330
1F
100
AcDbEntity
  8
0
  6
Continuous
 62
     7
100
AcDbLine
 10
113.7688040107
 20
11.2140162446
 30
0.0
 11
115.9693764153
 21
9.0134428398
 31
0.0
  0
LINE
  5
18C
330
1F
100
AcDbEntity
  8
0
  6
Continuous
 62
     7
100
AcDbLine
 10
112.8185065961
 20
-17.2933488015
 30
0.0
 11
115.5692065979
 21
-17.2933488015
 31
0.0
  0
LINE
  5
18D
330
1F
100
AcDbEntity
  8
0
  6
Continuous
 62
     7
100
AcDbLine
 10
114.0188209991
 20
10.2135741967
 30
0.0
 11
114.0188209991
 21
10.9637631967
 31
0.0
  0
LINE
  5
18E
330
1F
100
AcDbEntity
  8
0
  6
Continuous
 62
     7
100
AcDbLine
 10
112.8185065961
 20
46.2226461967
 30
0.0
 11
115.5692065979
 21
46.2226461967
 31
0.0
  0
ARC
  5
18F
330
1F
100
AcDbEntity
  8
0
  6
Continuous
 62
     7
100
AcDbCircle
 10
115.5692065979
 20
45.4724571967
 30
0.0
 40
0.7501890000000222
100
AcDbArc
 50
57.769073
 51
90.0
  0
ARC
  5
190
330
1F
100
AcDbEntity
  8
0
  6
Continuous
 62
     7
100
AcDbCircle
 10
115.5692065979
 20
45.4724571967
 30
0.0
 40
0.7501890000002874
100
AcDbArc
 50
270.000015
 51
302.230927
  0
LINE
  5
191
330
1F
100
AcDbEntity
  8
0
  6
Continuous
 62
     7
100
AcDbLine
 10
119.9703163981
 20
44.7222681967
 30
0.0
 11
120.6204741966
 21
44.7222681967
 31
0.0
  0
LINE
  5
192
330
1F
100
AcDbEntity
  8
0
  6
Continuous
 62
     7
100
AcDbLine
 10
121.6207261966
 20
47.2228981967
 30
0.0
 11
121.6207261966
 21
45.7225201967
 31
0.0
  0
ARC
  5
193
330
1F
100
AcDbEntity
  8
0
  6
Continuous
 62
     7
100
AcDbCircle
 10
120.6204741966
 20
45.7225201967
 30
0.0
 40
1.000252000000364
100
AcDbArc
 50
270.000015
 51
0.0
  0
LINE
  5
194
330
1F
100
AcDbEntity
  8
0
  6
Continuous
 62
     7
100
AcDbLine
 10
115.9693093984
 20
18.4156525997
 30
0.0
 11
115.9693093984
 21
47.2228981967
 31
0.0
  0
LINE
  5
195
330
1F
100
AcDbEntity
  8
0
  6
Continuous
 62
     7
100
AcDbLine
 10
116.3194035999
 20
18.4156525997
 30
0.0
 11
116.3194035999
 21
47.2228981967
 31
0.0
  0
LINE
  5
196
330
1F
100
AcDbEntity
  8
0
  6
Continuous
 62
     7
100
AcDbLine
 10
119.6202221966
 20
18.4156525997
 30
0.0
 11
119.6202221966
 21
47.2228981967
 31
0.0
  0
LINE
  5
197
330
1F
100
AcDbEntity
  8
0
  6
Continuous
 62
     7
100
AcDbLine
 10
119.9703163981
 20
18.4156525997
 30
0.0
 11
119.9703163981
 21
47.2228981967
 31
0.0
  0
LINE
  5
198
330
1F
100
AcDbEntity
  8
0
  6
Continuous
 62
     7
100
AcDbLine
 10
112.8185065961
 20
44.7222681967
 30
0.0
 11
115.5692065979
 21
44.7222681967
 31
0.0
  0
LINE
  5
199
330
1F
100
AcDbEntity
  8
0
  6
Continuous
 62
     7
100
AcDbLine
 10
115.9693093984
 20
18.4156525997
 30
0.0
 11
119.9703163981
 21
18.4156525997
 31
0.0
  0
LINE
  5
19A
330
1F
100
AcDbEntity
  8
0
  6
Continuous
 62
     7
100
AcDbLine
 10
122.1709198105
 20
16.2151772197
 30
0.0
 11
119.970367411
 21
18.4157286189
 31
0.0
  0
LINE
  5
19B
330
1F
100
AcDbEntity
  8
0
  6
Continuous
 62
     7
100
AcDbLine
 10
113.7687429954
 20
16.2150861967
 30
0.0
 11
122.1708828012
 21
16.2150861967
 31
0.0
  0
LINE
  5
19C
330
1F
100
AcDbEntity
  8
0
  6
Continuous
 62
     7
100
AcDbLine
 10
113.7688040107
 20
16.2151772197
 30
0.0
 11
115.96935541
 21
18.4157286189
 31
0.0
  0
ARC
  5
19D
330
1F
100
AcDbEntity
  8
0
  6
Continuous
 62
     7
100
AcDbCircle
 10
143.5262499979
 20
1.0112427934
 30
0.0
 40
0.3000756000002514
100
AcDbArc
 50
270.000015
 51
0.0
  0
LINE
  5
19E
330
1F
100
AcDbEntity
  8
0
  6
Continuous
 62
     7
100
AcDbLine
 10
143.8263245976
 20
1.0112427934
 30
0.0
 11
143.8263245976
 21
2.4116205997
 31
0.0
  0
ARC
  5
19F
330
1F
100
AcDbEntity
  8
0
  6
Continuous
 62
     7
100
AcDbCircle
 10
143.5262499979
 20
2.4116205997
 30
0.0
 40
0.3000756000000707
100
AcDbArc
 50
0.0
 51
90.0
  0
LINE
  5
1A0
330
1F
100
AcDbEntity
  8
0
  6
Continuous
 62
     7
100
AcDbLine
 10
134.1238801976
 20
2.7116841967
 30
0.0
 11
143.5262499979
 21
2.7116841967
 31
0.0
  0
LINE
  5
1A1
330
1F
100
AcDbEntity
  8
0
  6
Continuous
 62
     7
100
AcDbLine
 10
134.1238801976
 20
0.7111801967
 30
0.0
 11
143.5262499979
 21
0.7111801967
 31
0.0
  0
ARC
  5
1A2
330
1F
100
AcDbEntity
  8
0
  6
Continuous
 62
     7
100
AcDbCircle
 10
134.1238801976
 20
1.0112427934
 30
0.0
 40
0.3000755999999853
100
AcDbArc
 50
180.0
 51
269.999985
  0
LINE
  5
1A3
330
1F
100
AcDbEntity
  8
0
  6
Continuous
 62
     7
100
AcDbLine
 10
133.8238045976
 20
1.0112427934
 30
0.0
 11
133.8238045976
 21
2.4116205997
 31
0.0
  0
ARC
  5
1A4
330
1F
100
AcDbEntity
  8
0
  6
Continuous
 62
     7
100
AcDbCircle
 10
134.1238801976
 20
2.4116205997
 30
0.0
 40
0.3000755999995022
100
AcDbArc
 50
90.0
 51
180.0
  0
LINE
  5
1A5
330
1F
100
AcDbEntity
  8
0
  6
Continuous
 62
     7
100
AcDbLine
 10
134.1238801976
 20
24.7172281967
 30
0.0
 11
143.5262499979
 21
24.7172281967
 31
0.0
  0
ARC
  5
1A6
330
1F
100
AcDbEntity
  8
0
  6
Continuous
 62
     7
100
AcDbCircle
 10
134.1238801976
 20
25.0172907934
 30
0.0
 40
0.3000755999999882
100
AcDbArc
 50
179.9999919999
 51
270.0
  0
LINE
  5
1A7
330
1F
100
AcDbEntity
  8
0
  6
Continuous
 62
     7
100
AcDbLine
 10
133.8238045976
 20
26.4176685997
 30
0.0
 11
133.8238045976
 21
25.0172907934
 31
0.0
  0
ARC
  5
1A8
330
1F
100
AcDbEntity
  8
0
  6
Continuous
 62
     7
100
AcDbCircle
 10
134.1238801976
 20
26.4176685997
 30
0.0
 40
0.3000756000002448
100
AcDbArc
 50
90.000009
 51
179.9999920001
  0
LINE
  5
1A9
330
1F
100
AcDbEntity
  8
0
  6
Continuous
 62
     7
100
AcDbLine
 10
134.1238801976
 20
26.7177321967
 30
0.0
 11
143.5262499979
 21
26.7177321967
 31
0.0
  0
ARC
  5
1AA
330
1F
100
AcDbEntity
  8
0
  6
Continuous
 62
     7
100
AcDbCircle
 10
143.5262499979
 20
26.4176685997
 30
0.0
 40
0.3000756000000707
100
AcDbArc
 50
0.0
 51
90.0
  0
LINE
  5
1AB
330
1F
100
AcDbEntity
  8
0
  6
Continuous
 62
     7
100
AcDbLine
 10
143.8263245976
 20
26.4176685997
 30
0.0
 11
143.8263245976
 21
25.0172907934
 31
0.0
  0
ARC
  5
1AC
330
1F
100
AcDbEntity
  8
0
  6
Continuous
 62
     7
100
AcDbCircle
 10
143.5262499979
 20
25.0172907934
 30
0.0
 40
0.3000755999995692
100
AcDbArc
 50
270.000015
 51
0.0
  0
ARC
  5
1AD
330
1F
100
AcDbEntity
  8
0
  6
Continuous
 62
     7
100
AcDbCircle
 10
168.3324975974
 20
-18.2936008015
 30
0.0
 40
1.000251999999606
100
AcDbArc
 50
90.00001
 51
179.999992
  0
ARC
  5
1AE
330
1F
100
AcDbEntity
  8
0
  6
Continuous
 62
     7
100
AcDbCircle
 10
168.3324975974
 20
45.7225201967
 30
0.0
 40
1.000251999999989
100
AcDbArc
 50
180.0
 51
270.0
  0
CIRCLE
  5
1AF
330
1F
100
AcDbEntity
  8
0
  6
Continuous
 62
     7
100
AcDbCircle
 10
138.8250645976
 20
-28.0460578015
 30
0.0
 40
1.00025200000033
  0
CIRCLE
  5
1B0
330
1F
100
AcDbEntity
  8
0
  6
Continuous
 62
     7
100
AcDbCircle
 10
138.8250645976
 20
55.4749771967
 30
0.0
 40
1.000251999999648
  0
LINE
  5
1B1
330
1F
100
AcDbEntity
  8
0
  6
Continuous
 62
     7
100
AcDbLine
 10
147.7230893349
 20
11.9640151967
 30
0.0
 11
148.5775215976
 21
11.9640151967
 31
0.0
  0
LINE
  5
1B2
330
1F
100
AcDbEntity
  8
0
  6
Continuous
 62
     7
100
AcDbLine
 10
129.9270408606
 20
11.9640151967
 30
0.0
 11
129.0726075976
 21
11.9640151967
 31
0.0
  0
LINE
  5
1B3
330
1F
100
AcDbEntity
  8
0
  6
Continuous
 62
     7
100
AcDbLine
 10
147.7230893349
 20
15.4648971967
 30
0.0
 11
148.5775215976
 21
15.4648971967
 31
0.0
  0
ARC
  5
1B4
330
1F
100
AcDbEntity
  8
0
  6
Continuous
 62
     7
100
AcDbCircle
 10
143.5762615976
 20
13.7144561967
 30
0.0
 40
4.501133999999867
100
AcDbArc
 50
22.885376
 51
90.0
  0
ARC
  5
1B5
330
1F
100
AcDbEntity
  8
0
  6
Continuous
 62
     7
100
AcDbCircle
 10
134.0738675976
 20
13.7144561967
 30
0.0
 40
4.501134000000205
100
AcDbArc
 50
90.000009
 51
157.114624
  0
LINE
  5
1B6
330
1F
100
AcDbEntity
  8
0
  6
Continuous
 62
     7
100
AcDbLine
 10
129.9270408606
 20
15.4648971967
 30
0.0
 11
129.0726075976
 21
15.4648971967
 31
0.0
  0
LINE
  5
1B7
330
1F
100
AcDbEntity
  8
0
  6
Continuous
 62
     7
100
AcDbLine
 10
164.8316175979
 20
47.2228981967
 30
0.0
 11
164.8316175979
 21
-19.7939788015
 31
0.0
  0
LINE
  5
1B8
330
1F
100
AcDbEntity
  8
0
  6
Continuous
 62
     7
100
AcDbLine
 10
149.5777735976
 20
23.5167907627
 30
0.0
 11
149.5777735976
 21
3.9118155536
 31
0.0
  0
LINE
  5
1B9
330
1F
100
AcDbEntity
  8
0
  6
Continuous
 62
     7
100
AcDbLine
 10
157.5797905979
 20
12.7142041967
 30
0.0
 11
159.5802945979
 21
12.7142041967
 31
0.0
  0
LINE
  5
1BA
330
1F
100
AcDbEntity
  8
0
  6
Continuous
 62
     7
100
AcDbLine
 10
157.5797905979
 20
16.2150861967
 30
0.0
 11
159.5802945979
 21
16.2150861967
 31
0.0
  0
ARC
  5
1BB
330
1F
100
AcDbEntity
  8
0
  6
Continuous
 62
     7
100
AcDbCircle
 10
157.5797905979
 20
15.4648971967
 30
0.0
 40
0.7501890000002618
100
AcDbArc
 50
90.0
 51
270.0
  0
ARC
  5
1BC
330
1F
100
AcDbEntity
  8
0
  6
Continuous
 62
     7
100
AcDbCircle
 10
159.5802945979
 20
15.4648971967
 30
0.0
 40
0.7501890000002618
100
AcDbArc
 50
270.0
 51
0.0
  0
ARC
  5
1BD
330
1F
100
AcDbEntity
  8
0
  6
Continuous
 62
     7
100
AcDbCircle
 10
159.5802945979
 20
15.4648971967
 30
0.0
 40
0.7501889999999776
100
AcDbArc
 50
0.0
 51
90.0
  0
LINE
  5
1BE
330
1F
100
AcDbEntity
  8
0
  6
Continuous
 62
     7
100
AcDbLine
 10
157.5797905979
 20
14.7147081967
 30
0.0
 11
159.5802945979
 21
14.7147081967
 31
0.0
  0
CIRCLE
  5
1BF
330
1F
100
AcDbEntity
  8
_Translation
  6
Continuous
 62
     7
100
AcDbCircle
 10
155.0
 20
-37.2983888015
 30
0.0
 40
0.01
  0
CIRCLE
  5
1C0
330
1F
100
AcDbEntity
  8
_Translation
  6
Continuous
 62
     7
100
AcDbCircle
 10
151.0
 20
64.7273111975
 30
0.0
 40
0.01
  0
CIRCLE
  5
1C1
330
1F
100
AcDbEntity
  8
_Translation
  6
Continuous
 62
     7
100
AcDbCircle
 10
110.3178765961
 20
-44.0
 30
0.0
 40
0.01
  0
CIRCLE
  5
1C2
330
1F
100
AcDbEntity
  8
_Translation
  6
Continuous
 62
     7
100
AcDbCircle
 10
174.9341597971
 20
-42.0
 30
0.0
 40
0.01
  0
MTEXT
  5
1C3
330
1F
100
AcDbEntity
  8
0
100
AcDbMText
 10
139.2360256628
 20
-52.9725677083
 30
0.0
 40
3.2576822917
 41
4.9753793182
 46
4.2646122727
 71
     1
 72
     1
  1
{\fHGPｺﾞｼｯｸM|b0||i0||c0|p34;\C7;\H3.257682292;\W1.;65}
 73
     1
 44
1.0
1001
ACAD
1000
ACAD_MTEXT_DEFINED_HEIGHT_BEGIN
1070
    46
1040
4.2646122727
1000
ACAD_MTEXT_DEFINED_HEIGHT_END
  0
CIRCLE
  5
1C4
330
1F
100
AcDbEntity
  8
_Translation
  6
Continuous
 62
     7
100
AcDbCircle
 10
-85.0
 20
-92.7218129183
 30
0.0
 40
0.01
  0
CIRCLE
  5
1C5
330
1F
100
AcDbEntity
  8
_Translation
  6
Continuous
 62
     7
100
AcDbCircle
 10
-85.0
 20
-137.7713237567
 30
0.0
 40
0.01
  0
CIRCLE
  5
1C6
330
1F
100
AcDbEntity
  8
_Translation
  6
Continuous
 62
     7
100
AcDbCircle
 10
-84.6720172817
 20
-83.7218129183
 30
0.0
 40
0.01
  0
CIRCLE
  5
1C7
330
1F
100
AcDbEntity
  8
_Translation
  6
Continuous
 62
     7
100
AcDbCircle
 10
-85.0
 20
-92.7218129183
 30
0.0
 40
0.01
  0
CIRCLE
  5
1C8
330
1F
100
AcDbEntity
  8
_Translation
  6
Continuous
 62
     7
100
AcDbCircle
 10
-86.2595172817
 20
-70.7218129183
 30
0.0
 40
0.01
  0
CIRCLE
  5
1C9
330
1F
100
AcDbEntity
  8
_Translation
  6
Continuous
 62
     7
100
AcDbCircle
 10
-84.6720172817
 20
-83.7218129183
 30
0.0
 40
0.01
  0
LINE
  5
1CA
330
1F
100
AcDbEntity
  8
0
  6
Continuous
 62
     7
100
AcDbLine
 10
-131.32931585
 20
34.0288904506
 30
0.0
 11
-161.3582063006
 21
4.0
 31
0.0
  0
LINE
  5
1CB
330
1F
100
AcDbEntity
  8
0
  6
Continuous
 62
     7
100
AcDbLine
 10
-161.3582063006
 20
4.0
 30
0.0
 11
-177.0
 21
4.0
 31
0.0
  0
MTEXT
  5
1CC
330
1F
100
AcDbEntity
  8
0
100
AcDbMText
 10
-175.4135895734
 20
10.4255234375
 30
0.0
 40
4.8865234375
 41
12.7938168182
 46
6.3969134091
 71
     1
 72
     1
  1
{\fHGPｺﾞｼｯｸM|b0||i0||c0|p34;\C7;\H4.886523438;\W1.;黒色}
 73
     1
 44
1.0
1001
ACAD
1000
ACAD_MTEXT_DEFINED_HEIGHT_BEGIN
1070
    46
1040
6.3969134091
1000
ACAD_MTEXT_DEFINED_HEIGHT_END
  0
INSERT
  5
1CE
330
1F
100
AcDbEntity
  8
0
100
AcDbBlockReference
  2
SE
 10
0.0
 20
0.0
 30
0.0
  0
INSERT
  5
1DA
330
1F
100
AcDbEntity
  8
0
100
AcDbBlockReference
  2
SE2
 10
0.0
 20
0.0
 30
0.0
  0
INSERT
  5
1E6
330
1F
100
AcDbEntity
  8
0
100
AcDbBlockReference
  2
SE4
 10
0.0
 20
0.0
 30
0.0
  0
INSERT
  5
1F2
330
1F
100
AcDbEntity
  8
0
100
AcDbBlockReference
  2
SE6
 10
0.0
 20
0.0
 30
0.0
  0
INSERT
  5
1FE
330
1F
100
AcDbEntity
  8
0
100
AcDbBlockReference
  2
SE8
 10
0.0
 20
0.0
 30
0.0
  0
INSERT
  5
21D
330
1F
100
AcDbEntity
  8
一般
 62
     7
100
AcDbBlockReference
  2
グループ
 10
20.7897443499
 20
26.3856618445
 30
0.0
  0
INSERT
  5
225
330
1F
100
AcDbEntity
  8
一般
 62
     7
100
AcDbBlockReference
  2
グループ-1
 10
45.7599574492
 20
16.0260393766
 30
0.0
  0
INSERT
  5
22D
330
1F
100
AcDbEntity
  8
一般
 62
     7
100
AcDbBlockReference
  2
グループ-2
 10
45.7599574492
 20
41.0879545641
 30
0.0
  0
INSERT
  5
235
330
1F
100
AcDbEntity
  8
一般
 62
     7
100
AcDbBlockReference
  2
グループ-3
 10
45.7599574492
 20
-8.9120454359
 30
0.0
  0
INSERT
  5
237
330
1F
100
AcDbEntity
  8
0
100
AcDbBlockReference
  2
SE10
 10
0.0
 20
0.0
 30
0.0
  0
INSERT
  5
25E
330
1F
100
AcDbEntity
  8
一般
 62
     7
100
AcDbBlockReference
  2
グループ-5
 10
-133.5874585271
 20
-84.6854954133
 30
0.0
  0
INSERT
  5
260
330
1F
100
AcDbEntity
  8
0
100
AcDbBlockReference
  2
SE12
 10
0.0
 20
0.0
 30
0.0
  0
DIMENSION
  5
27D
330
1F
100
AcDbEntity
  8
寸法
  6
Continuous
 62
     7
100
AcDbDimension
  2
DMBLK26
 10
-187.6907123625
 20
78.0260393766
 30
0.0
 11
-187.6907123625
 21
18.5260407475
 31
0.0
 70
   160
  1
\A1;<>
 71
     5
 42
-1.0
 73
     0
 74
     0
 75
     0
  3
Arch
100
AcDbAlignedDimension
 13
-160.0
 23
-40.9739606234
 33
0.0
 14
-158.8479277157
 24
78.0260393766
 34
0.0
 50
90.0
100
AcDbRotatedDimension
  0
DIMENSION
  5
287
330
1F
100
AcDbEntity
  8
寸法
  6
Continuous
 62
     7
100
AcDbDimension
  2
DMBLK27
 10
184.0000002682
 20
-34.7977588015
 30
0.0
 11
184.0000002682
 21
14.2059689326
 31
0.0
 70
   161
  1
\A1;<>
 71
     5
 42
-1.0
 73
     0
 74
     0
 75
     0
  3
Arch
100
AcDbAlignedDimension
 13
171.0
 23
-34.7977588015
 33
0.0
 14
171.0
 24
63.2096964255
 34
0.0
  0
DIMENSION
  5
291
330
1F
100
AcDbEntity
  8
寸法
  6
Continuous
 62
     7
100
AcDbDimension
  2
DMBLK28
 10
42.6782008428
 20
-59.1538251237
 30
0.0
 11
38.1727677758
 21
-59.1538251237
 31
0.0
 70
   160
  1
\A1;<>
 71
     5
 42
-1.0
 73
     0
 74
     0
 75
     0
  3
Arch
100
AcDbAlignedDimension
 13
33.6673350993
 23
-42.6646117912
 33
0.0
 14
42.6782008428
 24
-44.6646117912
 34
0.0
100
AcDbRotatedDimension
  0
DIMENSION
  5
29B
330
1F
100
AcDbEntity
  8
寸法
  6
Continuous
 62
     7
100
AcDbDimension
  2
DMBLK29
 10
-157.3470172817
 20
102.8461762369
 30
0.0
 11
-122.8470164174
 21
102.8461762369
 31
0.0
 70
   160
  1
\A1;<>
 71
     5
 42
-1.0
 73
     0
 74
     0
 75
     0
  3
Arch
100
AcDbAlignedDimension
 13
-88.3470172817
 23
86.0
 33
0.0
 14
-157.3470172817
 24
86.0
 34
0.0
100
AcDbRotatedDimension
  0
INSERT
  5
2A6
330
1F
100
AcDbEntity
  8
0
100
AcDbBlockReference
  2
SE14
 10
0.0
 20
0.0
 30
0.0
  0
INSERT
  5
2B6
330
1F
100
AcDbEntity
  8
一般
 62
     7
100
AcDbBlockReference
  2
グループ-6
 10
-134.5979277157
 20
28.9611371173
 30
0.0
  0
DIMENSION
  5
2B7
330
1F
100
AcDbEntity
  8
寸法
  6
Continuous
 62
     7
100
AcDbDimension
  2
DMBLK30
 10
-173.6907119304
 20
78.0260393766
 30
0.0
 11
-173.6907119304
 21
59.7760391083
 31
0.0
 70
   160
  1
\A1;<>
 71
     5
 42
-1.0
 73
     0
 74
     0
 75
     0
  3
Arch
100
AcDbAlignedDimension
 13
-160.0
 23
41.5260393766
 33
0.0
 14
-158.8479277157
 24
78.0260393766
 34
0.0
 50
90.0
100
AcDbRotatedDimension
  0
INSERT
  5
2C6
330
1F
100
AcDbEntity
  8
一般
 62
     7
100
AcDbBlockReference
  2
グループ-7
 10
-108.6492292645
 20
58.2342053888
 30
0.0
  0
INSERT
  5
2D2
330
1F
100
AcDbEntity
  8
一般
 62
     7
100
AcDbBlockReference
  2
グループ-8
 10
33.6457949959
 20
-41.0886785472
 30
0.0
  0
INSERT
  5
2D4
330
1F
100
AcDbEntity
  8
0
100
AcDbBlockReference
  2
SE16
 10
0.0
 20
0.0
 30
0.0
  0
DIMENSION
  5
2DF
330
1F
100
AcDbEntity
  8
寸法
  6
Continuous
 62
     7
100
AcDbDimension
  2
DMBLK31
 10
42.6782008428
 20
-59.1538239121
 30
0.0
 11
65.1781999487
 21
-59.1538239121
 31
0.0
 70
   160
  1
\A1;<>
 71
     5
 42
-1.0
 73
     0
 74
     0
 75
     0
  3
Arch
100
AcDbAlignedDimension
 13
87.6782008428
 23
-41.0
 33
0.0
 14
42.6782008428
 24
-43.6646117912
 34
0.0
100
AcDbRotatedDimension
  0
INSERT
  5
2F4
330
1F
100
AcDbEntity
  8
一般
 62
     7
100
AcDbBlockReference
  2
グループ-9
 10
-156.8470172817
 20
-92.7218129183
 30
0.0
  0
DIMENSION
  5
2F5
330
1F
100
AcDbEntity
  8
寸法
  6
Continuous
 62
     7
100
AcDbDimension
  2
DMBLK32
 10
-173.6907116026
 20
-5.964816218
 30
0.0
 11
-173.6907116026
 21
-23.4648162925
 31
0.0
 70
   161
  1
\A1;<>
 71
     5
 42
-1.0
 73
     0
 74
     0
 75
     0
  3
Arch
100
AcDbAlignedDimension
 13
-162.0
 23
-5.964816218
 33
0.0
 14
-162.0
 24
-40.964816218
 34
0.0
  0
DIMENSION
  5
2FF
330
1F
100
AcDbEntity
  8
寸法
  6
Continuous
 62
     7
100
AcDbDimension
  2
DMBLK33
 10
-65.1539035656
 20
65.0
 30
0.0
 11
-65.1539035656
 21
71.513019558
 31
0.0
 70
   161
  1
\A1;<>
 71
     5
 42
-1.0
 73
     0
 74
     0
 75
     0
  3
Arch
100
AcDbAlignedDimension
 13
-85.1020303138
 23
65.0
 33
0.0
 14
-85.1020303138
 24
78.0260393766
 34
0.0
  0
DIMENSION
  5
309
330
1F
100
AcDbEntity
  8
寸法
  6
Continuous
 62
     7
100
AcDbDimension
  2
DMBLK34
 10
-65.1539035656
 20
-28.0
 30
0.0
 11
-65.1539035656
 21
18.5000011027
 31
0.0
 70
   161
  1
\A1;<>
 71
     5
 42
-1.0
 73
     0
 74
     0
 75
     0
  3
Arch
100
AcDbAlignedDimension
 13
-85.1020303138
 23
-28.0
 33
0.0
 14
-85.1020303138
 24
65.0
 34
0.0
  0
DIMENSION
  5
313
330
1F
100
AcDbEntity
  8
寸法
  6
Continuous
 62
     7
100
AcDbDimension
  2
DMBLK35
 10
-88.3470172817
 20
-61.3097814849
 30
0.0
 11
-94.8470171476
 21
-61.3097814849
 31
0.0
 70
   160
  1
\A1;<>
 71
     5
 42
-1.0
 73
     0
 74
     0
 75
     0
  3
Arch
100
AcDbAlignedDimension
 13
-101.3470172817
 23
-51.3097817084
 33
0.0
 14
-88.3470172817
 24
-47.1910317084
 34
0.0
100
AcDbRotatedDimension
  0
DIMENSION
  5
31D
330
1F
100
AcDbEntity
  8
寸法
  6
Continuous
 62
     7
100
AcDbDimension
  2
DMBLK36
 10
-144.3427115719
 20
-61.3097816035
 30
0.0
 11
-122.8427108417
 21
-61.3097816035
 31
0.0
 70
   161
  1
\A1;<>
 71
     5
 42
-1.0
 73
     0
 74
     0
 75
     0
  3
Arch
100
AcDbAlignedDimension
 13
-144.3427115719
 23
-47.0
 33
0.0
 14
-101.3427115719
 24
-47.0
 34
0.0
  0
DIMENSION
  5
327
330
1F
100
AcDbEntity
  8
寸法
  6
Continuous
 62
     7
100
AcDbDimension
  2
DMBLK37
 10
-73.0000000961
 20
-13.0
 30
0.0
 11
-73.0000000961
 21
-20.5000001676
 31
0.0
 70
   160
  1
\A1;<>
 71
     5
 42
-1.0
 73
     0
 74
     0
 75
     0
  3
Arch
100
AcDbAlignedDimension
 13
-85.1020303138
 23
-28.0
 33
0.0
 14
-84.4125
 24
-13.0
 34
0.0
 50
90.0
100
AcDbRotatedDimension
1001
ACAD
1000
DSTYLE
1002
{
1070
   141
1041
1.9003146701
1070
    44
1041
1.9003146701
1070
    42
1041
1.9003146701
1070
   147
1041
0.9501573351
1070
   140
1041
3.8006293403
1070
     0
1002
}
  0
INSERT
  5
332
330
1F
100
AcDbEntity
  8
0
100
AcDbBlockReference
  2
SE18
 10
0.0
 20
0.0
 30
0.0
  0
DIMENSION
  5
33D
330
1F
100
AcDbEntity
  8
寸法
  6
Continuous
 62
     7
100
AcDbDimension
  2
DMBLK38
 10
-72.9999997318
 20
0.0
 30
0.0
 11
-72.9999997318
 21
-6.5000001341
 31
0.0
 70
   161
  1
\A1;<>
 71
     5
 42
-1.0
 73
     0
 74
     0
 75
     0
  3
Arch
100
AcDbAlignedDimension
 13
-86.0
 23
0.0
 33
0.0
 14
-86.0
 24
-13.0
 34
0.0
1001
ACAD
1000
DSTYLE
1002
{
1070
   141
1041
1.9003146701
1070
    44
1041
1.9003146701
1070
    42
1041
1.9003146701
1070
   147
1041
0.9501573351
1070
   140
1041
3.8006293403
1070
     0
1002
}
  0
DIMENSION
  5
347
330
1F
100
AcDbEntity
  8
寸法
  6
Continuous
 62
     7
100
AcDbDimension
  2
DMBLK39
 10
-116.9851034799
 20
11.6027128502
 30
0.0
 11
-109.4851036476
 21
11.6027128502
 31
0.0
 70
   161
  1
\A1;<>
 71
     5
 42
-1.0
 73
     0
 74
     0
 75
     0
  3
Arch
100
AcDbAlignedDimension
 13
-116.9851034799
 23
4.6027126342
 33
0.0
 14
-101.9851034799
 24
4.6027126342
 34
0.0
1001
ACAD
1000
DSTYLE
1002
{
1070
   141
1041
1.9003146701
1070
    44
1041
1.9003146701
1070
    42
1041
1.9003146701
1070
   147
1041
0.9501573351
1070
   140
1041
3.8006293403
1070
     0
1002
}
  0
INSERT
  5
35C
330
1F
100
AcDbEntity
  8
一般
 62
     7
100
AcDbBlockReference
  2
グループ-10
 10
-129.3427115719
 20
-13.0
 30
0.0
  0
DIMENSION
  5
35D
330
1F
100
AcDbEntity
  8
寸法
  6
Continuous
 62
     7
100
AcDbDimension
  2
DMBLK40
 10
-38.8717288283
 20
6.8727186829
 30
0.0
 11
-32.3717289624
 21
6.8727186829
 31
0.0
 70
   160
  1
\A1;<>
 71
     5
 42
-1.0
 73
     0
 74
     0
 75
     0
  3
Arch
100
AcDbAlignedDimension
 13
-25.8717288283
 23
-3.7147817254
 33
0.0
 14
-38.8717288283
 24
-2.1272817254
 34
0.0
100
AcDbRotatedDimension
1001
ACAD
1000
DSTYLE
1002
{
1070
   141
1041
1.2216308594
1070
    44
1041
1.2216308594
1070
    42
1041
1.2216308594
1070
   147
1041
0.6108154297
1070
   140
1041
2.4432617188
1070
     0
1002
}
  0
DIMENSION
  5
367
330
1F
100
AcDbEntity
  8
寸法
  6
Continuous
 62
     7
100
AcDbDimension
  2
DMBLK41
 10
-38.8717288283
 20
0.2852183696
 30
0.0
 11
-36.3717287724
 21
0.2852183696
 31
0.0
 70
   160
  1
\A1;<>
 71
     5
 42
-1.0
 73
     0
 74
     0
 75
     0
  3
Arch
100
AcDbAlignedDimension
 13
-33.8717288283
 23
-1.7147817254
 33
0.0
 14
-38.8717288283
 24
-2.7147817254
 34
0.0
100
AcDbRotatedDimension
1001
ACAD
1000
DSTYLE
1002
{
1070
   141
1041
1.2216308594
1070
    44
1041
1.2216308594
1070
    42
1041
1.2216308594
1070
   147
1041
0.6108154297
1070
   140
1041
2.4432617188
1070
     0
1002
}
  0
DIMENSION
  5
371
330
1F
100
AcDbEntity
  8
寸法
  6
Continuous
 62
     7
100
AcDbDimension
  2
DMBLK42
 10
-33.894975607
 20
0.2852183673
 30
0.0
 11
-32.3949756201
 21
0.2852183673
 31
0.0
 70
   160
  1
\A1;<>
 71
     5
 42
-1.0
 73
     0
 74
     0
 75
     0
  3
Arch
100
AcDbAlignedDimension
 13
-30.894975607
 23
-2.1272817254
 33
0.0
 14
-33.894975607
 24
-2.0188686198
 34
0.0
100
AcDbRotatedDimension
1001
ACAD
1000
DSTYLE
1002
{
1070
   141
1041
1.2216308594
1070
    44
1041
1.2216308594
1070
    42
1041
1.2216308594
1070
   147
1041
0.6108154297
1070
   140
1041
2.4432617188
1070
     0
1002
}
  0
DIMENSION
  5
37B
330
1F
100
AcDbEntity
  8
寸法
  6
Continuous
 62
     7
100
AcDbDimension
  2
DMBLK43
 10
-17.8717286145
 20
-3.7147817254
 30
0.0
 11
-17.8717286145
 21
-4.7147816779
 31
0.0
 70
   160
  1
\A1;<>
 71
     5
 42
-1.0
 73
     0
 74
     0
 75
     0
  3
Arch
100
AcDbAlignedDimension
 13
-25.2842288283
 23
-5.7147817254
 33
0.0
 14
-26.8717288283
 24
-3.7147817254
 34
0.0
 50
90.0
100
AcDbRotatedDimension
1001
ACAD
1000
DSTYLE
1002
{
1070
   141
1041
1.2216308594
1070
    44
1041
1.2216308594
1070
    42
1041
1.2216308594
1070
   147
1041
0.6108154297
1070
   140
1041
2.4432617188
1070
     0
1002
}
  0
DIMENSION
  5
385
330
1F
100
AcDbEntity
  8
寸法
  6
Continuous
 62
     7
100
AcDbDimension
  2
DMBLK44
 10
-17.8717292157
 20
-7.7147817254
 30
0.0
 11
-17.8717292157
 21
-6.7147816779
 31
0.0
 70
   161
  1
\A1;<>
 71
     5
 42
-1.0
 73
     0
 74
     0
 75
     0
  3
Arch
100
AcDbAlignedDimension
 13
-26.8717288283
 23
-7.7147817254
 33
0.0
 14
-26.8717288283
 24
-5.7147817254
 34
0.0
1001
ACAD
1000
DSTYLE
1002
{
1070
   141
1041
1.2216308594
1070
    44
1041
1.2216308594
1070
    42
1041
1.2216308594
1070
   147
1041
0.6108154297
1070
   140
1041
2.4432617188
1070
     0
1002
}
  0
DIMENSION
  5
38F
330
1F
100
AcDbEntity
  8
寸法
  6
Continuous
 62
     7
100
AcDbDimension
  2
DMBLK45
 10
-44.8717288805
 20
-16.7147817254
 30
0.0
 11
-44.8717288805
 21
-10.2147815913
 31
0.0
 70
   161
  1
\A1;<>
 71
     5
 42
-1.0
 73
     0
 74
     0
 75
     0
  3
Arch
100
AcDbAlignedDimension
 13
-38.8717288283
 23
-16.7147817254
 33
0.0
 14
-38.8717288283
 24
-3.7147817254
 34
0.0
1001
ACAD
1000
DSTYLE
1002
{
1070
   141
1041
1.2216308594
1070
    44
1041
1.2216308594
1070
    42
1041
1.2216308594
1070
   147
1041
0.6108154297
1070
   140
1041
2.4432617188
1070
     0
1002
}
  0
INSERT
  5
39A
330
1F
100
AcDbEntity
  8
0
100
AcDbBlockReference
  2
SE20
 10
0.0
 20
0.0
 30
0.0
  0
INSERT
  5
3A6
330
1F
100
AcDbEntity
  8
0
100
AcDbBlockReference
  2
SE22
 10
0.0
 20
0.0
 30
0.0
  0
INSERT
  5
3B2
330
1F
100
AcDbEntity
  8
0
100
AcDbBlockReference
  2
SE24
 10
0.0
 20
0.0
 30
0.0
  0
INSERT
  5
3DB
330
1F
100
AcDbEntity
  8
一般
 62
     7
100
AcDbBlockReference
  2
グループ-11
 10
50.1682054493
 20
62.3884509127
 30
0.0
  0
INSERT
  5
42A
330
1F
100
AcDbEntity
  8
0
 62
     7
100
AcDbBlockReference
  2
グループ-12
 10
43.0079310217
 20
-37.2716986055
 30
0.0
  0
DIMENSION
  5
42B
330
1F
100
AcDbEntity
  8
寸法
  6
Continuous
 62
     7
100
AcDbDimension
  2
DMBLK46
 10
196.0000011325
 20
64.7273111975
 30
0.0
 11
196.0000011325
 21
13.7144624963
 31
0.0
 70
   160
  1
\A1;<>
 71
     5
 42
-1.0
 73
     0
 74
     0
 75
     0
  3
Arch
100
AcDbAlignedDimension
 13
155.0
 23
-37.2983888015
 33
0.0
 14
151.0
 24
64.7273111975
 34
0.0
 50
90.0
100
AcDbRotatedDimension
  0
DIMENSION
  5
435
330
1F
100
AcDbEntity
  8
寸法
  6
Continuous
 62
     7
100
AcDbDimension
  2
DMBLK47
 10
174.9341597971
 20
-58.9999996647
 30
0.0
 11
142.6260192284
 21
-58.9999996647
 31
0.0
 70
   160
  1
\A1;<>
 71
     5
 42
-1.0
 73
     0
 74
     0
 75
     0
  3
Arch
100
AcDbAlignedDimension
 13
110.3178765961
 23
-44.0
 33
0.0
 14
174.9341597971
 24
-42.0
 34
0.0
100
AcDbRotatedDimension
  0
INSERT
  5
440
330
1F
100
AcDbEntity
  8
0
100
AcDbBlockReference
  2
SE26
 10
0.0
 20
0.0
 30
0.0
  0
DIMENSION
  5
44B
330
1F
100
AcDbEntity
  8
寸法
  6
Continuous
 62
     7
100
AcDbDimension
  2
DMBLK48
 10
-64.0000002831
 20
-92.7218129183
 30
0.0
 11
-64.0000002831
 21
-115.2465683664
 31
0.0
 70
   161
  1
\A1;<>
 71
     5
 42
-1.0
 73
     0
 74
     0
 75
     0
  3
Arch
100
AcDbAlignedDimension
 13
-85.0
 23
-92.7218129183
 33
0.0
 14
-85.0
 24
-137.7713237567
 34
0.0
1001
ACAD
1000
DSTYLE
1002
{
1070
    41
1041
3.175
1070
   141
1041
1.3573676215
1070
    44
1041
1.3573676215
1070
    42
1041
1.3573676215
1070
   147
1041
0.6786838108
1070
   140
1041
2.7147352431
1070
     0
1002
}
  0
DIMENSION
  5
455
330
1F
100
AcDbEntity
  8
寸法
  6
Continuous
 62
     7
100
AcDbDimension
  2
DMBLK49
 10
-63.9999995733
 20
-92.7218129183
 30
0.0
 11
-63.9999995733
 21
-88.2218127246
 31
0.0
 70
   160
  1
\A1;<>
 71
     5
 42
-1.0
 73
     0
 74
     0
 75
     0
  3
Arch
100
AcDbAlignedDimension
 13
-84.6720172817
 23
-83.7218129183
 33
0.0
 14
-85.0
 24
-92.7218129183
 34
0.0
 50
90.0
100
AcDbRotatedDimension
1001
ACAD
1000
DSTYLE
1002
{
1070
    41
1041
3.175
1070
   141
1041
1.3573676215
1070
    44
1041
1.3573676215
1070
    42
1041
1.3573676215
1070
   147
1041
0.6786838108
1070
   140
1041
2.7147352431
1070
     0
1002
}
  0
DIMENSION
  5
45F
330
1F
100
AcDbEntity
  8
寸法
  6
Continuous
 62
     7
100
AcDbDimension
  2
DMBLK50
 10
-64.0000006402
 20
-83.7218129183
 30
0.0
 11
-64.0000006402
 21
-77.2218130524
 31
0.0
 70
   160
  1
\A1;<>
 71
     5
 42
-1.0
 73
     0
 74
     0
 75
     0
  3
Arch
100
AcDbAlignedDimension
 13
-86.2595172817
 23
-70.7218129183
 33
0.0
 14
-84.6720172817
 24
-83.7218129183
 34
0.0
 50
90.0
100
AcDbRotatedDimension
1001
ACAD
1000
DSTYLE
1002
{
1070
    41
1041
3.175
1070
   141
1041
1.3573676215
1070
    44
1041
1.3573676215
1070
    42
1041
1.3573676215
1070
   147
1041
0.6786838108
1070
   140
1041
2.7147352431
1070
     0
1002
}
  0
INSERT
  5
471
330
1F
100
AcDbEntity
  8
0
 62
     7
100
AcDbBlockReference
  2
グループ-13
 10
126.1249986543
 20
-76.65
 30
0.0
  0
ENDSEC
  0
SECTION
  2
OBJECTS
  0
DICTIONARY
  5
C
330
0
100
AcDbDictionary
281
     1
  3
ACAD_DETAILVIEWSTYLE
350
4AD
  3
ACAD_GROUP
350
D
  3
ACAD_LAYOUT
350
1A
  3
ACAD_MATERIAL
350
43
  3
ACAD_MLEADERSTYLE
350
6B
  3
ACAD_MLINESTYLE
350
17
  3
ACAD_PLOTSETTINGS
350
19
  3
ACAD_PLOTSTYLENAME
350
E
  3
ACAD_SCALELIST
350
47
  3
ACAD_SECTIONVIEWSTYLE
350
4AE
  3
ACAD_TABLESTYLE
350
69
  3
ACAD_VISUALSTYLE
350
2A
  3
ACDB_RECOMPOSE_DATA
350
4AA
  3
AcDbVariableDictionary
350
472
  0
SUN
  5
6D
330
29
100
AcDbSun
 90
        1
290
     0
 63
     7
421
 16777215
 40
1.0
291
     1
 91
  2455826
 92
 54000000
292
     0
 70
     2
 71
   256
280
     1
  0
DICTIONARY
  5
4AD
102
{ACAD_REACTORS
330
C
102
}
330
C
100
AcDbDictionary
281
     1
  0
DICTIONARY
  5
D
102
{ACAD_REACTORS
330
C
102
}
330
C
100
AcDbDictionary
281
     1
  0
DICTIONARY
  5
1A
102
{ACAD_REACTORS
330
C
102
}
330
C
100
AcDbDictionary
281
     1
  3
Layout1
350
1E
  3
Model
350
22
  0
DICTIONARY
  5
43
102
{ACAD_REACTORS
330
C
102
}
330
C
100
AcDbDictionary
281
     1
  3
ByBlock
350
45
  3
ByLayer
350
44
  3
Global
350
46
  0
DICTIONARY
  5
6B
102
{ACAD_REACTORS
330
C
102
}
330
C
100
AcDbDictionary
281
     1
  3
Standard
350
6C
  0
DICTIONARY
  5
17
102
{ACAD_REACTORS
330
C
102
}
330
C
100
AcDbDictionary
281
     1
  3
Standard
350
18
  0
DICTIONARY
  5
19
102
{ACAD_REACTORS
330
C
102
}
330
C
100
AcDbDictionary
281
     1
  0
ACDBDICTIONARYWDFLT
  5
E
102
{ACAD_REACTORS
330
C
102
}
330
C
100
AcDbDictionary
281
     1
  3
Normal
350
F
100
AcDbDictionaryWithDefault
340
F
  0
DICTIONARY
  5
47
102
{ACAD_REACTORS
330
C
102
}
330
C
100
AcDbDictionary
281
     1
  3
A0
350
48
  3
A1
350
49
  3
A2
350
4A
  3
A3
350
4B
  3
A4
350
4C
  3
A5
350
4D
  3
A6
350
4E
  3
A7
350
4F
  3
A8
350
50
  3
A9
350
51
  3
B0
350
52
  3
B1
350
53
  3
B2
350
54
  3
B3
350
55
  3
B4
350
56
  3
B5
350
57
  3
B6
350
58
  3
B7
350
59
  3
B8
350
5A
  3
B9
350
5B
  3
C0
350
5C
  3
C1
350
5D
  3
C2
350
5E
  3
C3
350
5F
  3
C4
350
60
  3
C5
350
61
  3
C6
350
62
  3
C7
350
63
  3
C8
350
64
  3
C9
350
65
  3
D0
350
66
  3
D1
350
67
  3
D2
350
68
  0
DICTIONARY
  5
4AE
102
{ACAD_REACTORS
330
C
102
}
330
C
100
AcDbDictionary
281
     1
  0
DICTIONARY
  5
69
102
{ACAD_REACTORS
330
C
102
}
330
C
100
AcDbDictionary
281
     1
  3
Standard
350
6A
  0
DICTIONARY
  5
2A
102
{ACAD_REACTORS
330
C
102
}
330
C
100
AcDbDictionary
281
     1
  3
2dWireframe
350
2F
  3
Basic
350
32
  3
Brighten
350
36
  3
ColorChange
350
3A
  3
Conceptual
350
34
  3
Dim
350
35
  3
EdgeColorOff
350
3D
  3
Facepattern
350
39
  3
Flat
350
2B
  3
FlatWithEdges
350
2C
  3
Gouraud
350
2D
  3
GouraudWithEdges
350
2E
  3
Hidden
350
31
  3
JitterOff
350
3B
  3
Linepattern
350
38
  3
OverhangOff
350
3C
  3
Realistic
350
33
  3
Shaded
350
42
  3
Shaded with edges
350
41
  3
Shades of Gray
350
3E
  3
Sketchy
350
3F
  3
Thicken
350
37
  3
Wireframe
350
30
  3
X-Ray
350
40
  0
XRECORD
  5
4AA
102
{ACAD_REACTORS
330
C
102
}
330
C
100
AcDbXrecord
280
     1
 90
        1
330
6A
  0
DICTIONARY
  5
472
102
{ACAD_REACTORS
330
C
102
}
330
C
100
AcDbDictionary
281
     1
  3
CANNOSCALE
350
473
  3
CENTEREXE
350
4AF
  3
CENTERLTYPEFILE
350
4B0
  3
CMLEADERSTYLE
350
4AC
  3
CTABLESTYLE
350
4AB
  3
XCLIPFRAME
350
474
  0
LAYOUT
  5
1E
102
{ACAD_REACTORS
330
1A
102
}
330
1A
100
AcDbPlotSettings
  1

  2
none_device
  4

  6

 40
0.0
 41
0.0
 42
0.0
 43
0.0
 44
0.0
 45
0.0
 46
0.0
 47
0.0
 48
0.0
 49
0.0
140
0.0
141
0.0
142
1.0
143
1.0
 70
   688
 72
     1
 73
     0
 74
     5
  7

 75
    16
 76
     0
 77
     2
 78
   300
147
1.0
148
0.0
149
0.0
100
AcDbLayout
  1
Layout1
 70
     1
 71
     1
 10
0.0
 20
0.0
 11
594.0
 21
420.0
 12
0.0
 22
0.0
 32
0.0
 14
0.0
 24
0.0
 34
0.0
 15
594.0
 25
420.0
 35
0.0
146
0.0
 13
0.0
 23
0.0
 33
0.0
 16
1.0
 26
0.0
 36
0.0
 17
0.0
 27
1.0
 37
0.0
 76
     0
330
1B
  0
LAYOUT
  5
22
102
{ACAD_REACTORS
330
1A
102
}
330
1A
100
AcDbPlotSettings
  1

  2
none_device
  4
Letter_(8.50_x_11.00_Inches)
  6

 40
6.35
 41
6.35
 42
6.35000508
 43
6.35000508
 44
215.9
 45
279.4
 46
0.0
 47
0.0
 48
0.0
 49
0.0
140
0.0
141
0.0
142
1.0
143
1.0
 70
  1712
 72
     1
 73
     0
 74
     0
  7

 75
     0
 76
     0
 77
     2
 78
   300
147
1.0
148
0.0
149
0.0
100
AcDbLayout
  1
Model
 70
     1
 71
     0
 10
0.0
 20
0.0
 11
594.0
 21
420.0
 12
0.0
 22
0.0
 32
0.0
 14
0.0
 24
0.0
 34
0.0
 15
594.0
 25
420.0
 35
0.0
146
0.0
 13
0.0
 23
0.0
 33
0.0
 16
1.0
 26
0.0
 36
0.0
 17
0.0
 27
1.0
 37
0.0
 76
     0
330
1F
331
29
  0
MATERIAL
  5
45
102
{ACAD_REACTORS
330
43
102
}
330
43
100
AcDbMaterial
  1
ByBlock
 72
     1
 94
      127
  0
MATERIAL
  5
44
102
{ACAD_REACTORS
330
43
102
}
330
43
100
AcDbMaterial
  1
ByLayer
 72
     1
 94
      127
  0
MATERIAL
  5
46
102
{ACAD_REACTORS
330
43
102
}
330
43
100
AcDbMaterial
  1
Global
 72
     1
 94
      127
  0
MLEADERSTYLE
  5
6C
102
{ACAD_REACTORS
330
6B
102
}
102
{ACAD_XDICTIONARY
360
4A8
102
}
330
6B
100
AcDbMLeaderStyle
170
     2
171
     1
172
     0
 90
        2
 40
0.0
 41
0.0
173
     1
 91
-1056964608
340
14
 92
       -2
290
     1
 42
2.0
291
     1
 43
8.0
  3
Standard
341
0
 44
4.0
300

342
11
174
     1
178
     6
175
     1
176
     0
 93
-1056964608
 45
4.0
292
     0
297
     0
 46
4.0
343
0
 94
-1056964608
 47
1.0
 49
1.0
140
1.0
293
     1
141
0.0
294
     1
177
     0
142
1.0
295
     0
296
     0
143
3.75
1001
ACAD_MLEADERVER
1070
     2
  0
MLINESTYLE
  5
18
102
{ACAD_REACTORS
330
17
102
}
330
17
100
AcDbMlineStyle
  2
Standard
 70
     0
  3

 62
   256
 51
90.0
 52
90.0
 71
     2
 49
0.5
 62
   256
  6
BYLAYER
 49
-0.5
 62
   256
  6
BYLAYER
  0
ACDBPLACEHOLDER
  5
F
102
{ACAD_REACTORS
330
E
102
}
330
E
  0
SCALE
  5
48
102
{ACAD_REACTORS
330
47
102
}
330
47
100
AcDbScale
 70
     0
300
1:1
140
1.0
141
1.0
290
     1
  0
SCALE
  5
49
102
{ACAD_REACTORS
330
47
102
}
330
47
100
AcDbScale
 70
     0
300
1:2
140
1.0
141
2.0
290
     0
  0
SCALE
  5
4A
102
{ACAD_REACTORS
330
47
102
}
330
47
100
AcDbScale
 70
     0
300
1:4
140
1.0
141
4.0
290
     0
  0
SCALE
  5
4B
102
{ACAD_REACTORS
330
47
102
}
330
47
100
AcDbScale
 70
     0
300
1:5
140
1.0
141
5.0
290
     0
  0
SCALE
  5
4C
102
{ACAD_REACTORS
330
47
102
}
330
47
100
AcDbScale
 70
     0
300
1:8
140
1.0
141
8.0
290
     0
  0
SCALE
  5
4D
102
{ACAD_REACTORS
330
47
102
}
330
47
100
AcDbScale
 70
     0
300
1:10
140
1.0
141
10.0
290
     0
  0
SCALE
  5
4E
102
{ACAD_REACTORS
330
47
102
}
330
47
100
AcDbScale
 70
     0
300
1:16
140
1.0
141
16.0
290
     0
  0
SCALE
  5
4F
102
{ACAD_REACTORS
330
47
102
}
330
47
100
AcDbScale
 70
     0
300
1:20
140
1.0
141
20.0
290
     0
  0
SCALE
  5
50
102
{ACAD_REACTORS
330
47
102
}
330
47
100
AcDbScale
 70
     0
300
1:30
140
1.0
141
30.0
290
     0
  0
SCALE
  5
51
102
{ACAD_REACTORS
330
47
102
}
330
47
100
AcDbScale
 70
     0
300
1:40
140
1.0
141
40.0
290
     0
  0
SCALE
  5
52
102
{ACAD_REACTORS
330
47
102
}
330
47
100
AcDbScale
 70
     0
300
1:50
140
1.0
141
50.0
290
     0
  0
SCALE
  5
53
102
{ACAD_REACTORS
330
47
102
}
330
47
100
AcDbScale
 70
     0
300
1:100
140
1.0
141
100.0
290
     0
  0
SCALE
  5
54
102
{ACAD_REACTORS
330
47
102
}
330
47
100
AcDbScale
 70
     0
300
2:1
140
2.0
141
1.0
290
     0
  0
SCALE
  5
55
102
{ACAD_REACTORS
330
47
102
}
330
47
100
AcDbScale
 70
     0
300
4:1
140
4.0
141
1.0
290
     0
  0
SCALE
  5
56
102
{ACAD_REACTORS
330
47
102
}
330
47
100
AcDbScale
 70
     0
300
8:1
140
8.0
141
1.0
290
     0
  0
SCALE
  5
57
102
{ACAD_REACTORS
330
47
102
}
330
47
100
AcDbScale
 70
     0
300
10:1
140
10.0
141
1.0
290
     0
  0
SCALE
  5
58
102
{ACAD_REACTORS
330
47
102
}
330
47
100
AcDbScale
 70
     0
300
100:1
140
100.0
141
1.0
290
     0
  0
SCALE
  5
59
102
{ACAD_REACTORS
330
47
102
}
330
47
100
AcDbScale
 70
     0
300
1/128" = 1'-0"
140
0.0078125
141
12.0
290
     0
  0
SCALE
  5
5A
102
{ACAD_REACTORS
330
47
102
}
330
47
100
AcDbScale
 70
     0
300
1/64" = 1'-0"
140
0.015625
141
12.0
290
     0
  0
SCALE
  5
5B
102
{ACAD_REACTORS
330
47
102
}
330
47
100
AcDbScale
 70
     0
300
1/32" = 1'-0"
140
0.03125
141
12.0
290
     0
  0
SCALE
  5
5C
102
{ACAD_REACTORS
330
47
102
}
330
47
100
AcDbScale
 70
     0
300
1/16" = 1'-0"
140
0.0625
141
12.0
290
     0
  0
SCALE
  5
5D
102
{ACAD_REACTORS
330
47
102
}
330
47
100
AcDbScale
 70
     0
300
3/32" = 1'-0"
140
0.09375
141
12.0
290
     0
  0
SCALE
  5
5E
102
{ACAD_REACTORS
330
47
102
}
330
47
100
AcDbScale
 70
     0
300
1/8" = 1'-0"
140
0.125
141
12.0
290
     0
  0
SCALE
  5
5F
102
{ACAD_REACTORS
330
47
102
}
330
47
100
AcDbScale
 70
     0
300
3/16" = 1'-0"
140
0.1875
141
12.0
290
     0
  0
SCALE
  5
60
102
{ACAD_REACTORS
330
47
102
}
330
47
100
AcDbScale
 70
     0
300
1/4" = 1'-0"
140
0.25
141
12.0
290
     0
  0
SCALE
  5
61
102
{ACAD_REACTORS
330
47
102
}
330
47
100
AcDbScale
 70
     0
300
3/8" = 1'-0"
140
0.375
141
12.0
290
     0
  0
SCALE
  5
62
102
{ACAD_REACTORS
330
47
102
}
330
47
100
AcDbScale
 70
     0
300
1/2" = 1'-0"
140
0.5
141
12.0
290
     0
  0
SCALE
  5
63
102
{ACAD_REACTORS
330
47
102
}
330
47
100
AcDbScale
 70
     0
300
3/4" = 1'-0"
140
0.75
141
12.0
290
     0
  0
SCALE
  5
64
102
{ACAD_REACTORS
330
47
102
}
330
47
100
AcDbScale
 70
     0
300
1" = 1'-0"
140
1.0
141
12.0
290
     0
  0
SCALE
  5
65
102
{ACAD_REACTORS
330
47
102
}
330
47
100
AcDbScale
 70
     0
300
1-1/2" = 1'-0"
140
1.5
141
12.0
290
     0
  0
SCALE
  5
66
102
{ACAD_REACTORS
330
47
102
}
330
47
100
AcDbScale
 70
     0
300
3" = 1'-0"
140
3.0
141
12.0
290
     0
  0
SCALE
  5
67
102
{ACAD_REACTORS
330
47
102
}
330
47
100
AcDbScale
 70
     0
300
6" = 1'-0"
140
6.0
141
12.0
290
     0
  0
SCALE
  5
68
102
{ACAD_REACTORS
330
47
102
}
330
47
100
AcDbScale
 70
     0
300
1'-0" = 1'-0"
140
12.0
141
12.0
290
     0
  0
TABLESTYLE
  5
6A
102
{ACAD_REACTORS
330
69
102
}
102
{ACAD_XDICTIONARY
360
4A5
102
}
330
69
100
AcDbTableStyle
  3
Standard
 70
     0
 71
     0
 40
0.06
 41
0.06
280
     0
281
     0
  7
Standard
140
4.5
170
     2
 62
     0
 63
   257
283
     0
 90
        4
 91
        0
  1

274
    -2
284
     1
 64
     0
275
    -2
285
     1
 65
     0
276
    -2
286
     1
 66
     0
277
    -2
287
     1
 67
     0
278
    -2
288
     1
 68
     0
279
    -2
289
     1
 69
     0
  7
Standard
140
6.0
170
     5
 62
     0
 63
   257
283
     0
 90
        4
 91
        0
  1

274
    -2
284
     1
 64
     0
275
    -2
285
     1
 65
     0
276
    -2
286
     1
 66
     0
277
    -2
287
     1
 67
     0
278
    -2
288
     1
 68
     0
279
    -2
289
     1
 69
     0
  7
Standard
140
4.5
170
     5
 62
     0
 63
   257
283
     0
 90
        4
 91
        0
  1

274
    -2
284
     1
 64
     0
275
    -2
285
     1
 65
     0
276
    -2
286
     1
 66
     0
277
    -2
287
     1
 67
     0
278
    -2
288
     1
 68
     0
279
    -2
289
     1
 69
     0
  0
VISUALSTYLE
  5
2F
102
{ACAD_REACTORS
330
2A
102
}
102
{ACAD_XDICTIONARY
360
47D
102
}
330
2A
100
AcDbVisualStyle
  2
2dWireframe
 70
     4
 71
     0
 72
     2
 73
     0
 90
        0
 40
0.6
 41
30.0
 62
     5
 63
     7
421
 16777215
 74
     1
 91
        4
 64
     7
 65
   257
 75
     1
175
     1
 42
1.0
 92
        0
 66
   257
 43
1.0
 76
     1
 77
     6
 78
     2
 67
     7
 79
     5
170
     0
171
     0
290
     0
174
     0
 93
        1
 44
0.0
173
     0
291
     0
 45
0.0
  0
VISUALSTYLE
  5
32
102
{ACAD_REACTORS
330
2A
102
}
102
{ACAD_XDICTIONARY
360
483
102
}
330
2A
100
AcDbVisualStyle
  2
Basic
 70
     7
 71
     1
 72
     0
 73
     1
 90
        0
 40
0.6
 41
30.0
 62
     5
 63
     7
421
 16777215
 74
     0
 91
        4
 64
     7
 65
   257
 75
     1
175
     1
 42
1.0
 92
        8
 66
     7
 43
1.0
 76
     1
 77
     6
 78
     2
 67
     7
 79
     5
170
     0
171
     0
290
     0
174
     0
 93
        1
 44
0.0
173
     0
291
     1
 45
0.0
  0
VISUALSTYLE
  5
36
102
{ACAD_REACTORS
330
2A
102
}
102
{ACAD_XDICTIONARY
360
48B
102
}
330
2A
100
AcDbVisualStyle
  2
Brighten
 70
    12
 71
     2
 72
     2
 73
     0
 90
        0
 40
0.6
 41
30.0
 62
     5
 63
     7
421
 16777215
 74
     1
 91
        4
 64
     7
 65
   257
 75
     1
175
     1
 42
1.0
 92
        8
 66
     7
 43
1.0
 76
     1
 77
     6
 78
     2
 67
     7
 79
     5
170
     0
171
     0
290
     0
174
     0
 93
        1
 44
50.0
173
     0
291
     1
 45
0.0
  0
VISUALSTYLE
  5
3A
102
{ACAD_REACTORS
330
2A
102
}
102
{ACAD_XDICTIONARY
360
493
102
}
330
2A
100
AcDbVisualStyle
  2
ColorChange
 70
    16
 71
     2
 72
     2
 73
     3
 90
        0
 40
0.6
 41
30.0
 62
     5
 63
     8
421
  8421504
 74
     1
 91
        4
 64
     7
 65
   257
 75
     1
175
     1
 42
1.0
 92
        8
 66
     8
424
  8421504
 43
1.0
 76
     1
 77
     6
 78
     2
 67
     7
 79
     5
170
     0
171
     0
290
     0
174
     0
 93
        1
 44
0.0
173
     0
291
     1
 45
0.0
  0
VISUALSTYLE
  5
34
102
{ACAD_REACTORS
330
2A
102
}
102
{ACAD_XDICTIONARY
360
487
102
}
330
2A
100
AcDbVisualStyle
  2
Conceptual
 70
     9
 71
     3
 72
     2
 73
     0
 90
        0
 40
0.6
 41
30.0
 62
     5
 63
     7
421
 16777215
 74
     2
 91
        2
 64
     7
 65
   257
 75
     1
175
     1
 42
179.0
 92
        8
 66
     7
 43
1.0
 76
     1
 77
     6
 78
     2
 67
     7
 79
     3
170
     0
171
     0
290
     0
174
     0
 93
        1
 44
0.0
173
     0
291
     0
 45
0.0
  0
VISUALSTYLE
  5
35
102
{ACAD_REACTORS
330
2A
102
}
102
{ACAD_XDICTIONARY
360
489
102
}
330
2A
100
AcDbVisualStyle
  2
Dim
 70
    11
 71
     2
 72
     2
 73
     0
 90
        0
 40
0.6
 41
30.0
 62
     5
 63
     7
421
 16777215
 74
     1
 91
        4
 64
     7
 65
   257
 75
     1
175
     1
 42
1.0
 92
        8
 66
     7
 43
1.0
 76
     1
 77
     6
 78
     2
 67
     7
 79
     5
170
     0
171
     0
290
     0
174
     0
 93
        1
 44
-50.0
173
     0
291
     1
 45
0.0
  0
VISUALSTYLE
  5
3D
102
{ACAD_REACTORS
330
2A
102
}
102
{ACAD_XDICTIONARY
360
499
102
}
330
2A
100
AcDbVisualStyle
  2
EdgeColorOff
 70
    22
 71
     2
 72
     2
 73
     0
 90
        0
 40
0.6
 41
30.0
 62
     5
 63
     7
421
 16777215
 74
     1
 91
        4
 64
     7
 65
   257
 75
     1
175
     1
 42
1.0
 92
        8
 66
     7
 43
1.0
 76
     1
 77
     6
 78
     2
 67
     7
 79
     5
170
     0
171
     0
290
     0
174
     0
 93
        1
 44
0.0
173
     0
291
     1
 45
0.0
  0
VISUALSTYLE
  5
39
102
{ACAD_REACTORS
330
2A
102
}
102
{ACAD_XDICTIONARY
360
491
102
}
330
2A
100
AcDbVisualStyle
  2
Facepattern
 70
    15
 71
     2
 72
     2
 73
     0
 90
        0
 40
0.6
 41
30.0
 62
     5
 63
     7
421
 16777215
 74
     1
 91
        4
 64
     7
 65
   257
 75
     1
175
     1
 42
1.0
 92
        8
 66
     7
 43
1.0
 76
     1
 77
     6
 78
     2
 67
     7
 79
     5
170
     0
171
     0
290
     0
174
     0
 93
        1
 44
0.0
173
     0
291
     1
 45
0.0
  0
VISUALSTYLE
  5
2B
102
{ACAD_REACTORS
330
2A
102
}
102
{ACAD_XDICTIONARY
360
475
102
}
330
2A
100
AcDbVisualStyle
  2
Flat
 70
     0
 71
     2
 72
     1
 73
     1
 90
        2
 40
0.6
 41
30.0
 62
     5
 63
     7
421
 16777215
 74
     0
 91
        0
 64
     7
 65
   257
 75
     1
175
     1
 42
1.0
 92
        8
 66
     7
 43
1.0
 76
     1
 77
     6
 78
     2
 67
     7
 79
     5
170
     0
171
     0
290
     0
174
     0
 93
       13
 44
0.0
173
     0
291
     1
 45
0.0
  0
VISUALSTYLE
  5
2C
102
{ACAD_REACTORS
330
2A
102
}
102
{ACAD_XDICTIONARY
360
477
102
}
330
2A
100
AcDbVisualStyle
  2
FlatWithEdges
 70
     1
 71
     2
 72
     1
 73
     1
 90
        2
 40
0.6
 41
30.0
 62
     5
 63
     7
421
 16777215
 74
     1
 91
        0
 64
     7
 65
   257
 75
     1
175
     1
 42
1.0
 92
        0
 66
   257
 43
1.0
 76
     1
 77
     6
 78
     2
 67
     7
 79
     5
170
     0
171
     0
290
     0
174
     0
 93
       13
 44
0.0
173
     0
291
     1
 45
0.0
  0
VISUALSTYLE
  5
2D
102
{ACAD_REACTORS
330
2A
102
}
102
{ACAD_XDICTIONARY
360
479
102
}
330
2A
100
AcDbVisualStyle
  2
Gouraud
 70
     2
 71
     2
 72
     2
 73
     1
 90
        2
 40
0.6
 41
30.0
 62
     5
 63
     7
421
 16777215
 74
     0
 91
        0
 64
     7
 65
   257
 75
     1
175
     1
 42
1.0
 92
        0
 66
     7
 43
1.0
 76
     1
 77
     6
 78
     2
 67
     7
 79
     5
170
     0
171
     0
290
     0
174
     0
 93
       13
 44
0.0
173
     0
291
     1
 45
0.0
  0
VISUALSTYLE
  5
2E
102
{ACAD_REACTORS
330
2A
102
}
102
{ACAD_XDICTIONARY
360
47B
102
}
330
2A
100
AcDbVisualStyle
  2
GouraudWithEdges
 70
     3
 71
     2
 72
     2
 73
     1
 90
        2
 40
0.6
 41
30.0
 62
     5
 63
     7
421
 16777215
 74
     1
 91
        0
 64
     7
 65
   257
 75
     1
175
     1
 42
1.0
 92
        0
 66
   257
 43
1.0
 76
     1
 77
     6
 78
     2
 67
     7
 79
     5
170
     0
171
     0
290
     0
174
     0
 93
       13
 44
0.0
173
     0
291
     1
 45
0.0
  0
VISUALSTYLE
  5
31
102
{ACAD_REACTORS
330
2A
102
}
102
{ACAD_XDICTIONARY
360
481
102
}
330
2A
100
AcDbVisualStyle
  2
Hidden
 70
     6
 71
     1
 72
     2
 73
     2
 90
        0
 40
0.6
 41
30.0
 62
     5
 63
     7
421
 16777215
 74
     2
 91
        2
 64
     7
 65
   257
 75
     2
175
     1
 42
40.0
 92
        0
 66
   257
 43
1.0
 76
     1
 77
     6
 78
     2
 67
     7
 79
     3
170
     0
171
     0
290
     0
174
     0
 93
        1
 44
0.0
173
     0
291
     0
 45
0.0
  0
VISUALSTYLE
  5
3B
102
{ACAD_REACTORS
330
2A
102
}
102
{ACAD_XDICTIONARY
360
495
102
}
330
2A
100
AcDbVisualStyle
  2
JitterOff
 70
    20
 71
     2
 72
     2
 73
     0
 90
        0
 40
0.6
 41
30.0
 62
     5
 63
     7
421
 16777215
 74
     1
 91
        4
 64
     7
 65
   257
 75
     1
175
     1
 42
1.0
 92
       10
 66
     7
 43
1.0
 76
     1
 77
     6
 78
     2
 67
     7
 79
     5
170
     0
171
     0
290
     0
174
     0
 93
        1
 44
0.0
173
     0
291
     1
 45
0.0
  0
VISUALSTYLE
  5
38
102
{ACAD_REACTORS
330
2A
102
}
102
{ACAD_XDICTIONARY
360
48F
102
}
330
2A
100
AcDbVisualStyle
  2
Linepattern
 70
    14
 71
     2
 72
     2
 73
     0
 90
        0
 40
0.6
 41
30.0
 62
     5
 63
     7
421
 16777215
 74
     1
 91
        4
 64
     7
 65
   257
 75
     7
175
     7
 42
1.0
 92
        8
 66
     7
 43
1.0
 76
     1
 77
     6
 78
     2
 67
     7
 79
     5
170
     0
171
     0
290
     0
174
     0
 93
        1
 44
0.0
173
     0
291
     1
 45
0.0
  0
VISUALSTYLE
  5
3C
102
{ACAD_REACTORS
330
2A
102
}
102
{ACAD_XDICTIONARY
360
497
102
}
330
2A
100
AcDbVisualStyle
  2
OverhangOff
 70
    21
 71
     2
 72
     2
 73
     0
 90
        0
 40
0.6
 41
30.0
 62
     5
 63
     7
421
 16777215
 74
     1
 91
        4
 64
     7
 65
   257
 75
     1
175
     1
 42
1.0
 92
        9
 66
     7
 43
1.0
 76
     1
 77
     6
 78
     2
 67
     7
 79
     5
170
     0
171
     0
290
     0
174
     0
 93
        1
 44
0.0
173
     0
291
     1
 45
0.0
  0
VISUALSTYLE
  5
33
102
{ACAD_REACTORS
330
2A
102
}
102
{ACAD_XDICTIONARY
360
485
102
}
330
2A
100
AcDbVisualStyle
  2
Realistic
 70
     8
 71
     2
 72
     3
 73
     0
 90
        2
 40
0.6
 41
30.0
 62
     5
 63
     7
421
 16777215
 74
     0
 91
        0
 64
     7
 65
   257
 75
     1
175
     1
 42
1.0
 92
        8
 66
   257
 43
1.0
 76
     1
 77
     6
 78
     2
 67
     7
 79
     3
170
     0
171
     0
290
     0
174
     0
 93
       13
 44
0.0
173
     0
291
     0
 45
0.0
  0
VISUALSTYLE
  5
42
102
{ACAD_REACTORS
330
2A
102
}
102
{ACAD_XDICTIONARY
360
4A3
102
}
330
2A
100
AcDbVisualStyle
  2
Shaded
 70
    27
 71
     2
 72
     2
 73
     1
 90
        2
 40
0.6
 41
30.0
 62
     5
 63
     7
421
 16777215
 74
     0
 91
        4
 64
     7
 65
   257
 75
     1
175
     1
 42
1.0
 92
        8
 66
   257
 43
1.0
 76
     1
 77
     6
 78
     2
 67
     8
425
  7895160
 79
     3
170
     0
171
     0
290
     0
174
     0
 93
        5
 44
0.0
173
     0
291
     0
 45
0.0
  0
VISUALSTYLE
  5
41
102
{ACAD_REACTORS
330
2A
102
}
102
{ACAD_XDICTIONARY
360
4A1
102
}
330
2A
100
AcDbVisualStyle
  2
Shaded with edges
 70
    26
 71
     2
 72
     2
 73
     1
 90
        2
 40
0.6
 41
30.0
 62
     5
 63
     7
421
 16777215
 74
     1
 91
       10
 64
     7
 65
   257
 75
     2
175
     1
 42
1.0
 92
        8
 66
   257
 43
1.0
 76
     1
 77
     6
 78
     2
 67
     7
 79
     3
170
     0
171
     0
290
     0
174
     0
 93
        5
 44
0.0
173
     0
291
     0
 45
0.0
  0
VISUALSTYLE
  5
3E
102
{ACAD_REACTORS
330
2A
102
}
102
{ACAD_XDICTIONARY
360
49B
102
}
330
2A
100
AcDbVisualStyle
  2
Shades of Gray
 70
    23
 71
     2
 72
     2
 73
     3
 90
        0
 40
0.6
 41
30.0
 62
     5
 63
     7
421
 16777215
 74
     2
 91
        2
 64
     7
 65
     7
 75
     1
175
     1
 42
40.0
 92
        8
 66
     7
 43
1.0
 76
     1
 77
     6
 78
     2
 67
     7
 79
     3
170
     0
171
     0
290
     0
174
     0
 93
        1
 44
0.0
173
     0
291
     0
 45
0.0
  0
VISUALSTYLE
  5
3F
102
{ACAD_REACTORS
330
2A
102
}
102
{ACAD_XDICTIONARY
360
49D
102
}
330
2A
100
AcDbVisualStyle
  2
Sketchy
 70
    24
 71
     1
 72
     2
 73
     2
 90
        0
 40
0.6
 41
30.0
 62
     5
 63
     7
421
 16777215
 74
     2
 91
        2
 64
     7
 65
     7
 75
     1
175
     1
 42
40.0
 92
       11
 66
     7
 43
1.0
 76
     1
 77
     6
 78
     2
 67
     7
 79
     6
170
     0
171
     0
290
     0
174
     0
 93
        1
 44
0.0
173
     0
291
     0
 45
0.0
  0
VISUALSTYLE
  5
37
102
{ACAD_REACTORS
330
2A
102
}
102
{ACAD_XDICTIONARY
360
48D
102
}
330
2A
100
AcDbVisualStyle
  2
Thicken
 70
    13
 71
     2
 72
     2
 73
     0
 90
        0
 40
0.6
 41
30.0
 62
     5
 63
     7
421
 16777215
 74
     1
 91
        4
 64
     7
 65
   257
 75
     1
175
     1
 42
1.0
 92
       12
 66
     7
 43
1.0
 76
     1
 77
     6
 78
     2
 67
     7
 79
     5
170
     0
171
     0
290
     0
174
     0
 93
        1
 44
0.0
173
     0
291
     1
 45
0.0
  0
VISUALSTYLE
  5
30
102
{ACAD_REACTORS
330
2A
102
}
102
{ACAD_XDICTIONARY
360
47F
102
}
330
2A
100
AcDbVisualStyle
  2
Wireframe
 70
     5
 71
     0
 72
     2
 73
     0
 90
        0
 40
0.6
 41
30.0
 62
     5
 63
     7
421
 16777215
 74
     1
 91
        4
 64
     7
 65
   257
 75
     1
175
     1
 42
1.0
 92
        0
 66
   257
 43
1.0
 76
     1
 77
     6
 78
     2
 67
     7
 79
     3
170
     0
171
     0
290
     0
174
     0
 93
        1
 44
0.0
173
     0
291
     0
 45
0.0
  0
VISUALSTYLE
  5
40
102
{ACAD_REACTORS
330
2A
102
}
102
{ACAD_XDICTIONARY
360
49F
102
}
330
2A
100
AcDbVisualStyle
  2
X-Ray
 70
    25
 71
     2
 72
     2
 73
     1
 90
        1
 40
0.5
 41
30.0
 62
     5
 63
     7
421
 16777215
 74
     1
 91
        0
 64
     7
 65
   257
 75
     1
175
     1
 42
1.0
 92
        8
 66
     7
 43
1.0
 76
     1
 77
     6
 78
     2
 67
     7
 79
     3
170
     0
171
     0
290
     0
174
     0
 93
       13
 44
0.0
173
     0
291
     0
 45
0.0
  0
DICTIONARYVAR
  5
473
102
{ACAD_REACTORS
330
472
102
}
330
472
100
DictionaryVariables
280
     0
  1
1:1
  0
DICTIONARYVAR
  5
4AF
102
{ACAD_REACTORS
330
472
102
}
330
472
100
DictionaryVariables
280
     0
  1
3.500000
  0
DICTIONARYVAR
  5
4B0
102
{ACAD_REACTORS
330
472
102
}
330
472
100
DictionaryVariables
280
     0
  1
acadiso.lin
  0
DICTIONARYVAR
  5
4AC
102
{ACAD_REACTORS
330
472
102
}
330
472
100
DictionaryVariables
280
     0
  1
Standard
  0
DICTIONARYVAR
  5
4AB
102
{ACAD_REACTORS
330
472
102
}
330
472
100
DictionaryVariables
280
     0
  1
Standard
  0
DICTIONARYVAR
  5
474
102
{ACAD_REACTORS
330
472
102
}
330
472
100
DictionaryVariables
280
     0
  1
2
  0
DICTIONARY
  5
4A8
330
6C
100
AcDbDictionary
280
     1
281
     1
  3
ACAD_XREC_ROUNDTRIP
360
4A9
  0
DICTIONARY
  5
4A5
330
6A
100
AcDbDictionary
280
     1
281
     1
  3
ACAD_ROUNDTRIP_2008_TABLESTYLE_CELLSTYLEMAP
360
4A6
  0
DICTIONARY
  5
47D
330
2F
100
AcDbDictionary
280
     1
281
     1
  3
ACAD_XREC_ROUNDTRIP
360
47E
  0
DICTIONARY
  5
483
330
32
100
AcDbDictionary
280
     1
281
     1
  3
ACAD_XREC_ROUNDTRIP
360
484
  0
DICTIONARY
  5
48B
330
36
100
AcDbDictionary
280
     1
281
     1
  3
ACAD_XREC_ROUNDTRIP
360
48C
  0
DICTIONARY
  5
493
330
3A
100
AcDbDictionary
280
     1
281
     1
  3
ACAD_XREC_ROUNDTRIP
360
494
  0
DICTIONARY
  5
487
330
34
100
AcDbDictionary
280
     1
281
     1
  3
ACAD_XREC_ROUNDTRIP
360
488
  0
DICTIONARY
  5
489
330
35
100
AcDbDictionary
280
     1
281
     1
  3
ACAD_XREC_ROUNDTRIP
360
48A
  0
DICTIONARY
  5
499
330
3D
100
AcDbDictionary
280
     1
281
     1
  3
ACAD_XREC_ROUNDTRIP
360
49A
  0
DICTIONARY
  5
491
330
39
100
AcDbDictionary
280
     1
281
     1
  3
ACAD_XREC_ROUNDTRIP
360
492
  0
DICTIONARY
  5
475
330
2B
100
AcDbDictionary
280
     1
281
     1
  3
ACAD_XREC_ROUNDTRIP
360
476
  0
DICTIONARY
  5
477
330
2C
100
AcDbDictionary
280
     1
281
     1
  3
ACAD_XREC_ROUNDTRIP
360
478
  0
DICTIONARY
  5
479
330
2D
100
AcDbDictionary
280
     1
281
     1
  3
ACAD_XREC_ROUNDTRIP
360
47A
  0
DICTIONARY
  5
47B
330
2E
100
AcDbDictionary
280
     1
281
     1
  3
ACAD_XREC_ROUNDTRIP
360
47C
  0
DICTIONARY
  5
481
330
31
100
AcDbDictionary
280
     1
281
     1
  3
ACAD_XREC_ROUNDTRIP
360
482
  0
DICTIONARY
  5
495
330
3B
100
AcDbDictionary
280
     1
281
     1
  3
ACAD_XREC_ROUNDTRIP
360
496
  0
DICTIONARY
  5
48F
330
38
100
AcDbDictionary
280
     1
281
     1
  3
ACAD_XREC_ROUNDTRIP
360
490
  0
DICTIONARY
  5
497
330
3C
100
AcDbDictionary
280
     1
281
     1
  3
ACAD_XREC_ROUNDTRIP
360
498
  0
DICTIONARY
  5
485
330
33
100
AcDbDictionary
280
     1
281
     1
  3
ACAD_XREC_ROUNDTRIP
360
486
  0
DICTIONARY
  5
4A3
330
42
100
AcDbDictionary
280
     1
281
     1
  3
ACAD_XREC_ROUNDTRIP
360
4A4
  0
DICTIONARY
  5
4A1
330
41
100
AcDbDictionary
280
     1
281
     1
  3
ACAD_XREC_ROUNDTRIP
360
4A2
  0
DICTIONARY
  5
49B
330
3E
100
AcDbDictionary
280
     1
281
     1
  3
ACAD_XREC_ROUNDTRIP
360
49C
  0
DICTIONARY
  5
49D
330
3F
100
AcDbDictionary
280
     1
281
     1
  3
ACAD_XREC_ROUNDTRIP
360
49E
  0
DICTIONARY
  5
48D
330
37
100
AcDbDictionary
280
     1
281
     1
  3
ACAD_XREC_ROUNDTRIP
360
48E
  0
DICTIONARY
  5
47F
330
30
100
AcDbDictionary
280
     1
281
     1
  3
ACAD_XREC_ROUNDTRIP
360
480
  0
DICTIONARY
  5
49F
330
40
100
AcDbDictionary
280
     1
281
     1
  3
ACAD_XREC_ROUNDTRIP
360
4A0
  0
XRECORD
  5
4A9
102
{ACAD_REACTORS
330
4A8
102
}
330
4A8
100
AcDbXrecord
280
     1
102
ACAD_ROUNDTRIP_2010_MLEADER_STYLE
  0
CELLSTYLEMAP
  5
4A6
102
{ACAD_REACTORS
330
4A5
102
}
330
4A5
100
AcDbCellStyleMap
 90
        3
300
CELLSTYLE
  1
TABLEFORMAT_BEGIN
 90
        5
170
     1
 91
        0
 92
    32768
 62
   257
 93
        1
300
CONTENTFORMAT
  1
CONTENTFORMAT_BEGIN
 90
        0
 91
        0
 92
        4
 93
        0
300

 40
0.0
140
1.0
 94
        5
 62
     0
340
11
144
6.0
309
CONTENTFORMAT_END
171
     1
301
MARGIN
  1
CELLMARGIN_BEGIN
 40
1.5
 40
1.5
 40
1.5
 40
1.5
 40
1.5
 40
1.5
309
CELLMARGIN_END
 94
        6
 95
        1
302
GRIDFORMAT
  1
GRIDFORMAT_BEGIN
 90
        0
 91
        1
 62
     0
 92
       -2
340
14
 93
        0
 40
0.045
309
GRIDFORMAT_END
 95
        2
302
GRIDFORMAT
  1
GRIDFORMAT_BEGIN
 90
        0
 91
        1
 62
     0
 92
       -2
340
14
 93
        0
 40
0.045
309
GRIDFORMAT_END
 95
        4
302
GRIDFORMAT
  1
GRIDFORMAT_BEGIN
 90
        0
 91
        1
 62
     0
 92
       -2
340
14
 93
        0
 40
0.045
309
GRIDFORMAT_END
 95
        8
302
GRIDFORMAT
  1
GRIDFORMAT_BEGIN
 90
        0
 91
        1
 62
     0
 92
       -2
340
14
 93
        0
 40
0.045
309
GRIDFORMAT_END
 95
       16
302
GRIDFORMAT
  1
GRIDFORMAT_BEGIN
 90
        0
 91
        1
 62
     0
 92
       -2
340
14
 93
        0
 40
0.045
309
GRIDFORMAT_END
 95
       32
302
GRIDFORMAT
  1
GRIDFORMAT_BEGIN
 90
        0
 91
        1
 62
     0
 92
       -2
340
14
 93
        0
 40
0.045
309
GRIDFORMAT_END
309
TABLEFORMAT_END
  1
CELLSTYLE_BEGIN
 90
        1
 91
        1
300
_TITLE
309
CELLSTYLE_END
300
CELLSTYLE
  1
TABLEFORMAT_BEGIN
 90
        5
170
     1
 91
        0
 92
        0
 62
   257
 93
        1
300
CONTENTFORMAT
  1
CONTENTFORMAT_BEGIN
 90
        0
 91
        0
 92
        4
 93
        0
300

 40
0.0
140
1.0
 94
        5
 62
     0
340
11
144
4.5
309
CONTENTFORMAT_END
171
     1
301
MARGIN
  1
CELLMARGIN_BEGIN
 40
1.5
 40
1.5
 40
1.5
 40
1.5
 40
1.5
 40
1.5
309
CELLMARGIN_END
 94
        6
 95
        1
302
GRIDFORMAT
  1
GRIDFORMAT_BEGIN
 90
        0
 91
        1
 62
     0
 92
       -2
340
14
 93
        0
 40
0.045
309
GRIDFORMAT_END
 95
        2
302
GRIDFORMAT
  1
GRIDFORMAT_BEGIN
 90
        0
 91
        1
 62
     0
 92
       -2
340
14
 93
        0
 40
0.045
309
GRIDFORMAT_END
 95
        4
302
GRIDFORMAT
  1
GRIDFORMAT_BEGIN
 90
        0
 91
        1
 62
     0
 92
       -2
340
14
 93
        0
 40
0.045
309
GRIDFORMAT_END
 95
        8
302
GRIDFORMAT
  1
GRIDFORMAT_BEGIN
 90
        0
 91
        1
 62
     0
 92
       -2
340
14
 93
        0
 40
0.045
309
GRIDFORMAT_END
 95
       16
302
GRIDFORMAT
  1
GRIDFORMAT_BEGIN
 90
        0
 91
        1
 62
     0
 92
       -2
340
14
 93
        0
 40
0.045
309
GRIDFORMAT_END
 95
       32
302
GRIDFORMAT
  1
GRIDFORMAT_BEGIN
 90
        0
 91
        1
 62
     0
 92
       -2
340
14
 93
        0
 40
0.045
309
GRIDFORMAT_END
309
TABLEFORMAT_END
  1
CELLSTYLE_BEGIN
 90
        2
 91
        1
300
_HEADER
309
CELLSTYLE_END
300
CELLSTYLE
  1
TABLEFORMAT_BEGIN
 90
        5
170
     1
 91
        0
 92
        0
 62
   257
 93
        1
300
CONTENTFORMAT
  1
CONTENTFORMAT_BEGIN
 90
        0
 91
        0
 92
        4
 93
        0
300

 40
0.0
140
1.0
 94
        2
 62
     0
340
11
144
4.5
309
CONTENTFORMAT_END
171
     1
301
MARGIN
  1
CELLMARGIN_BEGIN
 40
1.5
 40
1.5
 40
1.5
 40
1.5
 40
1.5
 40
1.5
309
CELLMARGIN_END
 94
        6
 95
        1
302
GRIDFORMAT
  1
GRIDFORMAT_BEGIN
 90
        0
 91
        1
 62
     0
 92
       -2
340
14
 93
        0
 40
0.045
309
GRIDFORMAT_END
 95
        2
302
GRIDFORMAT
  1
GRIDFORMAT_BEGIN
 90
        0
 91
        1
 62
     0
 92
       -2
340
14
 93
        0
 40
0.045
309
GRIDFORMAT_END
 95
        4
302
GRIDFORMAT
  1
GRIDFORMAT_BEGIN
 90
        0
 91
        1
 62
     0
 92
       -2
340
14
 93
        0
 40
0.045
309
GRIDFORMAT_END
 95
        8
302
GRIDFORMAT
  1
GRIDFORMAT_BEGIN
 90
        0
 91
        1
 62
     0
 92
       -2
340
14
 93
        0
 40
0.045
309
GRIDFORMAT_END
 95
       16
302
GRIDFORMAT
  1
GRIDFORMAT_BEGIN
 90
        0
 91
        1
 62
     0
 92
       -2
340
14
 93
        0
 40
0.045
309
GRIDFORMAT_END
 95
       32
302
GRIDFORMAT
  1
GRIDFORMAT_BEGIN
 90
        0
 91
        1
 62
     0
 92
       -2
340
14
 93
        0
 40
0.045
309
GRIDFORMAT_END
309
TABLEFORMAT_END
  1
CELLSTYLE_BEGIN
 90
        3
 91
        2
300
_DATA
309
CELLSTYLE_END
  0
XRECORD
  5
47E
102
{ACAD_REACTORS
330
47D
102
}
330
47D
100
AcDbXrecord
280
     1
102
RTVSPropertyOp0
 70
     1
102
RTVSPropertyOp1
 70
     1
102
RTVSPropertyOp2
 70
     1
102
RTVSPropertyOp3
 70
     1
102
RTVSPropertyOp4
 70
     1
102
RTVSPropertyOp5
 70
     1
102
RTVSPropertyOp6
 70
     1
102
RTVSPropertyOp7
 70
     1
102
RTVSPropertyOp8
 70
     1
102
RTVSPropertyOp9
 70
     1
102
RTVSPropertyOp10
 70
     1
102
RTVSPropertyOp11
 70
     1
102
RTVSPropertyOp12
 70
     1
102
RTVSPropertyOp13
 70
     1
102
RTVSPropertyOp14
 70
     1
102
RTVSPropertyOp15
 70
     1
102
RTVSPropertyOp16
 70
     1
102
RTVSPropertyOp17
 70
     1
102
RTVSPropertyOp18
 70
     1
102
RTVSPropertyOp19
 70
     1
102
RTVSPropertyOp20
 70
     1
102
RTVSPropertyOp21
 70
     1
102
RTVSPropertyOp22
 70
     1
102
RTVSPropertyOp23
 70
     1
102
RTVSPropertyOp24
 70
     1
102
RTVSPropertyOp25
 70
     1
102
RTVSPropertyOp26
 70
     1
102
RTVSPropertyOp27
 70
     1
102
RTVSPropertyOp28
 70
     1
102
RTVSPropertyOp29
 70
     1
102
RTVSPropertyOp30
 70
     1
102
RTVSPropertyOp31
 70
     1
102
RTVSPropertyOp32
 70
     1
102
RTVSPropertyOp33
 70
     1
102
RTVSPropertyOp34
 70
     1
102
RTVSPropertyOp35
 70
     1
102
RTVSPropertyOp36
 70
     1
102
RTVSPropertyOp37
 70
     1
102
RTVSPropertyOp38
 70
     1
102
RTVSPropertyOp39
 70
     1
102
RTVSPropertyOp40
 70
     1
102
RTVSPropertyOp41
 70
     1
102
RTVSPropertyOp42
 70
     1
102
RTVSPropertyOp43
 70
     1
102
RTVSPropertyOp44
 70
     1
102
RTVSPropertyOp45
 70
     1
102
RTVSPropertyOp46
 70
     1
102
RTVSPropertyOp47
 70
     1
102
RTVSPropertyOp48
 70
     1
102
RTVSPropertyOp49
 70
     1
102
RTVSPropertyOp50
 70
     1
102
RTVSPropertyOp51
 70
     0
102
RTVSPropertyOp52
 70
     0
102
RTVSPropertyOp53
 70
     1
102
RTVSPropertyOp54
 70
     1
102
RTVSPropertyOp55
 70
     1
102
RTVSPropertyOp56
 70
     1
102
RTVSPropertyOp57
 70
     1
102
RTVSPost2010Prop28
280
     1
102
RTVSPost2010PropOp28
 70
     1
102
RTVSPost2010Prop29
280
     1
102
RTVSPost2010PropOp29
 70
     1
102
RTVSPost2010Prop30
280
     0
102
RTVSPost2010PropOp30
 70
     1
102
RTVSPost2010Prop31
280
     0
102
RTVSPost2010PropOp31
 70
     1
102
RTVSPost2010Prop32
280
     0
102
RTVSPost2010PropOp32
 70
     1
102
RTVSPost2010Prop33
280
     0
102
RTVSPost2010PropOp33
 70
     1
102
RTVSPost2010Prop34
280
     0
102
RTVSPost2010PropOp34
 70
     1
102
RTVSPost2010Prop35
280
     0
102
RTVSPost2010PropOp35
 70
     1
102
RTVSPost2010Prop36
280
     0
102
RTVSPost2010PropOp36
 70
     1
102
RTVSPost2010Prop37
 90
       50
102
RTVSPost2010PropOp37
 70
     1
102
RTVSPost2010Prop38
140
0.0
102
RTVSPost2010PropOp38
 70
     1
102
RTVSPost2010Prop39
140
1.0
102
RTVSPost2010PropOp39
 70
     1
102
RTVSPost2010Prop40
 90
        0
102
RTVSPost2010PropOp40
 70
     1
102
RTVSPost2010Prop41ColorIndex
 90
       18
102
RTVSPost2010Prop41ColorRGB
 90
        0
102
RTVSPost2010PropOp41
 70
     1
102
RTVSPost2010Prop42
 90
       50
102
RTVSPost2010PropOp42
 70
     1
102
RTVSPost2010Prop43
 90
        3
102
RTVSPost2010PropOp43
 70
     1
102
RTVSPost2010Prop44ColorIndex
 90
        5
102
RTVSPost2010Prop44ColorRGB
 90
      255
102
RTVSPost2010PropOp44
 70
     1
102
RTVSPost2010Prop45
280
     0
102
RTVSPost2010PropOp45
 70
     1
102
RTVSPost2010Prop46
 90
       50
102
RTVSPost2010PropOp46
 70
     1
102
RTVSPost2010Prop47
 90
       50
102
RTVSPost2010PropOp47
 70
     1
102
RTVSPost2010Prop48
 90
       50
102
RTVSPost2010PropOp48
 70
     1
102
RTVSPost2010Prop49
280
     0
102
RTVSPost2010PropOp49
 70
     1
102
RTVSPost2010Prop50
 90
       50
102
RTVSPost2010PropOp50
 70
     1
102
RTVSPost2010Prop51ColorIndex
 90
      256
102
RTVSPost2010Prop51ColorRGB
 90
-16777216
102
RTVSPost2010PropOp51
 70
     0
102
RTVSPost2010Prop52
140
1.0
102
RTVSPost2010PropOp52
 70
     0
102
RTVSPost2010Prop53
 90
        2
102
RTVSPost2010PropOp53
 70
     1
102
RTVSPost2010Prop54
  1
strokes_ogs.tif
102
RTVSPost2010PropOp54
 70
     1
102
RTVSPost2010Prop55
280
     0
102
RTVSPost2010PropOp55
 70
     1
102
RTVSPost2010Prop56
140
1.0
102
RTVSPost2010PropOp56
 70
     1
102
RTVSPost2010Prop57
140
1.0
102
RTVSPost2010PropOp57
 70
     1
  0
XRECORD
  5
484
102
{ACAD_REACTORS
330
483
102
}
330
483
100
AcDbXrecord
280
     1
102
RTVSPropertyOp0
 70
     1
102
RTVSPropertyOp1
 70
     1
102
RTVSPropertyOp2
 70
     1
102
RTVSPropertyOp3
 70
     1
102
RTVSPropertyOp4
 70
     1
102
RTVSPropertyOp5
 70
     1
102
RTVSPropertyOp6
 70
     1
102
RTVSPropertyOp7
 70
     1
102
RTVSPropertyOp8
 70
     1
102
RTVSPropertyOp9
 70
     1
102
RTVSPropertyOp10
 70
     1
102
RTVSPropertyOp11
 70
     1
102
RTVSPropertyOp12
 70
     1
102
RTVSPropertyOp13
 70
     1
102
RTVSPropertyOp14
 70
     1
102
RTVSPropertyOp15
 70
     1
102
RTVSPropertyOp16
 70
     1
102
RTVSPropertyOp17
 70
     1
102
RTVSPropertyOp18
 70
     1
102
RTVSPropertyOp19
 70
     1
102
RTVSPropertyOp20
 70
     1
102
RTVSPropertyOp21
 70
     1
102
RTVSPropertyOp22
 70
     1
102
RTVSPropertyOp23
 70
     1
102
RTVSPropertyOp24
 70
     1
102
RTVSPropertyOp25
 70
     1
102
RTVSPropertyOp26
 70
     1
102
RTVSPropertyOp27
 70
     1
102
RTVSPropertyOp28
 70
     1
102
RTVSPropertyOp29
 70
     1
102
RTVSPropertyOp30
 70
     1
102
RTVSPropertyOp31
 70
     1
102
RTVSPropertyOp32
 70
     1
102
RTVSPropertyOp33
 70
     1
102
RTVSPropertyOp34
 70
     1
102
RTVSPropertyOp35
 70
     1
102
RTVSPropertyOp36
 70
     1
102
RTVSPropertyOp37
 70
     1
102
RTVSPropertyOp38
 70
     1
102
RTVSPropertyOp39
 70
     1
102
RTVSPropertyOp40
 70
     1
102
RTVSPropertyOp41
 70
     1
102
RTVSPropertyOp42
 70
     1
102
RTVSPropertyOp43
 70
     1
102
RTVSPropertyOp44
 70
     1
102
RTVSPropertyOp45
 70
     1
102
RTVSPropertyOp46
 70
     1
102
RTVSPropertyOp47
 70
     1
102
RTVSPropertyOp48
 70
     1
102
RTVSPropertyOp49
 70
     1
102
RTVSPropertyOp50
 70
     1
102
RTVSPropertyOp51
 70
     0
102
RTVSPropertyOp52
 70
     0
102
RTVSPropertyOp53
 70
     1
102
RTVSPropertyOp54
 70
     1
102
RTVSPropertyOp55
 70
     1
102
RTVSPropertyOp56
 70
     1
102
RTVSPropertyOp57
 70
     1
102
RTVSPost2010Prop28
280
     0
102
RTVSPost2010PropOp28
 70
     1
102
RTVSPost2010Prop29
280
     1
102
RTVSPost2010PropOp29
 70
     1
102
RTVSPost2010Prop30
280
     1
102
RTVSPost2010PropOp30
 70
     1
102
RTVSPost2010Prop31
280
     0
102
RTVSPost2010PropOp31
 70
     1
102
RTVSPost2010Prop32
280
     0
102
RTVSPost2010PropOp32
 70
     1
102
RTVSPost2010Prop33
280
     0
102
RTVSPost2010PropOp33
 70
     1
102
RTVSPost2010Prop34
280
     0
102
RTVSPost2010PropOp34
 70
     1
102
RTVSPost2010Prop35
280
     0
102
RTVSPost2010PropOp35
 70
     1
102
RTVSPost2010Prop36
280
     0
102
RTVSPost2010PropOp36
 70
     1
102
RTVSPost2010Prop37
 90
       50
102
RTVSPost2010PropOp37
 70
     1
102
RTVSPost2010Prop38
140
0.0
102
RTVSPost2010PropOp38
 70
     1
102
RTVSPost2010Prop39
140
1.0
102
RTVSPost2010PropOp39
 70
     1
102
RTVSPost2010Prop40
 90
        0
102
RTVSPost2010PropOp40
 70
     1
102
RTVSPost2010Prop41ColorIndex
 90
       18
102
RTVSPost2010Prop41ColorRGB
 90
        0
102
RTVSPost2010PropOp41
 70
     1
102
RTVSPost2010Prop42
 90
       50
102
RTVSPost2010PropOp42
 70
     1
102
RTVSPost2010Prop43
 90
        3
102
RTVSPost2010PropOp43
 70
     1
102
RTVSPost2010Prop44ColorIndex
 90
        5
102
RTVSPost2010Prop44ColorRGB
 90
      255
102
RTVSPost2010PropOp44
 70
     1
102
RTVSPost2010Prop45
280
     0
102
RTVSPost2010PropOp45
 70
     1
102
RTVSPost2010Prop46
 90
       50
102
RTVSPost2010PropOp46
 70
     1
102
RTVSPost2010Prop47
 90
       50
102
RTVSPost2010PropOp47
 70
     1
102
RTVSPost2010Prop48
 90
       50
102
RTVSPost2010PropOp48
 70
     1
102
RTVSPost2010Prop49
280
     0
102
RTVSPost2010PropOp49
 70
     1
102
RTVSPost2010Prop50
 90
       50
102
RTVSPost2010PropOp50
 70
     1
102
RTVSPost2010Prop51ColorIndex
 90
      256
102
RTVSPost2010Prop51ColorRGB
 90
-16777216
102
RTVSPost2010PropOp51
 70
     0
102
RTVSPost2010Prop52
140
1.0
102
RTVSPost2010PropOp52
 70
     0
102
RTVSPost2010Prop53
 90
        2
102
RTVSPost2010PropOp53
 70
     1
102
RTVSPost2010Prop54
  1
strokes_ogs.tif
102
RTVSPost2010PropOp54
 70
     1
102
RTVSPost2010Prop55
280
     0
102
RTVSPost2010PropOp55
 70
     1
102
RTVSPost2010Prop56
140
1.0
102
RTVSPost2010PropOp56
 70
     1
102
RTVSPost2010Prop57
140
1.0
102
RTVSPost2010PropOp57
 70
     1
  0
XRECORD
  5
48C
102
{ACAD_REACTORS
330
48B
102
}
330
48B
100
AcDbXrecord
280
     1
102
RTVSPropertyOp0
 70
     1
102
RTVSPropertyOp1
 70
     1
102
RTVSPropertyOp2
 70
     1
102
RTVSPropertyOp3
 70
     1
102
RTVSPropertyOp4
 70
     1
102
RTVSPropertyOp5
 70
     1
102
RTVSPropertyOp6
 70
     1
102
RTVSPropertyOp7
 70
     1
102
RTVSPropertyOp8
 70
     1
102
RTVSPropertyOp9
 70
     1
102
RTVSPropertyOp10
 70
     1
102
RTVSPropertyOp11
 70
     1
102
RTVSPropertyOp12
 70
     1
102
RTVSPropertyOp13
 70
     1
102
RTVSPropertyOp14
 70
     1
102
RTVSPropertyOp15
 70
     1
102
RTVSPropertyOp16
 70
     1
102
RTVSPropertyOp17
 70
     1
102
RTVSPropertyOp18
 70
     1
102
RTVSPropertyOp19
 70
     1
102
RTVSPropertyOp20
 70
     1
102
RTVSPropertyOp21
 70
     1
102
RTVSPropertyOp22
 70
     1
102
RTVSPropertyOp23
 70
     1
102
RTVSPropertyOp24
 70
     1
102
RTVSPropertyOp25
 70
     1
102
RTVSPropertyOp26
 70
     1
102
RTVSPropertyOp27
 70
     1
102
RTVSPropertyOp28
 70
     1
102
RTVSPropertyOp29
 70
     1
102
RTVSPropertyOp30
 70
     1
102
RTVSPropertyOp31
 70
     1
102
RTVSPropertyOp32
 70
     1
102
RTVSPropertyOp33
 70
     1
102
RTVSPropertyOp34
 70
     1
102
RTVSPropertyOp35
 70
     1
102
RTVSPropertyOp36
 70
     1
102
RTVSPropertyOp37
 70
     1
102
RTVSPropertyOp38
 70
     1
102
RTVSPropertyOp39
 70
     1
102
RTVSPropertyOp40
 70
     1
102
RTVSPropertyOp41
 70
     1
102
RTVSPropertyOp42
 70
     1
102
RTVSPropertyOp43
 70
     1
102
RTVSPropertyOp44
 70
     1
102
RTVSPropertyOp45
 70
     1
102
RTVSPropertyOp46
 70
     1
102
RTVSPropertyOp47
 70
     1
102
RTVSPropertyOp48
 70
     1
102
RTVSPropertyOp49
 70
     1
102
RTVSPropertyOp50
 70
     1
102
RTVSPropertyOp51
 70
     0
102
RTVSPropertyOp52
 70
     0
102
RTVSPropertyOp53
 70
     1
102
RTVSPropertyOp54
 70
     1
102
RTVSPropertyOp55
 70
     1
102
RTVSPropertyOp56
 70
     1
102
RTVSPropertyOp57
 70
     1
102
RTVSPost2010Prop28
280
     0
102
RTVSPost2010PropOp28
 70
     1
102
RTVSPost2010Prop29
280
     1
102
RTVSPost2010PropOp29
 70
     1
102
RTVSPost2010Prop30
280
     1
102
RTVSPost2010PropOp30
 70
     1
102
RTVSPost2010Prop31
280
     0
102
RTVSPost2010PropOp31
 70
     1
102
RTVSPost2010Prop32
280
     0
102
RTVSPost2010PropOp32
 70
     1
102
RTVSPost2010Prop33
280
     0
102
RTVSPost2010PropOp33
 70
     1
102
RTVSPost2010Prop34
280
     0
102
RTVSPost2010PropOp34
 70
     1
102
RTVSPost2010Prop35
280
     0
102
RTVSPost2010PropOp35
 70
     1
102
RTVSPost2010Prop36
280
     0
102
RTVSPost2010PropOp36
 70
     1
102
RTVSPost2010Prop37
 90
       50
102
RTVSPost2010PropOp37
 70
     1
102
RTVSPost2010Prop38
140
0.0
102
RTVSPost2010PropOp38
 70
     1
102
RTVSPost2010Prop39
140
1.0
102
RTVSPost2010PropOp39
 70
     1
102
RTVSPost2010Prop40
 90
        0
102
RTVSPost2010PropOp40
 70
     1
102
RTVSPost2010Prop41ColorIndex
 90
       18
102
RTVSPost2010Prop41ColorRGB
 90
        0
102
RTVSPost2010PropOp41
 70
     1
102
RTVSPost2010Prop42
 90
       50
102
RTVSPost2010PropOp42
 70
     1
102
RTVSPost2010Prop43
 90
        3
102
RTVSPost2010PropOp43
 70
     1
102
RTVSPost2010Prop44ColorIndex
 90
        5
102
RTVSPost2010Prop44ColorRGB
 90
      255
102
RTVSPost2010PropOp44
 70
     1
102
RTVSPost2010Prop45
280
     0
102
RTVSPost2010PropOp45
 70
     1
102
RTVSPost2010Prop46
 90
       50
102
RTVSPost2010PropOp46
 70
     1
102
RTVSPost2010Prop47
 90
       50
102
RTVSPost2010PropOp47
 70
     1
102
RTVSPost2010Prop48
 90
       50
102
RTVSPost2010PropOp48
 70
     1
102
RTVSPost2010Prop49
280
     0
102
RTVSPost2010PropOp49
 70
     1
102
RTVSPost2010Prop50
 90
       50
102
RTVSPost2010PropOp50
 70
     1
102
RTVSPost2010Prop51ColorIndex
 90
      256
102
RTVSPost2010Prop51ColorRGB
 90
-16777216
102
RTVSPost2010PropOp51
 70
     0
102
RTVSPost2010Prop52
140
1.0
102
RTVSPost2010PropOp52
 70
     0
102
RTVSPost2010Prop53
 90
        2
102
RTVSPost2010PropOp53
 70
     1
102
RTVSPost2010Prop54
  1
strokes_ogs.tif
102
RTVSPost2010PropOp54
 70
     1
102
RTVSPost2010Prop55
280
     0
102
RTVSPost2010PropOp55
 70
     1
102
RTVSPost2010Prop56
140
1.0
102
RTVSPost2010PropOp56
 70
     1
102
RTVSPost2010Prop57
140
1.0
102
RTVSPost2010PropOp57
 70
     1
  0
XRECORD
  5
494
102
{ACAD_REACTORS
330
493
102
}
330
493
100
AcDbXrecord
280
     1
102
RTVSPropertyOp0
 70
     1
102
RTVSPropertyOp1
 70
     1
102
RTVSPropertyOp2
 70
     1
102
RTVSPropertyOp3
 70
     1
102
RTVSPropertyOp4
 70
     1
102
RTVSPropertyOp5
 70
     1
102
RTVSPropertyOp6
 70
     1
102
RTVSPropertyOp7
 70
     1
102
RTVSPropertyOp8
 70
     1
102
RTVSPropertyOp9
 70
     1
102
RTVSPropertyOp10
 70
     1
102
RTVSPropertyOp11
 70
     1
102
RTVSPropertyOp12
 70
     1
102
RTVSPropertyOp13
 70
     1
102
RTVSPropertyOp14
 70
     1
102
RTVSPropertyOp15
 70
     1
102
RTVSPropertyOp16
 70
     1
102
RTVSPropertyOp17
 70
     1
102
RTVSPropertyOp18
 70
     1
102
RTVSPropertyOp19
 70
     1
102
RTVSPropertyOp20
 70
     1
102
RTVSPropertyOp21
 70
     1
102
RTVSPropertyOp22
 70
     1
102
RTVSPropertyOp23
 70
     1
102
RTVSPropertyOp24
 70
     1
102
RTVSPropertyOp25
 70
     1
102
RTVSPropertyOp26
 70
     1
102
RTVSPropertyOp27
 70
     1
102
RTVSPropertyOp28
 70
     1
102
RTVSPropertyOp29
 70
     1
102
RTVSPropertyOp30
 70
     1
102
RTVSPropertyOp31
 70
     1
102
RTVSPropertyOp32
 70
     1
102
RTVSPropertyOp33
 70
     1
102
RTVSPropertyOp34
 70
     1
102
RTVSPropertyOp35
 70
     1
102
RTVSPropertyOp36
 70
     1
102
RTVSPropertyOp37
 70
     1
102
RTVSPropertyOp38
 70
     1
102
RTVSPropertyOp39
 70
     1
102
RTVSPropertyOp40
 70
     1
102
RTVSPropertyOp41
 70
     1
102
RTVSPropertyOp42
 70
     1
102
RTVSPropertyOp43
 70
     1
102
RTVSPropertyOp44
 70
     1
102
RTVSPropertyOp45
 70
     1
102
RTVSPropertyOp46
 70
     1
102
RTVSPropertyOp47
 70
     1
102
RTVSPropertyOp48
 70
     1
102
RTVSPropertyOp49
 70
     1
102
RTVSPropertyOp50
 70
     1
102
RTVSPropertyOp51
 70
     0
102
RTVSPropertyOp52
 70
     0
102
RTVSPropertyOp53
 70
     1
102
RTVSPropertyOp54
 70
     1
102
RTVSPropertyOp55
 70
     1
102
RTVSPropertyOp56
 70
     1
102
RTVSPropertyOp57
 70
     1
102
RTVSPost2010Prop28
280
     0
102
RTVSPost2010PropOp28
 70
     1
102
RTVSPost2010Prop29
280
     1
102
RTVSPost2010PropOp29
 70
     1
102
RTVSPost2010Prop30
280
     1
102
RTVSPost2010PropOp30
 70
     1
102
RTVSPost2010Prop31
280
     0
102
RTVSPost2010PropOp31
 70
     1
102
RTVSPost2010Prop32
280
     0
102
RTVSPost2010PropOp32
 70
     1
102
RTVSPost2010Prop33
280
     0
102
RTVSPost2010PropOp33
 70
     1
102
RTVSPost2010Prop34
280
     0
102
RTVSPost2010PropOp34
 70
     1
102
RTVSPost2010Prop35
280
     0
102
RTVSPost2010PropOp35
 70
     1
102
RTVSPost2010Prop36
280
     0
102
RTVSPost2010PropOp36
 70
     1
102
RTVSPost2010Prop37
 90
       50
102
RTVSPost2010PropOp37
 70
     1
102
RTVSPost2010Prop38
140
0.0
102
RTVSPost2010PropOp38
 70
     1
102
RTVSPost2010Prop39
140
1.0
102
RTVSPost2010PropOp39
 70
     1
102
RTVSPost2010Prop40
 90
        0
102
RTVSPost2010PropOp40
 70
     1
102
RTVSPost2010Prop41ColorIndex
 90
       18
102
RTVSPost2010Prop41ColorRGB
 90
        0
102
RTVSPost2010PropOp41
 70
     1
102
RTVSPost2010Prop42
 90
       50
102
RTVSPost2010PropOp42
 70
     1
102
RTVSPost2010Prop43
 90
        3
102
RTVSPost2010PropOp43
 70
     1
102
RTVSPost2010Prop44ColorIndex
 90
        5
102
RTVSPost2010Prop44ColorRGB
 90
      255
102
RTVSPost2010PropOp44
 70
     1
102
RTVSPost2010Prop45
280
     0
102
RTVSPost2010PropOp45
 70
     1
102
RTVSPost2010Prop46
 90
       50
102
RTVSPost2010PropOp46
 70
     1
102
RTVSPost2010Prop47
 90
       50
102
RTVSPost2010PropOp47
 70
     1
102
RTVSPost2010Prop48
 90
       50
102
RTVSPost2010PropOp48
 70
     1
102
RTVSPost2010Prop49
280
     0
102
RTVSPost2010PropOp49
 70
     1
102
RTVSPost2010Prop50
 90
       50
102
RTVSPost2010PropOp50
 70
     1
102
RTVSPost2010Prop51ColorIndex
 90
      256
102
RTVSPost2010Prop51ColorRGB
 90
-16777216
102
RTVSPost2010PropOp51
 70
     0
102
RTVSPost2010Prop52
140
1.0
102
RTVSPost2010PropOp52
 70
     0
102
RTVSPost2010Prop53
 90
        2
102
RTVSPost2010PropOp53
 70
     1
102
RTVSPost2010Prop54
  1
strokes_ogs.tif
102
RTVSPost2010PropOp54
 70
     1
102
RTVSPost2010Prop55
280
     0
102
RTVSPost2010PropOp55
 70
     1
102
RTVSPost2010Prop56
140
1.0
102
RTVSPost2010PropOp56
 70
     1
102
RTVSPost2010Prop57
140
1.0
102
RTVSPost2010PropOp57
 70
     1
  0
XRECORD
  5
488
102
{ACAD_REACTORS
330
487
102
}
330
487
100
AcDbXrecord
280
     1
102
RTVSPropertyOp0
 70
     1
102
RTVSPropertyOp1
 70
     1
102
RTVSPropertyOp2
 70
     1
102
RTVSPropertyOp3
 70
     1
102
RTVSPropertyOp4
 70
     1
102
RTVSPropertyOp5
 70
     1
102
RTVSPropertyOp6
 70
     1
102
RTVSPropertyOp7
 70
     1
102
RTVSPropertyOp8
 70
     1
102
RTVSPropertyOp9
 70
     1
102
RTVSPropertyOp10
 70
     1
102
RTVSPropertyOp11
 70
     1
102
RTVSPropertyOp12
 70
     1
102
RTVSPropertyOp13
 70
     1
102
RTVSPropertyOp14
 70
     1
102
RTVSPropertyOp15
 70
     1
102
RTVSPropertyOp16
 70
     1
102
RTVSPropertyOp17
 70
     1
102
RTVSPropertyOp18
 70
     1
102
RTVSPropertyOp19
 70
     1
102
RTVSPropertyOp20
 70
     1
102
RTVSPropertyOp21
 70
     1
102
RTVSPropertyOp22
 70
     1
102
RTVSPropertyOp23
 70
     1
102
RTVSPropertyOp24
 70
     1
102
RTVSPropertyOp25
 70
     1
102
RTVSPropertyOp26
 70
     1
102
RTVSPropertyOp27
 70
     1
102
RTVSPropertyOp28
 70
     1
102
RTVSPropertyOp29
 70
     1
102
RTVSPropertyOp30
 70
     1
102
RTVSPropertyOp31
 70
     1
102
RTVSPropertyOp32
 70
     1
102
RTVSPropertyOp33
 70
     1
102
RTVSPropertyOp34
 70
     1
102
RTVSPropertyOp35
 70
     1
102
RTVSPropertyOp36
 70
     1
102
RTVSPropertyOp37
 70
     1
102
RTVSPropertyOp38
 70
     1
102
RTVSPropertyOp39
 70
     1
102
RTVSPropertyOp40
 70
     1
102
RTVSPropertyOp41
 70
     1
102
RTVSPropertyOp42
 70
     1
102
RTVSPropertyOp43
 70
     1
102
RTVSPropertyOp44
 70
     1
102
RTVSPropertyOp45
 70
     1
102
RTVSPropertyOp46
 70
     1
102
RTVSPropertyOp47
 70
     1
102
RTVSPropertyOp48
 70
     1
102
RTVSPropertyOp49
 70
     1
102
RTVSPropertyOp50
 70
     1
102
RTVSPropertyOp51
 70
     0
102
RTVSPropertyOp52
 70
     0
102
RTVSPropertyOp53
 70
     1
102
RTVSPropertyOp54
 70
     1
102
RTVSPropertyOp55
 70
     1
102
RTVSPropertyOp56
 70
     1
102
RTVSPropertyOp57
 70
     1
102
RTVSPost2010Prop28
280
     0
102
RTVSPost2010PropOp28
 70
     1
102
RTVSPost2010Prop29
280
     1
102
RTVSPost2010PropOp29
 70
     1
102
RTVSPost2010Prop30
280
     1
102
RTVSPost2010PropOp30
 70
     1
102
RTVSPost2010Prop31
280
     0
102
RTVSPost2010PropOp31
 70
     1
102
RTVSPost2010Prop32
280
     0
102
RTVSPost2010PropOp32
 70
     1
102
RTVSPost2010Prop33
280
     0
102
RTVSPost2010PropOp33
 70
     1
102
RTVSPost2010Prop34
280
     0
102
RTVSPost2010PropOp34
 70
     1
102
RTVSPost2010Prop35
280
     0
102
RTVSPost2010PropOp35
 70
     1
102
RTVSPost2010Prop36
280
     0
102
RTVSPost2010PropOp36
 70
     1
102
RTVSPost2010Prop37
 90
       50
102
RTVSPost2010PropOp37
 70
     1
102
RTVSPost2010Prop38
140
0.0
102
RTVSPost2010PropOp38
 70
     1
102
RTVSPost2010Prop39
140
1.0
102
RTVSPost2010PropOp39
 70
     1
102
RTVSPost2010Prop40
 90
        0
102
RTVSPost2010PropOp40
 70
     1
102
RTVSPost2010Prop41ColorIndex
 90
       18
102
RTVSPost2010Prop41ColorRGB
 90
        0
102
RTVSPost2010PropOp41
 70
     1
102
RTVSPost2010Prop42
 90
       50
102
RTVSPost2010PropOp42
 70
     1
102
RTVSPost2010Prop43
 90
        3
102
RTVSPost2010PropOp43
 70
     1
102
RTVSPost2010Prop44ColorIndex
 90
        5
102
RTVSPost2010Prop44ColorRGB
 90
      255
102
RTVSPost2010PropOp44
 70
     1
102
RTVSPost2010Prop45
280
     0
102
RTVSPost2010PropOp45
 70
     1
102
RTVSPost2010Prop46
 90
       50
102
RTVSPost2010PropOp46
 70
     1
102
RTVSPost2010Prop47
 90
       50
102
RTVSPost2010PropOp47
 70
     1
102
RTVSPost2010Prop48
 90
       50
102
RTVSPost2010PropOp48
 70
     1
102
RTVSPost2010Prop49
280
     0
102
RTVSPost2010PropOp49
 70
     1
102
RTVSPost2010Prop50
 90
       50
102
RTVSPost2010PropOp50
 70
     1
102
RTVSPost2010Prop51ColorIndex
 90
      256
102
RTVSPost2010Prop51ColorRGB
 90
-16777216
102
RTVSPost2010PropOp51
 70
     0
102
RTVSPost2010Prop52
140
1.0
102
RTVSPost2010PropOp52
 70
     0
102
RTVSPost2010Prop53
 90
        2
102
RTVSPost2010PropOp53
 70
     1
102
RTVSPost2010Prop54
  1
strokes_ogs.tif
102
RTVSPost2010PropOp54
 70
     1
102
RTVSPost2010Prop55
280
     0
102
RTVSPost2010PropOp55
 70
     1
102
RTVSPost2010Prop56
140
1.0
102
RTVSPost2010PropOp56
 70
     1
102
RTVSPost2010Prop57
140
1.0
102
RTVSPost2010PropOp57
 70
     1
  0
XRECORD
  5
48A
102
{ACAD_REACTORS
330
489
102
}
330
489
100
AcDbXrecord
280
     1
102
RTVSPropertyOp0
 70
     1
102
RTVSPropertyOp1
 70
     1
102
RTVSPropertyOp2
 70
     1
102
RTVSPropertyOp3
 70
     1
102
RTVSPropertyOp4
 70
     1
102
RTVSPropertyOp5
 70
     1
102
RTVSPropertyOp6
 70
     1
102
RTVSPropertyOp7
 70
     1
102
RTVSPropertyOp8
 70
     1
102
RTVSPropertyOp9
 70
     1
102
RTVSPropertyOp10
 70
     1
102
RTVSPropertyOp11
 70
     1
102
RTVSPropertyOp12
 70
     1
102
RTVSPropertyOp13
 70
     1
102
RTVSPropertyOp14
 70
     1
102
RTVSPropertyOp15
 70
     1
102
RTVSPropertyOp16
 70
     1
102
RTVSPropertyOp17
 70
     1
102
RTVSPropertyOp18
 70
     1
102
RTVSPropertyOp19
 70
     1
102
RTVSPropertyOp20
 70
     1
102
RTVSPropertyOp21
 70
     1
102
RTVSPropertyOp22
 70
     1
102
RTVSPropertyOp23
 70
     1
102
RTVSPropertyOp24
 70
     1
102
RTVSPropertyOp25
 70
     1
102
RTVSPropertyOp26
 70
     1
102
RTVSPropertyOp27
 70
     1
102
RTVSPropertyOp28
 70
     1
102
RTVSPropertyOp29
 70
     1
102
RTVSPropertyOp30
 70
     1
102
RTVSPropertyOp31
 70
     1
102
RTVSPropertyOp32
 70
     1
102
RTVSPropertyOp33
 70
     1
102
RTVSPropertyOp34
 70
     1
102
RTVSPropertyOp35
 70
     1
102
RTVSPropertyOp36
 70
     1
102
RTVSPropertyOp37
 70
     1
102
RTVSPropertyOp38
 70
     1
102
RTVSPropertyOp39
 70
     1
102
RTVSPropertyOp40
 70
     1
102
RTVSPropertyOp41
 70
     1
102
RTVSPropertyOp42
 70
     1
102
RTVSPropertyOp43
 70
     1
102
RTVSPropertyOp44
 70
     1
102
RTVSPropertyOp45
 70
     1
102
RTVSPropertyOp46
 70
     1
102
RTVSPropertyOp47
 70
     1
102
RTVSPropertyOp48
 70
     1
102
RTVSPropertyOp49
 70
     1
102
RTVSPropertyOp50
 70
     1
102
RTVSPropertyOp51
 70
     0
102
RTVSPropertyOp52
 70
     0
102
RTVSPropertyOp53
 70
     1
102
RTVSPropertyOp54
 70
     1
102
RTVSPropertyOp55
 70
     1
102
RTVSPropertyOp56
 70
     1
102
RTVSPropertyOp57
 70
     1
102
RTVSPost2010Prop28
280
     0
102
RTVSPost2010PropOp28
 70
     1
102
RTVSPost2010Prop29
280
     1
102
RTVSPost2010PropOp29
 70
     1
102
RTVSPost2010Prop30
280
     1
102
RTVSPost2010PropOp30
 70
     1
102
RTVSPost2010Prop31
280
     0
102
RTVSPost2010PropOp31
 70
     1
102
RTVSPost2010Prop32
280
     0
102
RTVSPost2010PropOp32
 70
     1
102
RTVSPost2010Prop33
280
     0
102
RTVSPost2010PropOp33
 70
     1
102
RTVSPost2010Prop34
280
     0
102
RTVSPost2010PropOp34
 70
     1
102
RTVSPost2010Prop35
280
     0
102
RTVSPost2010PropOp35
 70
     1
102
RTVSPost2010Prop36
280
     0
102
RTVSPost2010PropOp36
 70
     1
102
RTVSPost2010Prop37
 90
       50
102
RTVSPost2010PropOp37
 70
     1
102
RTVSPost2010Prop38
140
0.0
102
RTVSPost2010PropOp38
 70
     1
102
RTVSPost2010Prop39
140
1.0
102
RTVSPost2010PropOp39
 70
     1
102
RTVSPost2010Prop40
 90
        0
102
RTVSPost2010PropOp40
 70
     1
102
RTVSPost2010Prop41ColorIndex
 90
       18
102
RTVSPost2010Prop41ColorRGB
 90
        0
102
RTVSPost2010PropOp41
 70
     1
102
RTVSPost2010Prop42
 90
       50
102
RTVSPost2010PropOp42
 70
     1
102
RTVSPost2010Prop43
 90
        3
102
RTVSPost2010PropOp43
 70
     1
102
RTVSPost2010Prop44ColorIndex
 90
        5
102
RTVSPost2010Prop44ColorRGB
 90
      255
102
RTVSPost2010PropOp44
 70
     1
102
RTVSPost2010Prop45
280
     0
102
RTVSPost2010PropOp45
 70
     1
102
RTVSPost2010Prop46
 90
       50
102
RTVSPost2010PropOp46
 70
     1
102
RTVSPost2010Prop47
 90
       50
102
RTVSPost2010PropOp47
 70
     1
102
RTVSPost2010Prop48
 90
       50
102
RTVSPost2010PropOp48
 70
     1
102
RTVSPost2010Prop49
280
     0
102
RTVSPost2010PropOp49
 70
     1
102
RTVSPost2010Prop50
 90
       50
102
RTVSPost2010PropOp50
 70
     1
102
RTVSPost2010Prop51ColorIndex
 90
      256
102
RTVSPost2010Prop51ColorRGB
 90
-16777216
102
RTVSPost2010PropOp51
 70
     0
102
RTVSPost2010Prop52
140
1.0
102
RTVSPost2010PropOp52
 70
     0
102
RTVSPost2010Prop53
 90
        2
102
RTVSPost2010PropOp53
 70
     1
102
RTVSPost2010Prop54
  1
strokes_ogs.tif
102
RTVSPost2010PropOp54
 70
     1
102
RTVSPost2010Prop55
280
     0
102
RTVSPost2010PropOp55
 70
     1
102
RTVSPost2010Prop56
140
1.0
102
RTVSPost2010PropOp56
 70
     1
102
RTVSPost2010Prop57
140
1.0
102
RTVSPost2010PropOp57
 70
     1
  0
XRECORD
  5
49A
102
{ACAD_REACTORS
330
499
102
}
330
499
100
AcDbXrecord
280
     1
102
RTVSPropertyOp0
 70
     0
102
RTVSPropertyOp1
 70
     0
102
RTVSPropertyOp2
 70
     0
102
RTVSPropertyOp3
 70
     0
102
RTVSPropertyOp4
 70
     0
102
RTVSPropertyOp5
 70
     0
102
RTVSPropertyOp6
 70
     0
102
RTVSPropertyOp7
 70
     0
102
RTVSPropertyOp8
 70
     0
102
RTVSPropertyOp9
 70
     0
102
RTVSPropertyOp10
 70
     0
102
RTVSPropertyOp11
 70
     0
102
RTVSPropertyOp12
 70
     0
102
RTVSPropertyOp13
 70
     0
102
RTVSPropertyOp14
 70
     2
102
RTVSPropertyOp15
 70
     0
102
RTVSPropertyOp16
 70
     0
102
RTVSPropertyOp17
 70
     0
102
RTVSPropertyOp18
 70
     0
102
RTVSPropertyOp19
 70
     0
102
RTVSPropertyOp20
 70
     0
102
RTVSPropertyOp21
 70
     0
102
RTVSPropertyOp22
 70
     0
102
RTVSPropertyOp23
 70
     0
102
RTVSPropertyOp24
 70
     0
102
RTVSPropertyOp25
 70
     0
102
RTVSPropertyOp26
 70
     0
102
RTVSPropertyOp27
 70
     0
102
RTVSPropertyOp28
 70
     0
102
RTVSPropertyOp29
 70
     0
102
RTVSPropertyOp30
 70
     0
102
RTVSPropertyOp31
 70
     0
102
RTVSPropertyOp32
 70
     0
102
RTVSPropertyOp33
 70
     0
102
RTVSPropertyOp34
 70
     0
102
RTVSPropertyOp35
 70
     0
102
RTVSPropertyOp36
 70
     0
102
RTVSPropertyOp37
 70
     0
102
RTVSPropertyOp38
 70
     0
102
RTVSPropertyOp39
 70
     0
102
RTVSPropertyOp40
 70
     0
102
RTVSPropertyOp41
 70
     0
102
RTVSPropertyOp42
 70
     0
102
RTVSPropertyOp43
 70
     0
102
RTVSPropertyOp44
 70
     0
102
RTVSPropertyOp45
 70
     0
102
RTVSPropertyOp46
 70
     0
102
RTVSPropertyOp47
 70
     0
102
RTVSPropertyOp48
 70
     0
102
RTVSPropertyOp49
 70
     0
102
RTVSPropertyOp50
 70
     0
102
RTVSPropertyOp51
 70
     0
102
RTVSPropertyOp52
 70
     0
102
RTVSPropertyOp53
 70
     0
102
RTVSPropertyOp54
 70
     0
102
RTVSPropertyOp55
 70
     0
102
RTVSPropertyOp56
 70
     0
102
RTVSPropertyOp57
 70
     0
102
RTVSPost2010Prop28
280
     0
102
RTVSPost2010PropOp28
 70
     0
102
RTVSPost2010Prop29
280
     1
102
RTVSPost2010PropOp29
 70
     0
102
RTVSPost2010Prop30
280
     1
102
RTVSPost2010PropOp30
 70
     0
102
RTVSPost2010Prop31
280
     0
102
RTVSPost2010PropOp31
 70
     0
102
RTVSPost2010Prop32
280
     0
102
RTVSPost2010PropOp32
 70
     0
102
RTVSPost2010Prop33
280
     0
102
RTVSPost2010PropOp33
 70
     0
102
RTVSPost2010Prop34
280
     0
102
RTVSPost2010PropOp34
 70
     0
102
RTVSPost2010Prop35
280
     0
102
RTVSPost2010PropOp35
 70
     0
102
RTVSPost2010Prop36
280
     0
102
RTVSPost2010PropOp36
 70
     0
102
RTVSPost2010Prop37
 90
       50
102
RTVSPost2010PropOp37
 70
     0
102
RTVSPost2010Prop38
140
0.0
102
RTVSPost2010PropOp38
 70
     0
102
RTVSPost2010Prop39
140
1.0
102
RTVSPost2010PropOp39
 70
     0
102
RTVSPost2010Prop40
 90
        0
102
RTVSPost2010PropOp40
 70
     0
102
RTVSPost2010Prop41ColorIndex
 90
       18
102
RTVSPost2010Prop41ColorRGB
 90
        0
102
RTVSPost2010PropOp41
 70
     0
102
RTVSPost2010Prop42
 90
       50
102
RTVSPost2010PropOp42
 70
     0
102
RTVSPost2010Prop43
 90
        3
102
RTVSPost2010PropOp43
 70
     0
102
RTVSPost2010Prop44ColorIndex
 90
        5
102
RTVSPost2010Prop44ColorRGB
 90
      255
102
RTVSPost2010PropOp44
 70
     0
102
RTVSPost2010Prop45
280
     0
102
RTVSPost2010PropOp45
 70
     0
102
RTVSPost2010Prop46
 90
       50
102
RTVSPost2010PropOp46
 70
     0
102
RTVSPost2010Prop47
 90
       50
102
RTVSPost2010PropOp47
 70
     0
102
RTVSPost2010Prop48
 90
       50
102
RTVSPost2010PropOp48
 70
     0
102
RTVSPost2010Prop49
280
     0
102
RTVSPost2010PropOp49
 70
     0
102
RTVSPost2010Prop50
 90
       50
102
RTVSPost2010PropOp50
 70
     0
102
RTVSPost2010Prop51ColorIndex
 90
      256
102
RTVSPost2010Prop51ColorRGB
 90
-16777216
102
RTVSPost2010PropOp51
 70
     0
102
RTVSPost2010Prop52
140
1.0
102
RTVSPost2010PropOp52
 70
     0
102
RTVSPost2010Prop53
 90
        2
102
RTVSPost2010PropOp53
 70
     0
102
RTVSPost2010Prop54
  1
strokes_ogs.tif
102
RTVSPost2010PropOp54
 70
     0
102
RTVSPost2010Prop55
280
     0
102
RTVSPost2010PropOp55
 70
     0
102
RTVSPost2010Prop56
140
1.0
102
RTVSPost2010PropOp56
 70
     0
102
RTVSPost2010Prop57
140
1.0
102
RTVSPost2010PropOp57
 70
     0
  0
XRECORD
  5
492
102
{ACAD_REACTORS
330
491
102
}
330
491
100
AcDbXrecord
280
     1
102
RTVSPropertyOp0
 70
     1
102
RTVSPropertyOp1
 70
     1
102
RTVSPropertyOp2
 70
     1
102
RTVSPropertyOp3
 70
     1
102
RTVSPropertyOp4
 70
     1
102
RTVSPropertyOp5
 70
     1
102
RTVSPropertyOp6
 70
     1
102
RTVSPropertyOp7
 70
     1
102
RTVSPropertyOp8
 70
     1
102
RTVSPropertyOp9
 70
     1
102
RTVSPropertyOp10
 70
     1
102
RTVSPropertyOp11
 70
     1
102
RTVSPropertyOp12
 70
     1
102
RTVSPropertyOp13
 70
     1
102
RTVSPropertyOp14
 70
     1
102
RTVSPropertyOp15
 70
     1
102
RTVSPropertyOp16
 70
     1
102
RTVSPropertyOp17
 70
     1
102
RTVSPropertyOp18
 70
     1
102
RTVSPropertyOp19
 70
     1
102
RTVSPropertyOp20
 70
     1
102
RTVSPropertyOp21
 70
     1
102
RTVSPropertyOp22
 70
     1
102
RTVSPropertyOp23
 70
     1
102
RTVSPropertyOp24
 70
     1
102
RTVSPropertyOp25
 70
     1
102
RTVSPropertyOp26
 70
     1
102
RTVSPropertyOp27
 70
     1
102
RTVSPropertyOp28
 70
     1
102
RTVSPropertyOp29
 70
     1
102
RTVSPropertyOp30
 70
     1
102
RTVSPropertyOp31
 70
     1
102
RTVSPropertyOp32
 70
     1
102
RTVSPropertyOp33
 70
     1
102
RTVSPropertyOp34
 70
     1
102
RTVSPropertyOp35
 70
     1
102
RTVSPropertyOp36
 70
     1
102
RTVSPropertyOp37
 70
     1
102
RTVSPropertyOp38
 70
     1
102
RTVSPropertyOp39
 70
     1
102
RTVSPropertyOp40
 70
     1
102
RTVSPropertyOp41
 70
     1
102
RTVSPropertyOp42
 70
     1
102
RTVSPropertyOp43
 70
     1
102
RTVSPropertyOp44
 70
     1
102
RTVSPropertyOp45
 70
     1
102
RTVSPropertyOp46
 70
     1
102
RTVSPropertyOp47
 70
     1
102
RTVSPropertyOp48
 70
     1
102
RTVSPropertyOp49
 70
     1
102
RTVSPropertyOp50
 70
     1
102
RTVSPropertyOp51
 70
     0
102
RTVSPropertyOp52
 70
     0
102
RTVSPropertyOp53
 70
     1
102
RTVSPropertyOp54
 70
     1
102
RTVSPropertyOp55
 70
     1
102
RTVSPropertyOp56
 70
     1
102
RTVSPropertyOp57
 70
     1
102
RTVSPost2010Prop28
280
     0
102
RTVSPost2010PropOp28
 70
     1
102
RTVSPost2010Prop29
280
     1
102
RTVSPost2010PropOp29
 70
     1
102
RTVSPost2010Prop30
280
     1
102
RTVSPost2010PropOp30
 70
     1
102
RTVSPost2010Prop31
280
     0
102
RTVSPost2010PropOp31
 70
     1
102
RTVSPost2010Prop32
280
     0
102
RTVSPost2010PropOp32
 70
     1
102
RTVSPost2010Prop33
280
     0
102
RTVSPost2010PropOp33
 70
     1
102
RTVSPost2010Prop34
280
     0
102
RTVSPost2010PropOp34
 70
     1
102
RTVSPost2010Prop35
280
     0
102
RTVSPost2010PropOp35
 70
     1
102
RTVSPost2010Prop36
280
     0
102
RTVSPost2010PropOp36
 70
     1
102
RTVSPost2010Prop37
 90
       50
102
RTVSPost2010PropOp37
 70
     1
102
RTVSPost2010Prop38
140
0.0
102
RTVSPost2010PropOp38
 70
     1
102
RTVSPost2010Prop39
140
1.0
102
RTVSPost2010PropOp39
 70
     1
102
RTVSPost2010Prop40
 90
        0
102
RTVSPost2010PropOp40
 70
     1
102
RTVSPost2010Prop41ColorIndex
 90
       18
102
RTVSPost2010Prop41ColorRGB
 90
        0
102
RTVSPost2010PropOp41
 70
     1
102
RTVSPost2010Prop42
 90
       50
102
RTVSPost2010PropOp42
 70
     1
102
RTVSPost2010Prop43
 90
        3
102
RTVSPost2010PropOp43
 70
     1
102
RTVSPost2010Prop44ColorIndex
 90
        5
102
RTVSPost2010Prop44ColorRGB
 90
      255
102
RTVSPost2010PropOp44
 70
     1
102
RTVSPost2010Prop45
280
     0
102
RTVSPost2010PropOp45
 70
     1
102
RTVSPost2010Prop46
 90
       50
102
RTVSPost2010PropOp46
 70
     1
102
RTVSPost2010Prop47
 90
       50
102
RTVSPost2010PropOp47
 70
     1
102
RTVSPost2010Prop48
 90
       50
102
RTVSPost2010PropOp48
 70
     1
102
RTVSPost2010Prop49
280
     0
102
RTVSPost2010PropOp49
 70
     1
102
RTVSPost2010Prop50
 90
       50
102
RTVSPost2010PropOp50
 70
     1
102
RTVSPost2010Prop51ColorIndex
 90
      256
102
RTVSPost2010Prop51ColorRGB
 90
-16777216
102
RTVSPost2010PropOp51
 70
     0
102
RTVSPost2010Prop52
140
1.0
102
RTVSPost2010PropOp52
 70
     0
102
RTVSPost2010Prop53
 90
        2
102
RTVSPost2010PropOp53
 70
     1
102
RTVSPost2010Prop54
  1
strokes_ogs.tif
102
RTVSPost2010PropOp54
 70
     1
102
RTVSPost2010Prop55
280
     0
102
RTVSPost2010PropOp55
 70
     1
102
RTVSPost2010Prop56
140
1.0
102
RTVSPost2010PropOp56
 70
     1
102
RTVSPost2010Prop57
140
1.0
102
RTVSPost2010PropOp57
 70
     1
  0
XRECORD
  5
476
102
{ACAD_REACTORS
330
475
102
}
330
475
100
AcDbXrecord
280
     1
102
RTVSPropertyOp0
 70
     1
102
RTVSPropertyOp1
 70
     1
102
RTVSPropertyOp2
 70
     1
102
RTVSPropertyOp3
 70
     1
102
RTVSPropertyOp4
 70
     1
102
RTVSPropertyOp5
 70
     1
102
RTVSPropertyOp6
 70
     1
102
RTVSPropertyOp7
 70
     1
102
RTVSPropertyOp8
 70
     1
102
RTVSPropertyOp9
 70
     1
102
RTVSPropertyOp10
 70
     1
102
RTVSPropertyOp11
 70
     1
102
RTVSPropertyOp12
 70
     1
102
RTVSPropertyOp13
 70
     1
102
RTVSPropertyOp14
 70
     1
102
RTVSPropertyOp15
 70
     1
102
RTVSPropertyOp16
 70
     1
102
RTVSPropertyOp17
 70
     1
102
RTVSPropertyOp18
 70
     1
102
RTVSPropertyOp19
 70
     1
102
RTVSPropertyOp20
 70
     1
102
RTVSPropertyOp21
 70
     1
102
RTVSPropertyOp22
 70
     1
102
RTVSPropertyOp23
 70
     1
102
RTVSPropertyOp24
 70
     1
102
RTVSPropertyOp25
 70
     1
102
RTVSPropertyOp26
 70
     1
102
RTVSPropertyOp27
 70
     1
102
RTVSPropertyOp28
 70
     1
102
RTVSPropertyOp29
 70
     1
102
RTVSPropertyOp30
 70
     1
102
RTVSPropertyOp31
 70
     1
102
RTVSPropertyOp32
 70
     1
102
RTVSPropertyOp33
 70
     1
102
RTVSPropertyOp34
 70
     1
102
RTVSPropertyOp35
 70
     1
102
RTVSPropertyOp36
 70
     1
102
RTVSPropertyOp37
 70
     1
102
RTVSPropertyOp38
 70
     1
102
RTVSPropertyOp39
 70
     1
102
RTVSPropertyOp40
 70
     1
102
RTVSPropertyOp41
 70
     1
102
RTVSPropertyOp42
 70
     1
102
RTVSPropertyOp43
 70
     1
102
RTVSPropertyOp44
 70
     1
102
RTVSPropertyOp45
 70
     1
102
RTVSPropertyOp46
 70
     1
102
RTVSPropertyOp47
 70
     1
102
RTVSPropertyOp48
 70
     1
102
RTVSPropertyOp49
 70
     1
102
RTVSPropertyOp50
 70
     1
102
RTVSPropertyOp51
 70
     0
102
RTVSPropertyOp52
 70
     0
102
RTVSPropertyOp53
 70
     1
102
RTVSPropertyOp54
 70
     1
102
RTVSPropertyOp55
 70
     1
102
RTVSPropertyOp56
 70
     1
102
RTVSPropertyOp57
 70
     1
102
RTVSPost2010Prop28
280
     0
102
RTVSPost2010PropOp28
 70
     1
102
RTVSPost2010Prop29
280
     1
102
RTVSPost2010PropOp29
 70
     1
102
RTVSPost2010Prop30
280
     1
102
RTVSPost2010PropOp30
 70
     1
102
RTVSPost2010Prop31
280
     0
102
RTVSPost2010PropOp31
 70
     1
102
RTVSPost2010Prop32
280
     0
102
RTVSPost2010PropOp32
 70
     1
102
RTVSPost2010Prop33
280
     0
102
RTVSPost2010PropOp33
 70
     1
102
RTVSPost2010Prop34
280
     0
102
RTVSPost2010PropOp34
 70
     1
102
RTVSPost2010Prop35
280
     0
102
RTVSPost2010PropOp35
 70
     1
102
RTVSPost2010Prop36
280
     0
102
RTVSPost2010PropOp36
 70
     1
102
RTVSPost2010Prop37
 90
       50
102
RTVSPost2010PropOp37
 70
     1
102
RTVSPost2010Prop38
140
0.0
102
RTVSPost2010PropOp38
 70
     1
102
RTVSPost2010Prop39
140
1.0
102
RTVSPost2010PropOp39
 70
     1
102
RTVSPost2010Prop40
 90
        0
102
RTVSPost2010PropOp40
 70
     1
102
RTVSPost2010Prop41ColorIndex
 90
       18
102
RTVSPost2010Prop41ColorRGB
 90
        0
102
RTVSPost2010PropOp41
 70
     1
102
RTVSPost2010Prop42
 90
       50
102
RTVSPost2010PropOp42
 70
     1
102
RTVSPost2010Prop43
 90
        3
102
RTVSPost2010PropOp43
 70
     1
102
RTVSPost2010Prop44ColorIndex
 90
        5
102
RTVSPost2010Prop44ColorRGB
 90
      255
102
RTVSPost2010PropOp44
 70
     1
102
RTVSPost2010Prop45
280
     0
102
RTVSPost2010PropOp45
 70
     1
102
RTVSPost2010Prop46
 90
       50
102
RTVSPost2010PropOp46
 70
     1
102
RTVSPost2010Prop47
 90
       50
102
RTVSPost2010PropOp47
 70
     1
102
RTVSPost2010Prop48
 90
       50
102
RTVSPost2010PropOp48
 70
     1
102
RTVSPost2010Prop49
280
     0
102
RTVSPost2010PropOp49
 70
     1
102
RTVSPost2010Prop50
 90
       50
102
RTVSPost2010PropOp50
 70
     1
102
RTVSPost2010Prop51ColorIndex
 90
      256
102
RTVSPost2010Prop51ColorRGB
 90
-16777216
102
RTVSPost2010PropOp51
 70
     0
102
RTVSPost2010Prop52
140
1.0
102
RTVSPost2010PropOp52
 70
     0
102
RTVSPost2010Prop53
 90
        2
102
RTVSPost2010PropOp53
 70
     1
102
RTVSPost2010Prop54
  1
strokes_ogs.tif
102
RTVSPost2010PropOp54
 70
     1
102
RTVSPost2010Prop55
280
     0
102
RTVSPost2010PropOp55
 70
     1
102
RTVSPost2010Prop56
140
1.0
102
RTVSPost2010PropOp56
 70
     1
102
RTVSPost2010Prop57
140
1.0
102
RTVSPost2010PropOp57
 70
     1
  0
XRECORD
  5
478
102
{ACAD_REACTORS
330
477
102
}
330
477
100
AcDbXrecord
280
     1
102
RTVSPropertyOp0
 70
     1
102
RTVSPropertyOp1
 70
     1
102
RTVSPropertyOp2
 70
     1
102
RTVSPropertyOp3
 70
     1
102
RTVSPropertyOp4
 70
     1
102
RTVSPropertyOp5
 70
     1
102
RTVSPropertyOp6
 70
     1
102
RTVSPropertyOp7
 70
     1
102
RTVSPropertyOp8
 70
     1
102
RTVSPropertyOp9
 70
     1
102
RTVSPropertyOp10
 70
     1
102
RTVSPropertyOp11
 70
     1
102
RTVSPropertyOp12
 70
     1
102
RTVSPropertyOp13
 70
     1
102
RTVSPropertyOp14
 70
     1
102
RTVSPropertyOp15
 70
     1
102
RTVSPropertyOp16
 70
     1
102
RTVSPropertyOp17
 70
     1
102
RTVSPropertyOp18
 70
     1
102
RTVSPropertyOp19
 70
     1
102
RTVSPropertyOp20
 70
     1
102
RTVSPropertyOp21
 70
     1
102
RTVSPropertyOp22
 70
     1
102
RTVSPropertyOp23
 70
     1
102
RTVSPropertyOp24
 70
     1
102
RTVSPropertyOp25
 70
     1
102
RTVSPropertyOp26
 70
     1
102
RTVSPropertyOp27
 70
     1
102
RTVSPropertyOp28
 70
     1
102
RTVSPropertyOp29
 70
     1
102
RTVSPropertyOp30
 70
     1
102
RTVSPropertyOp31
 70
     1
102
RTVSPropertyOp32
 70
     1
102
RTVSPropertyOp33
 70
     1
102
RTVSPropertyOp34
 70
     1
102
RTVSPropertyOp35
 70
     1
102
RTVSPropertyOp36
 70
     1
102
RTVSPropertyOp37
 70
     1
102
RTVSPropertyOp38
 70
     1
102
RTVSPropertyOp39
 70
     1
102
RTVSPropertyOp40
 70
     1
102
RTVSPropertyOp41
 70
     1
102
RTVSPropertyOp42
 70
     1
102
RTVSPropertyOp43
 70
     1
102
RTVSPropertyOp44
 70
     1
102
RTVSPropertyOp45
 70
     1
102
RTVSPropertyOp46
 70
     1
102
RTVSPropertyOp47
 70
     1
102
RTVSPropertyOp48
 70
     1
102
RTVSPropertyOp49
 70
     1
102
RTVSPropertyOp50
 70
     1
102
RTVSPropertyOp51
 70
     0
102
RTVSPropertyOp52
 70
     0
102
RTVSPropertyOp53
 70
     1
102
RTVSPropertyOp54
 70
     1
102
RTVSPropertyOp55
 70
     1
102
RTVSPropertyOp56
 70
     1
102
RTVSPropertyOp57
 70
     1
102
RTVSPost2010Prop28
280
     0
102
RTVSPost2010PropOp28
 70
     1
102
RTVSPost2010Prop29
280
     1
102
RTVSPost2010PropOp29
 70
     1
102
RTVSPost2010Prop30
280
     1
102
RTVSPost2010PropOp30
 70
     1
102
RTVSPost2010Prop31
280
     0
102
RTVSPost2010PropOp31
 70
     1
102
RTVSPost2010Prop32
280
     0
102
RTVSPost2010PropOp32
 70
     1
102
RTVSPost2010Prop33
280
     0
102
RTVSPost2010PropOp33
 70
     1
102
RTVSPost2010Prop34
280
     0
102
RTVSPost2010PropOp34
 70
     1
102
RTVSPost2010Prop35
280
     0
102
RTVSPost2010PropOp35
 70
     1
102
RTVSPost2010Prop36
280
     0
102
RTVSPost2010PropOp36
 70
     1
102
RTVSPost2010Prop37
 90
       50
102
RTVSPost2010PropOp37
 70
     1
102
RTVSPost2010Prop38
140
0.0
102
RTVSPost2010PropOp38
 70
     1
102
RTVSPost2010Prop39
140
1.0
102
RTVSPost2010PropOp39
 70
     1
102
RTVSPost2010Prop40
 90
        0
102
RTVSPost2010PropOp40
 70
     1
102
RTVSPost2010Prop41ColorIndex
 90
       18
102
RTVSPost2010Prop41ColorRGB
 90
        0
102
RTVSPost2010PropOp41
 70
     1
102
RTVSPost2010Prop42
 90
       50
102
RTVSPost2010PropOp42
 70
     1
102
RTVSPost2010Prop43
 90
        3
102
RTVSPost2010PropOp43
 70
     1
102
RTVSPost2010Prop44ColorIndex
 90
        5
102
RTVSPost2010Prop44ColorRGB
 90
      255
102
RTVSPost2010PropOp44
 70
     1
102
RTVSPost2010Prop45
280
     0
102
RTVSPost2010PropOp45
 70
     1
102
RTVSPost2010Prop46
 90
       50
102
RTVSPost2010PropOp46
 70
     1
102
RTVSPost2010Prop47
 90
       50
102
RTVSPost2010PropOp47
 70
     1
102
RTVSPost2010Prop48
 90
       50
102
RTVSPost2010PropOp48
 70
     1
102
RTVSPost2010Prop49
280
     0
102
RTVSPost2010PropOp49
 70
     1
102
RTVSPost2010Prop50
 90
       50
102
RTVSPost2010PropOp50
 70
     1
102
RTVSPost2010Prop51ColorIndex
 90
      256
102
RTVSPost2010Prop51ColorRGB
 90
-16777216
102
RTVSPost2010PropOp51
 70
     0
102
RTVSPost2010Prop52
140
1.0
102
RTVSPost2010PropOp52
 70
     0
102
RTVSPost2010Prop53
 90
        2
102
RTVSPost2010PropOp53
 70
     1
102
RTVSPost2010Prop54
  1
strokes_ogs.tif
102
RTVSPost2010PropOp54
 70
     1
102
RTVSPost2010Prop55
280
     0
102
RTVSPost2010PropOp55
 70
     1
102
RTVSPost2010Prop56
140
1.0
102
RTVSPost2010PropOp56
 70
     1
102
RTVSPost2010Prop57
140
1.0
102
RTVSPost2010PropOp57
 70
     1
  0
XRECORD
  5
47A
102
{ACAD_REACTORS
330
479
102
}
330
479
100
AcDbXrecord
280
     1
102
RTVSPropertyOp0
 70
     1
102
RTVSPropertyOp1
 70
     1
102
RTVSPropertyOp2
 70
     1
102
RTVSPropertyOp3
 70
     1
102
RTVSPropertyOp4
 70
     1
102
RTVSPropertyOp5
 70
     1
102
RTVSPropertyOp6
 70
     1
102
RTVSPropertyOp7
 70
     1
102
RTVSPropertyOp8
 70
     1
102
RTVSPropertyOp9
 70
     1
102
RTVSPropertyOp10
 70
     1
102
RTVSPropertyOp11
 70
     1
102
RTVSPropertyOp12
 70
     1
102
RTVSPropertyOp13
 70
     1
102
RTVSPropertyOp14
 70
     1
102
RTVSPropertyOp15
 70
     1
102
RTVSPropertyOp16
 70
     1
102
RTVSPropertyOp17
 70
     1
102
RTVSPropertyOp18
 70
     1
102
RTVSPropertyOp19
 70
     1
102
RTVSPropertyOp20
 70
     1
102
RTVSPropertyOp21
 70
     1
102
RTVSPropertyOp22
 70
     1
102
RTVSPropertyOp23
 70
     1
102
RTVSPropertyOp24
 70
     1
102
RTVSPropertyOp25
 70
     1
102
RTVSPropertyOp26
 70
     1
102
RTVSPropertyOp27
 70
     1
102
RTVSPropertyOp28
 70
     1
102
RTVSPropertyOp29
 70
     1
102
RTVSPropertyOp30
 70
     1
102
RTVSPropertyOp31
 70
     1
102
RTVSPropertyOp32
 70
     1
102
RTVSPropertyOp33
 70
     1
102
RTVSPropertyOp34
 70
     1
102
RTVSPropertyOp35
 70
     1
102
RTVSPropertyOp36
 70
     1
102
RTVSPropertyOp37
 70
     1
102
RTVSPropertyOp38
 70
     1
102
RTVSPropertyOp39
 70
     1
102
RTVSPropertyOp40
 70
     1
102
RTVSPropertyOp41
 70
     1
102
RTVSPropertyOp42
 70
     1
102
RTVSPropertyOp43
 70
     1
102
RTVSPropertyOp44
 70
     1
102
RTVSPropertyOp45
 70
     1
102
RTVSPropertyOp46
 70
     1
102
RTVSPropertyOp47
 70
     1
102
RTVSPropertyOp48
 70
     1
102
RTVSPropertyOp49
 70
     1
102
RTVSPropertyOp50
 70
     1
102
RTVSPropertyOp51
 70
     0
102
RTVSPropertyOp52
 70
     0
102
RTVSPropertyOp53
 70
     1
102
RTVSPropertyOp54
 70
     1
102
RTVSPropertyOp55
 70
     1
102
RTVSPropertyOp56
 70
     1
102
RTVSPropertyOp57
 70
     1
102
RTVSPost2010Prop28
280
     0
102
RTVSPost2010PropOp28
 70
     1
102
RTVSPost2010Prop29
280
     1
102
RTVSPost2010PropOp29
 70
     1
102
RTVSPost2010Prop30
280
     1
102
RTVSPost2010PropOp30
 70
     1
102
RTVSPost2010Prop31
280
     0
102
RTVSPost2010PropOp31
 70
     1
102
RTVSPost2010Prop32
280
     0
102
RTVSPost2010PropOp32
 70
     1
102
RTVSPost2010Prop33
280
     0
102
RTVSPost2010PropOp33
 70
     1
102
RTVSPost2010Prop34
280
     0
102
RTVSPost2010PropOp34
 70
     1
102
RTVSPost2010Prop35
280
     0
102
RTVSPost2010PropOp35
 70
     1
102
RTVSPost2010Prop36
280
     0
102
RTVSPost2010PropOp36
 70
     1
102
RTVSPost2010Prop37
 90
       50
102
RTVSPost2010PropOp37
 70
     1
102
RTVSPost2010Prop38
140
0.0
102
RTVSPost2010PropOp38
 70
     1
102
RTVSPost2010Prop39
140
1.0
102
RTVSPost2010PropOp39
 70
     1
102
RTVSPost2010Prop40
 90
        0
102
RTVSPost2010PropOp40
 70
     1
102
RTVSPost2010Prop41ColorIndex
 90
       18
102
RTVSPost2010Prop41ColorRGB
 90
        0
102
RTVSPost2010PropOp41
 70
     1
102
RTVSPost2010Prop42
 90
       50
102
RTVSPost2010PropOp42
 70
     1
102
RTVSPost2010Prop43
 90
        3
102
RTVSPost2010PropOp43
 70
     1
102
RTVSPost2010Prop44ColorIndex
 90
        5
102
RTVSPost2010Prop44ColorRGB
 90
      255
102
RTVSPost2010PropOp44
 70
     1
102
RTVSPost2010Prop45
280
     0
102
RTVSPost2010PropOp45
 70
     1
102
RTVSPost2010Prop46
 90
       50
102
RTVSPost2010PropOp46
 70
     1
102
RTVSPost2010Prop47
 90
       50
102
RTVSPost2010PropOp47
 70
     1
102
RTVSPost2010Prop48
 90
       50
102
RTVSPost2010PropOp48
 70
     1
102
RTVSPost2010Prop49
280
     0
102
RTVSPost2010PropOp49
 70
     1
102
RTVSPost2010Prop50
 90
       50
102
RTVSPost2010PropOp50
 70
     1
102
RTVSPost2010Prop51ColorIndex
 90
      256
102
RTVSPost2010Prop51ColorRGB
 90
-16777216
102
RTVSPost2010PropOp51
 70
     0
102
RTVSPost2010Prop52
140
1.0
102
RTVSPost2010PropOp52
 70
     0
102
RTVSPost2010Prop53
 90
        2
102
RTVSPost2010PropOp53
 70
     1
102
RTVSPost2010Prop54
  1
strokes_ogs.tif
102
RTVSPost2010PropOp54
 70
     1
102
RTVSPost2010Prop55
280
     0
102
RTVSPost2010PropOp55
 70
     1
102
RTVSPost2010Prop56
140
1.0
102
RTVSPost2010PropOp56
 70
     1
102
RTVSPost2010Prop57
140
1.0
102
RTVSPost2010PropOp57
 70
     1
  0
XRECORD
  5
47C
102
{ACAD_REACTORS
330
47B
102
}
330
47B
100
AcDbXrecord
280
     1
102
RTVSPropertyOp0
 70
     1
102
RTVSPropertyOp1
 70
     1
102
RTVSPropertyOp2
 70
     1
102
RTVSPropertyOp3
 70
     1
102
RTVSPropertyOp4
 70
     1
102
RTVSPropertyOp5
 70
     1
102
RTVSPropertyOp6
 70
     1
102
RTVSPropertyOp7
 70
     1
102
RTVSPropertyOp8
 70
     1
102
RTVSPropertyOp9
 70
     1
102
RTVSPropertyOp10
 70
     1
102
RTVSPropertyOp11
 70
     1
102
RTVSPropertyOp12
 70
     1
102
RTVSPropertyOp13
 70
     1
102
RTVSPropertyOp14
 70
     1
102
RTVSPropertyOp15
 70
     1
102
RTVSPropertyOp16
 70
     1
102
RTVSPropertyOp17
 70
     1
102
RTVSPropertyOp18
 70
     1
102
RTVSPropertyOp19
 70
     1
102
RTVSPropertyOp20
 70
     1
102
RTVSPropertyOp21
 70
     1
102
RTVSPropertyOp22
 70
     1
102
RTVSPropertyOp23
 70
     1
102
RTVSPropertyOp24
 70
     1
102
RTVSPropertyOp25
 70
     1
102
RTVSPropertyOp26
 70
     1
102
RTVSPropertyOp27
 70
     1
102
RTVSPropertyOp28
 70
     1
102
RTVSPropertyOp29
 70
     1
102
RTVSPropertyOp30
 70
     1
102
RTVSPropertyOp31
 70
     1
102
RTVSPropertyOp32
 70
     1
102
RTVSPropertyOp33
 70
     1
102
RTVSPropertyOp34
 70
     1
102
RTVSPropertyOp35
 70
     1
102
RTVSPropertyOp36
 70
     1
102
RTVSPropertyOp37
 70
     1
102
RTVSPropertyOp38
 70
     1
102
RTVSPropertyOp39
 70
     1
102
RTVSPropertyOp40
 70
     1
102
RTVSPropertyOp41
 70
     1
102
RTVSPropertyOp42
 70
     1
102
RTVSPropertyOp43
 70
     1
102
RTVSPropertyOp44
 70
     1
102
RTVSPropertyOp45
 70
     1
102
RTVSPropertyOp46
 70
     1
102
RTVSPropertyOp47
 70
     1
102
RTVSPropertyOp48
 70
     1
102
RTVSPropertyOp49
 70
     1
102
RTVSPropertyOp50
 70
     1
102
RTVSPropertyOp51
 70
     0
102
RTVSPropertyOp52
 70
     0
102
RTVSPropertyOp53
 70
     1
102
RTVSPropertyOp54
 70
     1
102
RTVSPropertyOp55
 70
     1
102
RTVSPropertyOp56
 70
     1
102
RTVSPropertyOp57
 70
     1
102
RTVSPost2010Prop28
280
     0
102
RTVSPost2010PropOp28
 70
     1
102
RTVSPost2010Prop29
280
     1
102
RTVSPost2010PropOp29
 70
     1
102
RTVSPost2010Prop30
280
     1
102
RTVSPost2010PropOp30
 70
     1
102
RTVSPost2010Prop31
280
     0
102
RTVSPost2010PropOp31
 70
     1
102
RTVSPost2010Prop32
280
     0
102
RTVSPost2010PropOp32
 70
     1
102
RTVSPost2010Prop33
280
     0
102
RTVSPost2010PropOp33
 70
     1
102
RTVSPost2010Prop34
280
     0
102
RTVSPost2010PropOp34
 70
     1
102
RTVSPost2010Prop35
280
     0
102
RTVSPost2010PropOp35
 70
     1
102
RTVSPost2010Prop36
280
     0
102
RTVSPost2010PropOp36
 70
     1
102
RTVSPost2010Prop37
 90
       50
102
RTVSPost2010PropOp37
 70
     1
102
RTVSPost2010Prop38
140
0.0
102
RTVSPost2010PropOp38
 70
     1
102
RTVSPost2010Prop39
140
1.0
102
RTVSPost2010PropOp39
 70
     1
102
RTVSPost2010Prop40
 90
        0
102
RTVSPost2010PropOp40
 70
     1
102
RTVSPost2010Prop41ColorIndex
 90
       18
102
RTVSPost2010Prop41ColorRGB
 90
        0
102
RTVSPost2010PropOp41
 70
     1
102
RTVSPost2010Prop42
 90
       50
102
RTVSPost2010PropOp42
 70
     1
102
RTVSPost2010Prop43
 90
        3
102
RTVSPost2010PropOp43
 70
     1
102
RTVSPost2010Prop44ColorIndex
 90
        5
102
RTVSPost2010Prop44ColorRGB
 90
      255
102
RTVSPost2010PropOp44
 70
     1
102
RTVSPost2010Prop45
280
     0
102
RTVSPost2010PropOp45
 70
     1
102
RTVSPost2010Prop46
 90
       50
102
RTVSPost2010PropOp46
 70
     1
102
RTVSPost2010Prop47
 90
       50
102
RTVSPost2010PropOp47
 70
     1
102
RTVSPost2010Prop48
 90
       50
102
RTVSPost2010PropOp48
 70
     1
102
RTVSPost2010Prop49
280
     0
102
RTVSPost2010PropOp49
 70
     1
102
RTVSPost2010Prop50
 90
       50
102
RTVSPost2010PropOp50
 70
     1
102
RTVSPost2010Prop51ColorIndex
 90
      256
102
RTVSPost2010Prop51ColorRGB
 90
-16777216
102
RTVSPost2010PropOp51
 70
     0
102
RTVSPost2010Prop52
140
1.0
102
RTVSPost2010PropOp52
 70
     0
102
RTVSPost2010Prop53
 90
        2
102
RTVSPost2010PropOp53
 70
     1
102
RTVSPost2010Prop54
  1
strokes_ogs.tif
102
RTVSPost2010PropOp54
 70
     1
102
RTVSPost2010Prop55
280
     0
102
RTVSPost2010PropOp55
 70
     1
102
RTVSPost2010Prop56
140
1.0
102
RTVSPost2010PropOp56
 70
     1
102
RTVSPost2010Prop57
140
1.0
102
RTVSPost2010PropOp57
 70
     1
  0
XRECORD
  5
482
102
{ACAD_REACTORS
330
481
102
}
330
481
100
AcDbXrecord
280
     1
102
RTVSPropertyOp0
 70
     1
102
RTVSPropertyOp1
 70
     1
102
RTVSPropertyOp2
 70
     1
102
RTVSPropertyOp3
 70
     1
102
RTVSPropertyOp4
 70
     1
102
RTVSPropertyOp5
 70
     1
102
RTVSPropertyOp6
 70
     1
102
RTVSPropertyOp7
 70
     1
102
RTVSPropertyOp8
 70
     1
102
RTVSPropertyOp9
 70
     1
102
RTVSPropertyOp10
 70
     1
102
RTVSPropertyOp11
 70
     1
102
RTVSPropertyOp12
 70
     1
102
RTVSPropertyOp13
 70
     1
102
RTVSPropertyOp14
 70
     1
102
RTVSPropertyOp15
 70
     1
102
RTVSPropertyOp16
 70
     1
102
RTVSPropertyOp17
 70
     1
102
RTVSPropertyOp18
 70
     1
102
RTVSPropertyOp19
 70
     1
102
RTVSPropertyOp20
 70
     1
102
RTVSPropertyOp21
 70
     1
102
RTVSPropertyOp22
 70
     1
102
RTVSPropertyOp23
 70
     1
102
RTVSPropertyOp24
 70
     1
102
RTVSPropertyOp25
 70
     1
102
RTVSPropertyOp26
 70
     1
102
RTVSPropertyOp27
 70
     1
102
RTVSPropertyOp28
 70
     1
102
RTVSPropertyOp29
 70
     1
102
RTVSPropertyOp30
 70
     1
102
RTVSPropertyOp31
 70
     1
102
RTVSPropertyOp32
 70
     1
102
RTVSPropertyOp33
 70
     1
102
RTVSPropertyOp34
 70
     1
102
RTVSPropertyOp35
 70
     1
102
RTVSPropertyOp36
 70
     1
102
RTVSPropertyOp37
 70
     1
102
RTVSPropertyOp38
 70
     1
102
RTVSPropertyOp39
 70
     1
102
RTVSPropertyOp40
 70
     1
102
RTVSPropertyOp41
 70
     1
102
RTVSPropertyOp42
 70
     1
102
RTVSPropertyOp43
 70
     1
102
RTVSPropertyOp44
 70
     1
102
RTVSPropertyOp45
 70
     1
102
RTVSPropertyOp46
 70
     1
102
RTVSPropertyOp47
 70
     1
102
RTVSPropertyOp48
 70
     1
102
RTVSPropertyOp49
 70
     1
102
RTVSPropertyOp50
 70
     1
102
RTVSPropertyOp51
 70
     0
102
RTVSPropertyOp52
 70
     0
102
RTVSPropertyOp53
 70
     1
102
RTVSPropertyOp54
 70
     1
102
RTVSPropertyOp55
 70
     1
102
RTVSPropertyOp56
 70
     1
102
RTVSPropertyOp57
 70
     1
102
RTVSPost2010Prop28
280
     0
102
RTVSPost2010PropOp28
 70
     1
102
RTVSPost2010Prop29
280
     1
102
RTVSPost2010PropOp29
 70
     1
102
RTVSPost2010Prop30
280
     1
102
RTVSPost2010PropOp30
 70
     1
102
RTVSPost2010Prop31
280
     0
102
RTVSPost2010PropOp31
 70
     1
102
RTVSPost2010Prop32
280
     0
102
RTVSPost2010PropOp32
 70
     1
102
RTVSPost2010Prop33
280
     0
102
RTVSPost2010PropOp33
 70
     1
102
RTVSPost2010Prop34
280
     0
102
RTVSPost2010PropOp34
 70
     1
102
RTVSPost2010Prop35
280
     0
102
RTVSPost2010PropOp35
 70
     1
102
RTVSPost2010Prop36
280
     0
102
RTVSPost2010PropOp36
 70
     1
102
RTVSPost2010Prop37
 90
       50
102
RTVSPost2010PropOp37
 70
     1
102
RTVSPost2010Prop38
140
0.0
102
RTVSPost2010PropOp38
 70
     1
102
RTVSPost2010Prop39
140
1.0
102
RTVSPost2010PropOp39
 70
     1
102
RTVSPost2010Prop40
 90
        0
102
RTVSPost2010PropOp40
 70
     1
102
RTVSPost2010Prop41ColorIndex
 90
       18
102
RTVSPost2010Prop41ColorRGB
 90
        0
102
RTVSPost2010PropOp41
 70
     1
102
RTVSPost2010Prop42
 90
       50
102
RTVSPost2010PropOp42
 70
     1
102
RTVSPost2010Prop43
 90
        3
102
RTVSPost2010PropOp43
 70
     1
102
RTVSPost2010Prop44ColorIndex
 90
        5
102
RTVSPost2010Prop44ColorRGB
 90
      255
102
RTVSPost2010PropOp44
 70
     1
102
RTVSPost2010Prop45
280
     0
102
RTVSPost2010PropOp45
 70
     1
102
RTVSPost2010Prop46
 90
       50
102
RTVSPost2010PropOp46
 70
     1
102
RTVSPost2010Prop47
 90
       50
102
RTVSPost2010PropOp47
 70
     1
102
RTVSPost2010Prop48
 90
       50
102
RTVSPost2010PropOp48
 70
     1
102
RTVSPost2010Prop49
280
     0
102
RTVSPost2010PropOp49
 70
     1
102
RTVSPost2010Prop50
 90
       50
102
RTVSPost2010PropOp50
 70
     1
102
RTVSPost2010Prop51ColorIndex
 90
      256
102
RTVSPost2010Prop51ColorRGB
 90
-16777216
102
RTVSPost2010PropOp51
 70
     0
102
RTVSPost2010Prop52
140
1.0
102
RTVSPost2010PropOp52
 70
     0
102
RTVSPost2010Prop53
 90
        2
102
RTVSPost2010PropOp53
 70
     1
102
RTVSPost2010Prop54
  1
strokes_ogs.tif
102
RTVSPost2010PropOp54
 70
     1
102
RTVSPost2010Prop55
280
     0
102
RTVSPost2010PropOp55
 70
     1
102
RTVSPost2010Prop56
140
1.0
102
RTVSPost2010PropOp56
 70
     1
102
RTVSPost2010Prop57
140
1.0
102
RTVSPost2010PropOp57
 70
     1
  0
XRECORD
  5
496
102
{ACAD_REACTORS
330
495
102
}
330
495
100
AcDbXrecord
280
     1
102
RTVSPropertyOp0
 70
     0
102
RTVSPropertyOp1
 70
     0
102
RTVSPropertyOp2
 70
     0
102
RTVSPropertyOp3
 70
     0
102
RTVSPropertyOp4
 70
     0
102
RTVSPropertyOp5
 70
     0
102
RTVSPropertyOp6
 70
     0
102
RTVSPropertyOp7
 70
     0
102
RTVSPropertyOp8
 70
     0
102
RTVSPropertyOp9
 70
     0
102
RTVSPropertyOp10
 70
     0
102
RTVSPropertyOp11
 70
     0
102
RTVSPropertyOp12
 70
     0
102
RTVSPropertyOp13
 70
     0
102
RTVSPropertyOp14
 70
     2
102
RTVSPropertyOp15
 70
     0
102
RTVSPropertyOp16
 70
     0
102
RTVSPropertyOp17
 70
     0
102
RTVSPropertyOp18
 70
     0
102
RTVSPropertyOp19
 70
     0
102
RTVSPropertyOp20
 70
     0
102
RTVSPropertyOp21
 70
     0
102
RTVSPropertyOp22
 70
     0
102
RTVSPropertyOp23
 70
     0
102
RTVSPropertyOp24
 70
     0
102
RTVSPropertyOp25
 70
     0
102
RTVSPropertyOp26
 70
     0
102
RTVSPropertyOp27
 70
     0
102
RTVSPropertyOp28
 70
     0
102
RTVSPropertyOp29
 70
     0
102
RTVSPropertyOp30
 70
     0
102
RTVSPropertyOp31
 70
     0
102
RTVSPropertyOp32
 70
     0
102
RTVSPropertyOp33
 70
     0
102
RTVSPropertyOp34
 70
     0
102
RTVSPropertyOp35
 70
     0
102
RTVSPropertyOp36
 70
     0
102
RTVSPropertyOp37
 70
     0
102
RTVSPropertyOp38
 70
     0
102
RTVSPropertyOp39
 70
     0
102
RTVSPropertyOp40
 70
     0
102
RTVSPropertyOp41
 70
     0
102
RTVSPropertyOp42
 70
     0
102
RTVSPropertyOp43
 70
     0
102
RTVSPropertyOp44
 70
     0
102
RTVSPropertyOp45
 70
     0
102
RTVSPropertyOp46
 70
     0
102
RTVSPropertyOp47
 70
     0
102
RTVSPropertyOp48
 70
     0
102
RTVSPropertyOp49
 70
     0
102
RTVSPropertyOp50
 70
     0
102
RTVSPropertyOp51
 70
     0
102
RTVSPropertyOp52
 70
     0
102
RTVSPropertyOp53
 70
     0
102
RTVSPropertyOp54
 70
     0
102
RTVSPropertyOp55
 70
     0
102
RTVSPropertyOp56
 70
     0
102
RTVSPropertyOp57
 70
     0
102
RTVSPost2010Prop28
280
     0
102
RTVSPost2010PropOp28
 70
     0
102
RTVSPost2010Prop29
280
     1
102
RTVSPost2010PropOp29
 70
     0
102
RTVSPost2010Prop30
280
     1
102
RTVSPost2010PropOp30
 70
     0
102
RTVSPost2010Prop31
280
     0
102
RTVSPost2010PropOp31
 70
     0
102
RTVSPost2010Prop32
280
     0
102
RTVSPost2010PropOp32
 70
     0
102
RTVSPost2010Prop33
280
     0
102
RTVSPost2010PropOp33
 70
     0
102
RTVSPost2010Prop34
280
     0
102
RTVSPost2010PropOp34
 70
     0
102
RTVSPost2010Prop35
280
     0
102
RTVSPost2010PropOp35
 70
     0
102
RTVSPost2010Prop36
280
     0
102
RTVSPost2010PropOp36
 70
     0
102
RTVSPost2010Prop37
 90
       50
102
RTVSPost2010PropOp37
 70
     0
102
RTVSPost2010Prop38
140
0.0
102
RTVSPost2010PropOp38
 70
     0
102
RTVSPost2010Prop39
140
1.0
102
RTVSPost2010PropOp39
 70
     0
102
RTVSPost2010Prop40
 90
        0
102
RTVSPost2010PropOp40
 70
     0
102
RTVSPost2010Prop41ColorIndex
 90
       18
102
RTVSPost2010Prop41ColorRGB
 90
        0
102
RTVSPost2010PropOp41
 70
     0
102
RTVSPost2010Prop42
 90
       50
102
RTVSPost2010PropOp42
 70
     0
102
RTVSPost2010Prop43
 90
        3
102
RTVSPost2010PropOp43
 70
     0
102
RTVSPost2010Prop44ColorIndex
 90
        5
102
RTVSPost2010Prop44ColorRGB
 90
      255
102
RTVSPost2010PropOp44
 70
     0
102
RTVSPost2010Prop45
280
     0
102
RTVSPost2010PropOp45
 70
     0
102
RTVSPost2010Prop46
 90
       50
102
RTVSPost2010PropOp46
 70
     0
102
RTVSPost2010Prop47
 90
       50
102
RTVSPost2010PropOp47
 70
     0
102
RTVSPost2010Prop48
 90
       50
102
RTVSPost2010PropOp48
 70
     0
102
RTVSPost2010Prop49
280
     0
102
RTVSPost2010PropOp49
 70
     0
102
RTVSPost2010Prop50
 90
       50
102
RTVSPost2010PropOp50
 70
     0
102
RTVSPost2010Prop51ColorIndex
 90
      256
102
RTVSPost2010Prop51ColorRGB
 90
-16777216
102
RTVSPost2010PropOp51
 70
     0
102
RTVSPost2010Prop52
140
1.0
102
RTVSPost2010PropOp52
 70
     0
102
RTVSPost2010Prop53
 90
        2
102
RTVSPost2010PropOp53
 70
     0
102
RTVSPost2010Prop54
  1
strokes_ogs.tif
102
RTVSPost2010PropOp54
 70
     0
102
RTVSPost2010Prop55
280
     0
102
RTVSPost2010PropOp55
 70
     0
102
RTVSPost2010Prop56
140
1.0
102
RTVSPost2010PropOp56
 70
     0
102
RTVSPost2010Prop57
140
1.0
102
RTVSPost2010PropOp57
 70
     0
  0
XRECORD
  5
490
102
{ACAD_REACTORS
330
48F
102
}
330
48F
100
AcDbXrecord
280
     1
102
RTVSPropertyOp0
 70
     1
102
RTVSPropertyOp1
 70
     1
102
RTVSPropertyOp2
 70
     1
102
RTVSPropertyOp3
 70
     1
102
RTVSPropertyOp4
 70
     1
102
RTVSPropertyOp5
 70
     1
102
RTVSPropertyOp6
 70
     1
102
RTVSPropertyOp7
 70
     1
102
RTVSPropertyOp8
 70
     1
102
RTVSPropertyOp9
 70
     1
102
RTVSPropertyOp10
 70
     1
102
RTVSPropertyOp11
 70
     1
102
RTVSPropertyOp12
 70
     1
102
RTVSPropertyOp13
 70
     1
102
RTVSPropertyOp14
 70
     1
102
RTVSPropertyOp15
 70
     1
102
RTVSPropertyOp16
 70
     1
102
RTVSPropertyOp17
 70
     1
102
RTVSPropertyOp18
 70
     1
102
RTVSPropertyOp19
 70
     1
102
RTVSPropertyOp20
 70
     1
102
RTVSPropertyOp21
 70
     1
102
RTVSPropertyOp22
 70
     1
102
RTVSPropertyOp23
 70
     1
102
RTVSPropertyOp24
 70
     1
102
RTVSPropertyOp25
 70
     1
102
RTVSPropertyOp26
 70
     1
102
RTVSPropertyOp27
 70
     1
102
RTVSPropertyOp28
 70
     1
102
RTVSPropertyOp29
 70
     1
102
RTVSPropertyOp30
 70
     1
102
RTVSPropertyOp31
 70
     1
102
RTVSPropertyOp32
 70
     1
102
RTVSPropertyOp33
 70
     1
102
RTVSPropertyOp34
 70
     1
102
RTVSPropertyOp35
 70
     1
102
RTVSPropertyOp36
 70
     1
102
RTVSPropertyOp37
 70
     1
102
RTVSPropertyOp38
 70
     1
102
RTVSPropertyOp39
 70
     1
102
RTVSPropertyOp40
 70
     1
102
RTVSPropertyOp41
 70
     1
102
RTVSPropertyOp42
 70
     1
102
RTVSPropertyOp43
 70
     1
102
RTVSPropertyOp44
 70
     1
102
RTVSPropertyOp45
 70
     1
102
RTVSPropertyOp46
 70
     1
102
RTVSPropertyOp47
 70
     1
102
RTVSPropertyOp48
 70
     1
102
RTVSPropertyOp49
 70
     1
102
RTVSPropertyOp50
 70
     1
102
RTVSPropertyOp51
 70
     0
102
RTVSPropertyOp52
 70
     0
102
RTVSPropertyOp53
 70
     1
102
RTVSPropertyOp54
 70
     1
102
RTVSPropertyOp55
 70
     1
102
RTVSPropertyOp56
 70
     1
102
RTVSPropertyOp57
 70
     1
102
RTVSPost2010Prop28
280
     0
102
RTVSPost2010PropOp28
 70
     1
102
RTVSPost2010Prop29
280
     1
102
RTVSPost2010PropOp29
 70
     1
102
RTVSPost2010Prop30
280
     1
102
RTVSPost2010PropOp30
 70
     1
102
RTVSPost2010Prop31
280
     0
102
RTVSPost2010PropOp31
 70
     1
102
RTVSPost2010Prop32
280
     0
102
RTVSPost2010PropOp32
 70
     1
102
RTVSPost2010Prop33
280
     0
102
RTVSPost2010PropOp33
 70
     1
102
RTVSPost2010Prop34
280
     0
102
RTVSPost2010PropOp34
 70
     1
102
RTVSPost2010Prop35
280
     0
102
RTVSPost2010PropOp35
 70
     1
102
RTVSPost2010Prop36
280
     0
102
RTVSPost2010PropOp36
 70
     1
102
RTVSPost2010Prop37
 90
       50
102
RTVSPost2010PropOp37
 70
     1
102
RTVSPost2010Prop38
140
0.0
102
RTVSPost2010PropOp38
 70
     1
102
RTVSPost2010Prop39
140
1.0
102
RTVSPost2010PropOp39
 70
     1
102
RTVSPost2010Prop40
 90
        0
102
RTVSPost2010PropOp40
 70
     1
102
RTVSPost2010Prop41ColorIndex
 90
       18
102
RTVSPost2010Prop41ColorRGB
 90
        0
102
RTVSPost2010PropOp41
 70
     1
102
RTVSPost2010Prop42
 90
       50
102
RTVSPost2010PropOp42
 70
     1
102
RTVSPost2010Prop43
 90
        3
102
RTVSPost2010PropOp43
 70
     1
102
RTVSPost2010Prop44ColorIndex
 90
        5
102
RTVSPost2010Prop44ColorRGB
 90
      255
102
RTVSPost2010PropOp44
 70
     1
102
RTVSPost2010Prop45
280
     0
102
RTVSPost2010PropOp45
 70
     1
102
RTVSPost2010Prop46
 90
       50
102
RTVSPost2010PropOp46
 70
     1
102
RTVSPost2010Prop47
 90
       50
102
RTVSPost2010PropOp47
 70
     1
102
RTVSPost2010Prop48
 90
       50
102
RTVSPost2010PropOp48
 70
     1
102
RTVSPost2010Prop49
280
     0
102
RTVSPost2010PropOp49
 70
     1
102
RTVSPost2010Prop50
 90
       50
102
RTVSPost2010PropOp50
 70
     1
102
RTVSPost2010Prop51ColorIndex
 90
      256
102
RTVSPost2010Prop51ColorRGB
 90
-16777216
102
RTVSPost2010PropOp51
 70
     0
102
RTVSPost2010Prop52
140
1.0
102
RTVSPost2010PropOp52
 70
     0
102
RTVSPost2010Prop53
 90
        2
102
RTVSPost2010PropOp53
 70
     1
102
RTVSPost2010Prop54
  1
strokes_ogs.tif
102
RTVSPost2010PropOp54
 70
     1
102
RTVSPost2010Prop55
280
     0
102
RTVSPost2010PropOp55
 70
     1
102
RTVSPost2010Prop56
140
1.0
102
RTVSPost2010PropOp56
 70
     1
102
RTVSPost2010Prop57
140
1.0
102
RTVSPost2010PropOp57
 70
     1
  0
XRECORD
  5
498
102
{ACAD_REACTORS
330
497
102
}
330
497
100
AcDbXrecord
280
     1
102
RTVSPropertyOp0
 70
     0
102
RTVSPropertyOp1
 70
     0
102
RTVSPropertyOp2
 70
     0
102
RTVSPropertyOp3
 70
     0
102
RTVSPropertyOp4
 70
     0
102
RTVSPropertyOp5
 70
     0
102
RTVSPropertyOp6
 70
     0
102
RTVSPropertyOp7
 70
     0
102
RTVSPropertyOp8
 70
     0
102
RTVSPropertyOp9
 70
     0
102
RTVSPropertyOp10
 70
     0
102
RTVSPropertyOp11
 70
     0
102
RTVSPropertyOp12
 70
     0
102
RTVSPropertyOp13
 70
     0
102
RTVSPropertyOp14
 70
     2
102
RTVSPropertyOp15
 70
     0
102
RTVSPropertyOp16
 70
     0
102
RTVSPropertyOp17
 70
     0
102
RTVSPropertyOp18
 70
     0
102
RTVSPropertyOp19
 70
     0
102
RTVSPropertyOp20
 70
     0
102
RTVSPropertyOp21
 70
     0
102
RTVSPropertyOp22
 70
     0
102
RTVSPropertyOp23
 70
     0
102
RTVSPropertyOp24
 70
     0
102
RTVSPropertyOp25
 70
     0
102
RTVSPropertyOp26
 70
     0
102
RTVSPropertyOp27
 70
     0
102
RTVSPropertyOp28
 70
     0
102
RTVSPropertyOp29
 70
     0
102
RTVSPropertyOp30
 70
     0
102
RTVSPropertyOp31
 70
     0
102
RTVSPropertyOp32
 70
     0
102
RTVSPropertyOp33
 70
     0
102
RTVSPropertyOp34
 70
     0
102
RTVSPropertyOp35
 70
     0
102
RTVSPropertyOp36
 70
     0
102
RTVSPropertyOp37
 70
     0
102
RTVSPropertyOp38
 70
     0
102
RTVSPropertyOp39
 70
     0
102
RTVSPropertyOp40
 70
     0
102
RTVSPropertyOp41
 70
     0
102
RTVSPropertyOp42
 70
     0
102
RTVSPropertyOp43
 70
     0
102
RTVSPropertyOp44
 70
     0
102
RTVSPropertyOp45
 70
     0
102
RTVSPropertyOp46
 70
     0
102
RTVSPropertyOp47
 70
     0
102
RTVSPropertyOp48
 70
     0
102
RTVSPropertyOp49
 70
     0
102
RTVSPropertyOp50
 70
     0
102
RTVSPropertyOp51
 70
     0
102
RTVSPropertyOp52
 70
     0
102
RTVSPropertyOp53
 70
     0
102
RTVSPropertyOp54
 70
     0
102
RTVSPropertyOp55
 70
     0
102
RTVSPropertyOp56
 70
     0
102
RTVSPropertyOp57
 70
     0
102
RTVSPost2010Prop28
280
     0
102
RTVSPost2010PropOp28
 70
     0
102
RTVSPost2010Prop29
280
     1
102
RTVSPost2010PropOp29
 70
     0
102
RTVSPost2010Prop30
280
     1
102
RTVSPost2010PropOp30
 70
     0
102
RTVSPost2010Prop31
280
     0
102
RTVSPost2010PropOp31
 70
     0
102
RTVSPost2010Prop32
280
     0
102
RTVSPost2010PropOp32
 70
     0
102
RTVSPost2010Prop33
280
     0
102
RTVSPost2010PropOp33
 70
     0
102
RTVSPost2010Prop34
280
     0
102
RTVSPost2010PropOp34
 70
     0
102
RTVSPost2010Prop35
280
     0
102
RTVSPost2010PropOp35
 70
     0
102
RTVSPost2010Prop36
280
     0
102
RTVSPost2010PropOp36
 70
     0
102
RTVSPost2010Prop37
 90
       50
102
RTVSPost2010PropOp37
 70
     0
102
RTVSPost2010Prop38
140
0.0
102
RTVSPost2010PropOp38
 70
     0
102
RTVSPost2010Prop39
140
1.0
102
RTVSPost2010PropOp39
 70
     0
102
RTVSPost2010Prop40
 90
        0
102
RTVSPost2010PropOp40
 70
     0
102
RTVSPost2010Prop41ColorIndex
 90
       18
102
RTVSPost2010Prop41ColorRGB
 90
        0
102
RTVSPost2010PropOp41
 70
     0
102
RTVSPost2010Prop42
 90
       50
102
RTVSPost2010PropOp42
 70
     0
102
RTVSPost2010Prop43
 90
        3
102
RTVSPost2010PropOp43
 70
     0
102
RTVSPost2010Prop44ColorIndex
 90
        5
102
RTVSPost2010Prop44ColorRGB
 90
      255
102
RTVSPost2010PropOp44
 70
     0
102
RTVSPost2010Prop45
280
     0
102
RTVSPost2010PropOp45
 70
     0
102
RTVSPost2010Prop46
 90
       50
102
RTVSPost2010PropOp46
 70
     0
102
RTVSPost2010Prop47
 90
       50
102
RTVSPost2010PropOp47
 70
     0
102
RTVSPost2010Prop48
 90
       50
102
RTVSPost2010PropOp48
 70
     0
102
RTVSPost2010Prop49
280
     0
102
RTVSPost2010PropOp49
 70
     0
102
RTVSPost2010Prop50
 90
       50
102
RTVSPost2010PropOp50
 70
     0
102
RTVSPost2010Prop51ColorIndex
 90
      256
102
RTVSPost2010Prop51ColorRGB
 90
-16777216
102
RTVSPost2010PropOp51
 70
     0
102
RTVSPost2010Prop52
140
1.0
102
RTVSPost2010PropOp52
 70
     0
102
RTVSPost2010Prop53
 90
        2
102
RTVSPost2010PropOp53
 70
     0
102
RTVSPost2010Prop54
  1
strokes_ogs.tif
102
RTVSPost2010PropOp54
 70
     0
102
RTVSPost2010Prop55
280
     0
102
RTVSPost2010PropOp55
 70
     0
102
RTVSPost2010Prop56
140
1.0
102
RTVSPost2010PropOp56
 70
     0
102
RTVSPost2010Prop57
140
1.0
102
RTVSPost2010PropOp57
 70
     0
  0
XRECORD
  5
486
102
{ACAD_REACTORS
330
485
102
}
330
485
100
AcDbXrecord
280
     1
102
RTVSPropertyOp0
 70
     1
102
RTVSPropertyOp1
 70
     1
102
RTVSPropertyOp2
 70
     1
102
RTVSPropertyOp3
 70
     1
102
RTVSPropertyOp4
 70
     1
102
RTVSPropertyOp5
 70
     1
102
RTVSPropertyOp6
 70
     1
102
RTVSPropertyOp7
 70
     1
102
RTVSPropertyOp8
 70
     1
102
RTVSPropertyOp9
 70
     1
102
RTVSPropertyOp10
 70
     1
102
RTVSPropertyOp11
 70
     1
102
RTVSPropertyOp12
 70
     1
102
RTVSPropertyOp13
 70
     1
102
RTVSPropertyOp14
 70
     1
102
RTVSPropertyOp15
 70
     1
102
RTVSPropertyOp16
 70
     1
102
RTVSPropertyOp17
 70
     1
102
RTVSPropertyOp18
 70
     1
102
RTVSPropertyOp19
 70
     1
102
RTVSPropertyOp20
 70
     1
102
RTVSPropertyOp21
 70
     1
102
RTVSPropertyOp22
 70
     1
102
RTVSPropertyOp23
 70
     1
102
RTVSPropertyOp24
 70
     1
102
RTVSPropertyOp25
 70
     1
102
RTVSPropertyOp26
 70
     1
102
RTVSPropertyOp27
 70
     1
102
RTVSPropertyOp28
 70
     1
102
RTVSPropertyOp29
 70
     1
102
RTVSPropertyOp30
 70
     1
102
RTVSPropertyOp31
 70
     1
102
RTVSPropertyOp32
 70
     1
102
RTVSPropertyOp33
 70
     1
102
RTVSPropertyOp34
 70
     1
102
RTVSPropertyOp35
 70
     1
102
RTVSPropertyOp36
 70
     1
102
RTVSPropertyOp37
 70
     1
102
RTVSPropertyOp38
 70
     1
102
RTVSPropertyOp39
 70
     1
102
RTVSPropertyOp40
 70
     1
102
RTVSPropertyOp41
 70
     1
102
RTVSPropertyOp42
 70
     1
102
RTVSPropertyOp43
 70
     1
102
RTVSPropertyOp44
 70
     1
102
RTVSPropertyOp45
 70
     1
102
RTVSPropertyOp46
 70
     1
102
RTVSPropertyOp47
 70
     1
102
RTVSPropertyOp48
 70
     1
102
RTVSPropertyOp49
 70
     1
102
RTVSPropertyOp50
 70
     1
102
RTVSPropertyOp51
 70
     0
102
RTVSPropertyOp52
 70
     0
102
RTVSPropertyOp53
 70
     1
102
RTVSPropertyOp54
 70
     1
102
RTVSPropertyOp55
 70
     1
102
RTVSPropertyOp56
 70
     1
102
RTVSPropertyOp57
 70
     1
102
RTVSPost2010Prop28
280
     0
102
RTVSPost2010PropOp28
 70
     1
102
RTVSPost2010Prop29
280
     1
102
RTVSPost2010PropOp29
 70
     1
102
RTVSPost2010Prop30
280
     1
102
RTVSPost2010PropOp30
 70
     1
102
RTVSPost2010Prop31
280
     0
102
RTVSPost2010PropOp31
 70
     1
102
RTVSPost2010Prop32
280
     0
102
RTVSPost2010PropOp32
 70
     1
102
RTVSPost2010Prop33
280
     0
102
RTVSPost2010PropOp33
 70
     1
102
RTVSPost2010Prop34
280
     0
102
RTVSPost2010PropOp34
 70
     1
102
RTVSPost2010Prop35
280
     0
102
RTVSPost2010PropOp35
 70
     1
102
RTVSPost2010Prop36
280
     0
102
RTVSPost2010PropOp36
 70
     1
102
RTVSPost2010Prop37
 90
       50
102
RTVSPost2010PropOp37
 70
     1
102
RTVSPost2010Prop38
140
0.0
102
RTVSPost2010PropOp38
 70
     1
102
RTVSPost2010Prop39
140
1.0
102
RTVSPost2010PropOp39
 70
     1
102
RTVSPost2010Prop40
 90
        0
102
RTVSPost2010PropOp40
 70
     1
102
RTVSPost2010Prop41ColorIndex
 90
       18
102
RTVSPost2010Prop41ColorRGB
 90
        0
102
RTVSPost2010PropOp41
 70
     1
102
RTVSPost2010Prop42
 90
       50
102
RTVSPost2010PropOp42
 70
     1
102
RTVSPost2010Prop43
 90
        3
102
RTVSPost2010PropOp43
 70
     1
102
RTVSPost2010Prop44ColorIndex
 90
        5
102
RTVSPost2010Prop44ColorRGB
 90
      255
102
RTVSPost2010PropOp44
 70
     1
102
RTVSPost2010Prop45
280
     0
102
RTVSPost2010PropOp45
 70
     1
102
RTVSPost2010Prop46
 90
       50
102
RTVSPost2010PropOp46
 70
     1
102
RTVSPost2010Prop47
 90
       50
102
RTVSPost2010PropOp47
 70
     1
102
RTVSPost2010Prop48
 90
       50
102
RTVSPost2010PropOp48
 70
     1
102
RTVSPost2010Prop49
280
     0
102
RTVSPost2010PropOp49
 70
     1
102
RTVSPost2010Prop50
 90
       50
102
RTVSPost2010PropOp50
 70
     1
102
RTVSPost2010Prop51ColorIndex
 90
      256
102
RTVSPost2010Prop51ColorRGB
 90
-16777216
102
RTVSPost2010PropOp51
 70
     0
102
RTVSPost2010Prop52
140
1.0
102
RTVSPost2010PropOp52
 70
     0
102
RTVSPost2010Prop53
 90
        2
102
RTVSPost2010PropOp53
 70
     1
102
RTVSPost2010Prop54
  1
strokes_ogs.tif
102
RTVSPost2010PropOp54
 70
     1
102
RTVSPost2010Prop55
280
     0
102
RTVSPost2010PropOp55
 70
     1
102
RTVSPost2010Prop56
140
1.0
102
RTVSPost2010PropOp56
 70
     1
102
RTVSPost2010Prop57
140
1.0
102
RTVSPost2010PropOp57
 70
     1
  0
XRECORD
  5
4A4
102
{ACAD_REACTORS
330
4A3
102
}
330
4A3
100
AcDbXrecord
280
     1
102
RTVSPropertyOp0
 70
     1
102
RTVSPropertyOp1
 70
     1
102
RTVSPropertyOp2
 70
     1
102
RTVSPropertyOp3
 70
     1
102
RTVSPropertyOp4
 70
     1
102
RTVSPropertyOp5
 70
     1
102
RTVSPropertyOp6
 70
     1
102
RTVSPropertyOp7
 70
     1
102
RTVSPropertyOp8
 70
     1
102
RTVSPropertyOp9
 70
     1
102
RTVSPropertyOp10
 70
     1
102
RTVSPropertyOp11
 70
     1
102
RTVSPropertyOp12
 70
     1
102
RTVSPropertyOp13
 70
     1
102
RTVSPropertyOp14
 70
     1
102
RTVSPropertyOp15
 70
     1
102
RTVSPropertyOp16
 70
     1
102
RTVSPropertyOp17
 70
     1
102
RTVSPropertyOp18
 70
     1
102
RTVSPropertyOp19
 70
     1
102
RTVSPropertyOp20
 70
     1
102
RTVSPropertyOp21
 70
     1
102
RTVSPropertyOp22
 70
     1
102
RTVSPropertyOp23
 70
     1
102
RTVSPropertyOp24
 70
     1
102
RTVSPropertyOp25
 70
     1
102
RTVSPropertyOp26
 70
     1
102
RTVSPropertyOp27
 70
     1
102
RTVSPropertyOp28
 70
     1
102
RTVSPropertyOp29
 70
     1
102
RTVSPropertyOp30
 70
     1
102
RTVSPropertyOp31
 70
     1
102
RTVSPropertyOp32
 70
     1
102
RTVSPropertyOp33
 70
     1
102
RTVSPropertyOp34
 70
     1
102
RTVSPropertyOp35
 70
     1
102
RTVSPropertyOp36
 70
     1
102
RTVSPropertyOp37
 70
     1
102
RTVSPropertyOp38
 70
     1
102
RTVSPropertyOp39
 70
     1
102
RTVSPropertyOp40
 70
     1
102
RTVSPropertyOp41
 70
     1
102
RTVSPropertyOp42
 70
     1
102
RTVSPropertyOp43
 70
     1
102
RTVSPropertyOp44
 70
     1
102
RTVSPropertyOp45
 70
     1
102
RTVSPropertyOp46
 70
     1
102
RTVSPropertyOp47
 70
     1
102
RTVSPropertyOp48
 70
     1
102
RTVSPropertyOp49
 70
     1
102
RTVSPropertyOp50
 70
     1
102
RTVSPropertyOp51
 70
     0
102
RTVSPropertyOp52
 70
     0
102
RTVSPropertyOp53
 70
     1
102
RTVSPropertyOp54
 70
     1
102
RTVSPropertyOp55
 70
     1
102
RTVSPropertyOp56
 70
     1
102
RTVSPropertyOp57
 70
     1
102
RTVSPost2010Prop28
280
     0
102
RTVSPost2010PropOp28
 70
     1
102
RTVSPost2010Prop29
280
     1
102
RTVSPost2010PropOp29
 70
     1
102
RTVSPost2010Prop30
280
     1
102
RTVSPost2010PropOp30
 70
     1
102
RTVSPost2010Prop31
280
     0
102
RTVSPost2010PropOp31
 70
     1
102
RTVSPost2010Prop32
280
     0
102
RTVSPost2010PropOp32
 70
     1
102
RTVSPost2010Prop33
280
     0
102
RTVSPost2010PropOp33
 70
     1
102
RTVSPost2010Prop34
280
     0
102
RTVSPost2010PropOp34
 70
     1
102
RTVSPost2010Prop35
280
     0
102
RTVSPost2010PropOp35
 70
     1
102
RTVSPost2010Prop36
280
     0
102
RTVSPost2010PropOp36
 70
     1
102
RTVSPost2010Prop37
 90
       50
102
RTVSPost2010PropOp37
 70
     1
102
RTVSPost2010Prop38
140
0.0
102
RTVSPost2010PropOp38
 70
     1
102
RTVSPost2010Prop39
140
1.0
102
RTVSPost2010PropOp39
 70
     1
102
RTVSPost2010Prop40
 90
        0
102
RTVSPost2010PropOp40
 70
     1
102
RTVSPost2010Prop41ColorIndex
 90
       18
102
RTVSPost2010Prop41ColorRGB
 90
        0
102
RTVSPost2010PropOp41
 70
     1
102
RTVSPost2010Prop42
 90
       50
102
RTVSPost2010PropOp42
 70
     1
102
RTVSPost2010Prop43
 90
        3
102
RTVSPost2010PropOp43
 70
     1
102
RTVSPost2010Prop44ColorIndex
 90
        5
102
RTVSPost2010Prop44ColorRGB
 90
      255
102
RTVSPost2010PropOp44
 70
     1
102
RTVSPost2010Prop45
280
     0
102
RTVSPost2010PropOp45
 70
     1
102
RTVSPost2010Prop46
 90
       50
102
RTVSPost2010PropOp46
 70
     1
102
RTVSPost2010Prop47
 90
       50
102
RTVSPost2010PropOp47
 70
     1
102
RTVSPost2010Prop48
 90
       50
102
RTVSPost2010PropOp48
 70
     1
102
RTVSPost2010Prop49
280
     0
102
RTVSPost2010PropOp49
 70
     1
102
RTVSPost2010Prop50
 90
       50
102
RTVSPost2010PropOp50
 70
     1
102
RTVSPost2010Prop51ColorIndex
 90
      256
102
RTVSPost2010Prop51ColorRGB
 90
-16777216
102
RTVSPost2010PropOp51
 70
     0
102
RTVSPost2010Prop52
140
1.0
102
RTVSPost2010PropOp52
 70
     0
102
RTVSPost2010Prop53
 90
        2
102
RTVSPost2010PropOp53
 70
     1
102
RTVSPost2010Prop54
  1
strokes_ogs.tif
102
RTVSPost2010PropOp54
 70
     1
102
RTVSPost2010Prop55
280
     0
102
RTVSPost2010PropOp55
 70
     1
102
RTVSPost2010Prop56
140
1.0
102
RTVSPost2010PropOp56
 70
     1
102
RTVSPost2010Prop57
140
1.0
102
RTVSPost2010PropOp57
 70
     1
  0
XRECORD
  5
4A2
102
{ACAD_REACTORS
330
4A1
102
}
330
4A1
100
AcDbXrecord
280
     1
102
RTVSPropertyOp0
 70
     1
102
RTVSPropertyOp1
 70
     1
102
RTVSPropertyOp2
 70
     1
102
RTVSPropertyOp3
 70
     1
102
RTVSPropertyOp4
 70
     1
102
RTVSPropertyOp5
 70
     1
102
RTVSPropertyOp6
 70
     1
102
RTVSPropertyOp7
 70
     1
102
RTVSPropertyOp8
 70
     1
102
RTVSPropertyOp9
 70
     1
102
RTVSPropertyOp10
 70
     1
102
RTVSPropertyOp11
 70
     1
102
RTVSPropertyOp12
 70
     1
102
RTVSPropertyOp13
 70
     1
102
RTVSPropertyOp14
 70
     1
102
RTVSPropertyOp15
 70
     1
102
RTVSPropertyOp16
 70
     1
102
RTVSPropertyOp17
 70
     1
102
RTVSPropertyOp18
 70
     1
102
RTVSPropertyOp19
 70
     1
102
RTVSPropertyOp20
 70
     1
102
RTVSPropertyOp21
 70
     1
102
RTVSPropertyOp22
 70
     1
102
RTVSPropertyOp23
 70
     1
102
RTVSPropertyOp24
 70
     1
102
RTVSPropertyOp25
 70
     1
102
RTVSPropertyOp26
 70
     1
102
RTVSPropertyOp27
 70
     1
102
RTVSPropertyOp28
 70
     1
102
RTVSPropertyOp29
 70
     1
102
RTVSPropertyOp30
 70
     1
102
RTVSPropertyOp31
 70
     1
102
RTVSPropertyOp32
 70
     1
102
RTVSPropertyOp33
 70
     1
102
RTVSPropertyOp34
 70
     1
102
RTVSPropertyOp35
 70
     1
102
RTVSPropertyOp36
 70
     1
102
RTVSPropertyOp37
 70
     1
102
RTVSPropertyOp38
 70
     1
102
RTVSPropertyOp39
 70
     1
102
RTVSPropertyOp40
 70
     1
102
RTVSPropertyOp41
 70
     1
102
RTVSPropertyOp42
 70
     1
102
RTVSPropertyOp43
 70
     1
102
RTVSPropertyOp44
 70
     1
102
RTVSPropertyOp45
 70
     1
102
RTVSPropertyOp46
 70
     1
102
RTVSPropertyOp47
 70
     1
102
RTVSPropertyOp48
 70
     1
102
RTVSPropertyOp49
 70
     1
102
RTVSPropertyOp50
 70
     1
102
RTVSPropertyOp51
 70
     0
102
RTVSPropertyOp52
 70
     0
102
RTVSPropertyOp53
 70
     1
102
RTVSPropertyOp54
 70
     1
102
RTVSPropertyOp55
 70
     1
102
RTVSPropertyOp56
 70
     1
102
RTVSPropertyOp57
 70
     1
102
RTVSPost2010Prop28
280
     0
102
RTVSPost2010PropOp28
 70
     1
102
RTVSPost2010Prop29
280
     1
102
RTVSPost2010PropOp29
 70
     1
102
RTVSPost2010Prop30
280
     1
102
RTVSPost2010PropOp30
 70
     1
102
RTVSPost2010Prop31
280
     0
102
RTVSPost2010PropOp31
 70
     1
102
RTVSPost2010Prop32
280
     0
102
RTVSPost2010PropOp32
 70
     1
102
RTVSPost2010Prop33
280
     0
102
RTVSPost2010PropOp33
 70
     1
102
RTVSPost2010Prop34
280
     0
102
RTVSPost2010PropOp34
 70
     1
102
RTVSPost2010Prop35
280
     0
102
RTVSPost2010PropOp35
 70
     1
102
RTVSPost2010Prop36
280
     0
102
RTVSPost2010PropOp36
 70
     1
102
RTVSPost2010Prop37
 90
       50
102
RTVSPost2010PropOp37
 70
     1
102
RTVSPost2010Prop38
140
0.0
102
RTVSPost2010PropOp38
 70
     1
102
RTVSPost2010Prop39
140
1.0
102
RTVSPost2010PropOp39
 70
     1
102
RTVSPost2010Prop40
 90
        0
102
RTVSPost2010PropOp40
 70
     1
102
RTVSPost2010Prop41ColorIndex
 90
       18
102
RTVSPost2010Prop41ColorRGB
 90
        0
102
RTVSPost2010PropOp41
 70
     1
102
RTVSPost2010Prop42
 90
       50
102
RTVSPost2010PropOp42
 70
     1
102
RTVSPost2010Prop43
 90
        3
102
RTVSPost2010PropOp43
 70
     1
102
RTVSPost2010Prop44ColorIndex
 90
        5
102
RTVSPost2010Prop44ColorRGB
 90
      255
102
RTVSPost2010PropOp44
 70
     1
102
RTVSPost2010Prop45
280
     0
102
RTVSPost2010PropOp45
 70
     1
102
RTVSPost2010Prop46
 90
       50
102
RTVSPost2010PropOp46
 70
     1
102
RTVSPost2010Prop47
 90
       50
102
RTVSPost2010PropOp47
 70
     1
102
RTVSPost2010Prop48
 90
       50
102
RTVSPost2010PropOp48
 70
     1
102
RTVSPost2010Prop49
280
     0
102
RTVSPost2010PropOp49
 70
     1
102
RTVSPost2010Prop50
 90
       50
102
RTVSPost2010PropOp50
 70
     1
102
RTVSPost2010Prop51ColorIndex
 90
      256
102
RTVSPost2010Prop51ColorRGB
 90
-16777216
102
RTVSPost2010PropOp51
 70
     0
102
RTVSPost2010Prop52
140
1.0
102
RTVSPost2010PropOp52
 70
     0
102
RTVSPost2010Prop53
 90
        2
102
RTVSPost2010PropOp53
 70
     1
102
RTVSPost2010Prop54
  1
strokes_ogs.tif
102
RTVSPost2010PropOp54
 70
     1
102
RTVSPost2010Prop55
280
     0
102
RTVSPost2010PropOp55
 70
     1
102
RTVSPost2010Prop56
140
1.0
102
RTVSPost2010PropOp56
 70
     1
102
RTVSPost2010Prop57
140
1.0
102
RTVSPost2010PropOp57
 70
     1
  0
XRECORD
  5
49C
102
{ACAD_REACTORS
330
49B
102
}
330
49B
100
AcDbXrecord
280
     1
102
RTVSPropertyOp0
 70
     1
102
RTVSPropertyOp1
 70
     1
102
RTVSPropertyOp2
 70
     1
102
RTVSPropertyOp3
 70
     1
102
RTVSPropertyOp4
 70
     1
102
RTVSPropertyOp5
 70
     1
102
RTVSPropertyOp6
 70
     1
102
RTVSPropertyOp7
 70
     1
102
RTVSPropertyOp8
 70
     1
102
RTVSPropertyOp9
 70
     1
102
RTVSPropertyOp10
 70
     1
102
RTVSPropertyOp11
 70
     1
102
RTVSPropertyOp12
 70
     1
102
RTVSPropertyOp13
 70
     1
102
RTVSPropertyOp14
 70
     1
102
RTVSPropertyOp15
 70
     1
102
RTVSPropertyOp16
 70
     1
102
RTVSPropertyOp17
 70
     1
102
RTVSPropertyOp18
 70
     1
102
RTVSPropertyOp19
 70
     1
102
RTVSPropertyOp20
 70
     1
102
RTVSPropertyOp21
 70
     1
102
RTVSPropertyOp22
 70
     1
102
RTVSPropertyOp23
 70
     1
102
RTVSPropertyOp24
 70
     1
102
RTVSPropertyOp25
 70
     1
102
RTVSPropertyOp26
 70
     1
102
RTVSPropertyOp27
 70
     1
102
RTVSPropertyOp28
 70
     1
102
RTVSPropertyOp29
 70
     1
102
RTVSPropertyOp30
 70
     1
102
RTVSPropertyOp31
 70
     1
102
RTVSPropertyOp32
 70
     1
102
RTVSPropertyOp33
 70
     1
102
RTVSPropertyOp34
 70
     1
102
RTVSPropertyOp35
 70
     1
102
RTVSPropertyOp36
 70
     1
102
RTVSPropertyOp37
 70
     1
102
RTVSPropertyOp38
 70
     1
102
RTVSPropertyOp39
 70
     1
102
RTVSPropertyOp40
 70
     1
102
RTVSPropertyOp41
 70
     1
102
RTVSPropertyOp42
 70
     1
102
RTVSPropertyOp43
 70
     1
102
RTVSPropertyOp44
 70
     1
102
RTVSPropertyOp45
 70
     1
102
RTVSPropertyOp46
 70
     1
102
RTVSPropertyOp47
 70
     1
102
RTVSPropertyOp48
 70
     1
102
RTVSPropertyOp49
 70
     1
102
RTVSPropertyOp50
 70
     1
102
RTVSPropertyOp51
 70
     0
102
RTVSPropertyOp52
 70
     0
102
RTVSPropertyOp53
 70
     1
102
RTVSPropertyOp54
 70
     1
102
RTVSPropertyOp55
 70
     1
102
RTVSPropertyOp56
 70
     1
102
RTVSPropertyOp57
 70
     1
102
RTVSPost2010Prop28
280
     0
102
RTVSPost2010PropOp28
 70
     1
102
RTVSPost2010Prop29
280
     1
102
RTVSPost2010PropOp29
 70
     1
102
RTVSPost2010Prop30
280
     1
102
RTVSPost2010PropOp30
 70
     1
102
RTVSPost2010Prop31
280
     0
102
RTVSPost2010PropOp31
 70
     1
102
RTVSPost2010Prop32
280
     0
102
RTVSPost2010PropOp32
 70
     1
102
RTVSPost2010Prop33
280
     0
102
RTVSPost2010PropOp33
 70
     1
102
RTVSPost2010Prop34
280
     0
102
RTVSPost2010PropOp34
 70
     1
102
RTVSPost2010Prop35
280
     0
102
RTVSPost2010PropOp35
 70
     1
102
RTVSPost2010Prop36
280
     0
102
RTVSPost2010PropOp36
 70
     1
102
RTVSPost2010Prop37
 90
       50
102
RTVSPost2010PropOp37
 70
     1
102
RTVSPost2010Prop38
140
0.0
102
RTVSPost2010PropOp38
 70
     1
102
RTVSPost2010Prop39
140
1.0
102
RTVSPost2010PropOp39
 70
     1
102
RTVSPost2010Prop40
 90
        0
102
RTVSPost2010PropOp40
 70
     1
102
RTVSPost2010Prop41ColorIndex
 90
       18
102
RTVSPost2010Prop41ColorRGB
 90
        0
102
RTVSPost2010PropOp41
 70
     1
102
RTVSPost2010Prop42
 90
       50
102
RTVSPost2010PropOp42
 70
     1
102
RTVSPost2010Prop43
 90
        3
102
RTVSPost2010PropOp43
 70
     1
102
RTVSPost2010Prop44ColorIndex
 90
        5
102
RTVSPost2010Prop44ColorRGB
 90
      255
102
RTVSPost2010PropOp44
 70
     1
102
RTVSPost2010Prop45
280
     0
102
RTVSPost2010PropOp45
 70
     1
102
RTVSPost2010Prop46
 90
       50
102
RTVSPost2010PropOp46
 70
     1
102
RTVSPost2010Prop47
 90
       50
102
RTVSPost2010PropOp47
 70
     1
102
RTVSPost2010Prop48
 90
       50
102
RTVSPost2010PropOp48
 70
     1
102
RTVSPost2010Prop49
280
     0
102
RTVSPost2010PropOp49
 70
     1
102
RTVSPost2010Prop50
 90
       50
102
RTVSPost2010PropOp50
 70
     1
102
RTVSPost2010Prop51ColorIndex
 90
      256
102
RTVSPost2010Prop51ColorRGB
 90
-16777216
102
RTVSPost2010PropOp51
 70
     0
102
RTVSPost2010Prop52
140
1.0
102
RTVSPost2010PropOp52
 70
     0
102
RTVSPost2010Prop53
 90
        2
102
RTVSPost2010PropOp53
 70
     1
102
RTVSPost2010Prop54
  1
strokes_ogs.tif
102
RTVSPost2010PropOp54
 70
     1
102
RTVSPost2010Prop55
280
     0
102
RTVSPost2010PropOp55
 70
     1
102
RTVSPost2010Prop56
140
1.0
102
RTVSPost2010PropOp56
 70
     1
102
RTVSPost2010Prop57
140
1.0
102
RTVSPost2010PropOp57
 70
     1
  0
XRECORD
  5
49E
102
{ACAD_REACTORS
330
49D
102
}
330
49D
100
AcDbXrecord
280
     1
102
RTVSPropertyOp0
 70
     1
102
RTVSPropertyOp1
 70
     1
102
RTVSPropertyOp2
 70
     1
102
RTVSPropertyOp3
 70
     1
102
RTVSPropertyOp4
 70
     1
102
RTVSPropertyOp5
 70
     1
102
RTVSPropertyOp6
 70
     1
102
RTVSPropertyOp7
 70
     1
102
RTVSPropertyOp8
 70
     1
102
RTVSPropertyOp9
 70
     1
102
RTVSPropertyOp10
 70
     1
102
RTVSPropertyOp11
 70
     1
102
RTVSPropertyOp12
 70
     1
102
RTVSPropertyOp13
 70
     1
102
RTVSPropertyOp14
 70
     1
102
RTVSPropertyOp15
 70
     1
102
RTVSPropertyOp16
 70
     1
102
RTVSPropertyOp17
 70
     1
102
RTVSPropertyOp18
 70
     1
102
RTVSPropertyOp19
 70
     1
102
RTVSPropertyOp20
 70
     1
102
RTVSPropertyOp21
 70
     1
102
RTVSPropertyOp22
 70
     1
102
RTVSPropertyOp23
 70
     1
102
RTVSPropertyOp24
 70
     1
102
RTVSPropertyOp25
 70
     1
102
RTVSPropertyOp26
 70
     1
102
RTVSPropertyOp27
 70
     1
102
RTVSPropertyOp28
 70
     1
102
RTVSPropertyOp29
 70
     1
102
RTVSPropertyOp30
 70
     1
102
RTVSPropertyOp31
 70
     1
102
RTVSPropertyOp32
 70
     1
102
RTVSPropertyOp33
 70
     1
102
RTVSPropertyOp34
 70
     1
102
RTVSPropertyOp35
 70
     1
102
RTVSPropertyOp36
 70
     1
102
RTVSPropertyOp37
 70
     1
102
RTVSPropertyOp38
 70
     1
102
RTVSPropertyOp39
 70
     1
102
RTVSPropertyOp40
 70
     1
102
RTVSPropertyOp41
 70
     1
102
RTVSPropertyOp42
 70
     1
102
RTVSPropertyOp43
 70
     1
102
RTVSPropertyOp44
 70
     1
102
RTVSPropertyOp45
 70
     1
102
RTVSPropertyOp46
 70
     1
102
RTVSPropertyOp47
 70
     1
102
RTVSPropertyOp48
 70
     1
102
RTVSPropertyOp49
 70
     1
102
RTVSPropertyOp50
 70
     1
102
RTVSPropertyOp51
 70
     0
102
RTVSPropertyOp52
 70
     0
102
RTVSPropertyOp53
 70
     1
102
RTVSPropertyOp54
 70
     1
102
RTVSPropertyOp55
 70
     1
102
RTVSPropertyOp56
 70
     1
102
RTVSPropertyOp57
 70
     1
102
RTVSPost2010Prop28
280
     0
102
RTVSPost2010PropOp28
 70
     1
102
RTVSPost2010Prop29
280
     1
102
RTVSPost2010PropOp29
 70
     1
102
RTVSPost2010Prop30
280
     1
102
RTVSPost2010PropOp30
 70
     1
102
RTVSPost2010Prop31
280
     0
102
RTVSPost2010PropOp31
 70
     1
102
RTVSPost2010Prop32
280
     0
102
RTVSPost2010PropOp32
 70
     1
102
RTVSPost2010Prop33
280
     0
102
RTVSPost2010PropOp33
 70
     1
102
RTVSPost2010Prop34
280
     0
102
RTVSPost2010PropOp34
 70
     1
102
RTVSPost2010Prop35
280
     0
102
RTVSPost2010PropOp35
 70
     1
102
RTVSPost2010Prop36
280
     0
102
RTVSPost2010PropOp36
 70
     1
102
RTVSPost2010Prop37
 90
       50
102
RTVSPost2010PropOp37
 70
     1
102
RTVSPost2010Prop38
140
0.0
102
RTVSPost2010PropOp38
 70
     1
102
RTVSPost2010Prop39
140
1.0
102
RTVSPost2010PropOp39
 70
     1
102
RTVSPost2010Prop40
 90
        0
102
RTVSPost2010PropOp40
 70
     1
102
RTVSPost2010Prop41ColorIndex
 90
       18
102
RTVSPost2010Prop41ColorRGB
 90
        0
102
RTVSPost2010PropOp41
 70
     1
102
RTVSPost2010Prop42
 90
       50
102
RTVSPost2010PropOp42
 70
     1
102
RTVSPost2010Prop43
 90
        3
102
RTVSPost2010PropOp43
 70
     1
102
RTVSPost2010Prop44ColorIndex
 90
        5
102
RTVSPost2010Prop44ColorRGB
 90
      255
102
RTVSPost2010PropOp44
 70
     1
102
RTVSPost2010Prop45
280
     0
102
RTVSPost2010PropOp45
 70
     1
102
RTVSPost2010Prop46
 90
       50
102
RTVSPost2010PropOp46
 70
     1
102
RTVSPost2010Prop47
 90
       50
102
RTVSPost2010PropOp47
 70
     1
102
RTVSPost2010Prop48
 90
       50
102
RTVSPost2010PropOp48
 70
     1
102
RTVSPost2010Prop49
280
     0
102
RTVSPost2010PropOp49
 70
     1
102
RTVSPost2010Prop50
 90
       50
102
RTVSPost2010PropOp50
 70
     1
102
RTVSPost2010Prop51ColorIndex
 90
      256
102
RTVSPost2010Prop51ColorRGB
 90
-16777216
102
RTVSPost2010PropOp51
 70
     0
102
RTVSPost2010Prop52
140
1.0
102
RTVSPost2010PropOp52
 70
     0
102
RTVSPost2010Prop53
 90
        2
102
RTVSPost2010PropOp53
 70
     1
102
RTVSPost2010Prop54
  1
strokes_ogs.tif
102
RTVSPost2010PropOp54
 70
     1
102
RTVSPost2010Prop55
280
     0
102
RTVSPost2010PropOp55
 70
     1
102
RTVSPost2010Prop56
140
1.0
102
RTVSPost2010PropOp56
 70
     1
102
RTVSPost2010Prop57
140
1.0
102
RTVSPost2010PropOp57
 70
     1
  0
XRECORD
  5
48E
102
{ACAD_REACTORS
330
48D
102
}
330
48D
100
AcDbXrecord
280
     1
102
RTVSPropertyOp0
 70
     1
102
RTVSPropertyOp1
 70
     1
102
RTVSPropertyOp2
 70
     1
102
RTVSPropertyOp3
 70
     1
102
RTVSPropertyOp4
 70
     1
102
RTVSPropertyOp5
 70
     1
102
RTVSPropertyOp6
 70
     1
102
RTVSPropertyOp7
 70
     1
102
RTVSPropertyOp8
 70
     1
102
RTVSPropertyOp9
 70
     1
102
RTVSPropertyOp10
 70
     1
102
RTVSPropertyOp11
 70
     1
102
RTVSPropertyOp12
 70
     1
102
RTVSPropertyOp13
 70
     1
102
RTVSPropertyOp14
 70
     1
102
RTVSPropertyOp15
 70
     1
102
RTVSPropertyOp16
 70
     1
102
RTVSPropertyOp17
 70
     1
102
RTVSPropertyOp18
 70
     1
102
RTVSPropertyOp19
 70
     1
102
RTVSPropertyOp20
 70
     1
102
RTVSPropertyOp21
 70
     1
102
RTVSPropertyOp22
 70
     1
102
RTVSPropertyOp23
 70
     1
102
RTVSPropertyOp24
 70
     1
102
RTVSPropertyOp25
 70
     1
102
RTVSPropertyOp26
 70
     1
102
RTVSPropertyOp27
 70
     1
102
RTVSPropertyOp28
 70
     1
102
RTVSPropertyOp29
 70
     1
102
RTVSPropertyOp30
 70
     1
102
RTVSPropertyOp31
 70
     1
102
RTVSPropertyOp32
 70
     1
102
RTVSPropertyOp33
 70
     1
102
RTVSPropertyOp34
 70
     1
102
RTVSPropertyOp35
 70
     1
102
RTVSPropertyOp36
 70
     1
102
RTVSPropertyOp37
 70
     1
102
RTVSPropertyOp38
 70
     1
102
RTVSPropertyOp39
 70
     1
102
RTVSPropertyOp40
 70
     1
102
RTVSPropertyOp41
 70
     1
102
RTVSPropertyOp42
 70
     1
102
RTVSPropertyOp43
 70
     1
102
RTVSPropertyOp44
 70
     1
102
RTVSPropertyOp45
 70
     1
102
RTVSPropertyOp46
 70
     1
102
RTVSPropertyOp47
 70
     1
102
RTVSPropertyOp48
 70
     1
102
RTVSPropertyOp49
 70
     1
102
RTVSPropertyOp50
 70
     1
102
RTVSPropertyOp51
 70
     0
102
RTVSPropertyOp52
 70
     0
102
RTVSPropertyOp53
 70
     1
102
RTVSPropertyOp54
 70
     1
102
RTVSPropertyOp55
 70
     1
102
RTVSPropertyOp56
 70
     1
102
RTVSPropertyOp57
 70
     1
102
RTVSPost2010Prop28
280
     0
102
RTVSPost2010PropOp28
 70
     1
102
RTVSPost2010Prop29
280
     1
102
RTVSPost2010PropOp29
 70
     1
102
RTVSPost2010Prop30
280
     1
102
RTVSPost2010PropOp30
 70
     1
102
RTVSPost2010Prop31
280
     0
102
RTVSPost2010PropOp31
 70
     1
102
RTVSPost2010Prop32
280
     0
102
RTVSPost2010PropOp32
 70
     1
102
RTVSPost2010Prop33
280
     0
102
RTVSPost2010PropOp33
 70
     1
102
RTVSPost2010Prop34
280
     0
102
RTVSPost2010PropOp34
 70
     1
102
RTVSPost2010Prop35
280
     0
102
RTVSPost2010PropOp35
 70
     1
102
RTVSPost2010Prop36
280
     0
102
RTVSPost2010PropOp36
 70
     1
102
RTVSPost2010Prop37
 90
       50
102
RTVSPost2010PropOp37
 70
     1
102
RTVSPost2010Prop38
140
0.0
102
RTVSPost2010PropOp38
 70
     1
102
RTVSPost2010Prop39
140
1.0
102
RTVSPost2010PropOp39
 70
     1
102
RTVSPost2010Prop40
 90
        0
102
RTVSPost2010PropOp40
 70
     1
102
RTVSPost2010Prop41ColorIndex
 90
       18
102
RTVSPost2010Prop41ColorRGB
 90
        0
102
RTVSPost2010PropOp41
 70
     1
102
RTVSPost2010Prop42
 90
       50
102
RTVSPost2010PropOp42
 70
     1
102
RTVSPost2010Prop43
 90
        3
102
RTVSPost2010PropOp43
 70
     1
102
RTVSPost2010Prop44ColorIndex
 90
        5
102
RTVSPost2010Prop44ColorRGB
 90
      255
102
RTVSPost2010PropOp44
 70
     1
102
RTVSPost2010Prop45
280
     0
102
RTVSPost2010PropOp45
 70
     1
102
RTVSPost2010Prop46
 90
       50
102
RTVSPost2010PropOp46
 70
     1
102
RTVSPost2010Prop47
 90
       50
102
RTVSPost2010PropOp47
 70
     1
102
RTVSPost2010Prop48
 90
       50
102
RTVSPost2010PropOp48
 70
     1
102
RTVSPost2010Prop49
280
     0
102
RTVSPost2010PropOp49
 70
     1
102
RTVSPost2010Prop50
 90
       50
102
RTVSPost2010PropOp50
 70
     1
102
RTVSPost2010Prop51ColorIndex
 90
      256
102
RTVSPost2010Prop51ColorRGB
 90
-16777216
102
RTVSPost2010PropOp51
 70
     0
102
RTVSPost2010Prop52
140
1.0
102
RTVSPost2010PropOp52
 70
     0
102
RTVSPost2010Prop53
 90
        2
102
RTVSPost2010PropOp53
 70
     1
102
RTVSPost2010Prop54
  1
strokes_ogs.tif
102
RTVSPost2010PropOp54
 70
     1
102
RTVSPost2010Prop55
280
     0
102
RTVSPost2010PropOp55
 70
     1
102
RTVSPost2010Prop56
140
1.0
102
RTVSPost2010PropOp56
 70
     1
102
RTVSPost2010Prop57
140
1.0
102
RTVSPost2010PropOp57
 70
     1
  0
XRECORD
  5
480
102
{ACAD_REACTORS
330
47F
102
}
330
47F
100
AcDbXrecord
280
     1
102
RTVSPropertyOp0
 70
     1
102
RTVSPropertyOp1
 70
     1
102
RTVSPropertyOp2
 70
     1
102
RTVSPropertyOp3
 70
     1
102
RTVSPropertyOp4
 70
     1
102
RTVSPropertyOp5
 70
     1
102
RTVSPropertyOp6
 70
     1
102
RTVSPropertyOp7
 70
     1
102
RTVSPropertyOp8
 70
     1
102
RTVSPropertyOp9
 70
     1
102
RTVSPropertyOp10
 70
     1
102
RTVSPropertyOp11
 70
     1
102
RTVSPropertyOp12
 70
     1
102
RTVSPropertyOp13
 70
     1
102
RTVSPropertyOp14
 70
     1
102
RTVSPropertyOp15
 70
     1
102
RTVSPropertyOp16
 70
     1
102
RTVSPropertyOp17
 70
     1
102
RTVSPropertyOp18
 70
     1
102
RTVSPropertyOp19
 70
     1
102
RTVSPropertyOp20
 70
     1
102
RTVSPropertyOp21
 70
     1
102
RTVSPropertyOp22
 70
     1
102
RTVSPropertyOp23
 70
     1
102
RTVSPropertyOp24
 70
     1
102
RTVSPropertyOp25
 70
     1
102
RTVSPropertyOp26
 70
     1
102
RTVSPropertyOp27
 70
     1
102
RTVSPropertyOp28
 70
     1
102
RTVSPropertyOp29
 70
     1
102
RTVSPropertyOp30
 70
     1
102
RTVSPropertyOp31
 70
     1
102
RTVSPropertyOp32
 70
     1
102
RTVSPropertyOp33
 70
     1
102
RTVSPropertyOp34
 70
     1
102
RTVSPropertyOp35
 70
     1
102
RTVSPropertyOp36
 70
     1
102
RTVSPropertyOp37
 70
     1
102
RTVSPropertyOp38
 70
     1
102
RTVSPropertyOp39
 70
     1
102
RTVSPropertyOp40
 70
     1
102
RTVSPropertyOp41
 70
     1
102
RTVSPropertyOp42
 70
     1
102
RTVSPropertyOp43
 70
     1
102
RTVSPropertyOp44
 70
     1
102
RTVSPropertyOp45
 70
     1
102
RTVSPropertyOp46
 70
     1
102
RTVSPropertyOp47
 70
     1
102
RTVSPropertyOp48
 70
     1
102
RTVSPropertyOp49
 70
     1
102
RTVSPropertyOp50
 70
     1
102
RTVSPropertyOp51
 70
     0
102
RTVSPropertyOp52
 70
     0
102
RTVSPropertyOp53
 70
     1
102
RTVSPropertyOp54
 70
     1
102
RTVSPropertyOp55
 70
     1
102
RTVSPropertyOp56
 70
     1
102
RTVSPropertyOp57
 70
     1
102
RTVSPost2010Prop28
280
     0
102
RTVSPost2010PropOp28
 70
     1
102
RTVSPost2010Prop29
280
     1
102
RTVSPost2010PropOp29
 70
     1
102
RTVSPost2010Prop30
280
     1
102
RTVSPost2010PropOp30
 70
     1
102
RTVSPost2010Prop31
280
     0
102
RTVSPost2010PropOp31
 70
     1
102
RTVSPost2010Prop32
280
     0
102
RTVSPost2010PropOp32
 70
     1
102
RTVSPost2010Prop33
280
     0
102
RTVSPost2010PropOp33
 70
     1
102
RTVSPost2010Prop34
280
     0
102
RTVSPost2010PropOp34
 70
     1
102
RTVSPost2010Prop35
280
     0
102
RTVSPost2010PropOp35
 70
     1
102
RTVSPost2010Prop36
280
     0
102
RTVSPost2010PropOp36
 70
     1
102
RTVSPost2010Prop37
 90
       50
102
RTVSPost2010PropOp37
 70
     1
102
RTVSPost2010Prop38
140
0.0
102
RTVSPost2010PropOp38
 70
     1
102
RTVSPost2010Prop39
140
1.0
102
RTVSPost2010PropOp39
 70
     1
102
RTVSPost2010Prop40
 90
        0
102
RTVSPost2010PropOp40
 70
     1
102
RTVSPost2010Prop41ColorIndex
 90
       18
102
RTVSPost2010Prop41ColorRGB
 90
        0
102
RTVSPost2010PropOp41
 70
     1
102
RTVSPost2010Prop42
 90
       50
102
RTVSPost2010PropOp42
 70
     1
102
RTVSPost2010Prop43
 90
        3
102
RTVSPost2010PropOp43
 70
     1
102
RTVSPost2010Prop44ColorIndex
 90
        5
102
RTVSPost2010Prop44ColorRGB
 90
      255
102
RTVSPost2010PropOp44
 70
     1
102
RTVSPost2010Prop45
280
     0
102
RTVSPost2010PropOp45
 70
     1
102
RTVSPost2010Prop46
 90
       50
102
RTVSPost2010PropOp46
 70
     1
102
RTVSPost2010Prop47
 90
       50
102
RTVSPost2010PropOp47
 70
     1
102
RTVSPost2010Prop48
 90
       50
102
RTVSPost2010PropOp48
 70
     1
102
RTVSPost2010Prop49
280
     0
102
RTVSPost2010PropOp49
 70
     1
102
RTVSPost2010Prop50
 90
       50
102
RTVSPost2010PropOp50
 70
     1
102
RTVSPost2010Prop51ColorIndex
 90
      256
102
RTVSPost2010Prop51ColorRGB
 90
-16777216
102
RTVSPost2010PropOp51
 70
     0
102
RTVSPost2010Prop52
140
1.0
102
RTVSPost2010PropOp52
 70
     0
102
RTVSPost2010Prop53
 90
        2
102
RTVSPost2010PropOp53
 70
     1
102
RTVSPost2010Prop54
  1
strokes_ogs.tif
102
RTVSPost2010PropOp54
 70
     1
102
RTVSPost2010Prop55
280
     0
102
RTVSPost2010PropOp55
 70
     1
102
RTVSPost2010Prop56
140
1.0
102
RTVSPost2010PropOp56
 70
     1
102
RTVSPost2010Prop57
140
1.0
102
RTVSPost2010PropOp57
 70
     1
  0
XRECORD
  5
4A0
102
{ACAD_REACTORS
330
49F
102
}
330
49F
100
AcDbXrecord
280
     1
102
RTVSPropertyOp0
 70
     1
102
RTVSPropertyOp1
 70
     1
102
RTVSPropertyOp2
 70
     1
102
RTVSPropertyOp3
 70
     1
102
RTVSPropertyOp4
 70
     1
102
RTVSPropertyOp5
 70
     1
102
RTVSPropertyOp6
 70
     1
102
RTVSPropertyOp7
 70
     1
102
RTVSPropertyOp8
 70
     1
102
RTVSPropertyOp9
 70
     1
102
RTVSPropertyOp10
 70
     1
102
RTVSPropertyOp11
 70
     1
102
RTVSPropertyOp12
 70
     1
102
RTVSPropertyOp13
 70
     1
102
RTVSPropertyOp14
 70
     1
102
RTVSPropertyOp15
 70
     1
102
RTVSPropertyOp16
 70
     1
102
RTVSPropertyOp17
 70
     1
102
RTVSPropertyOp18
 70
     1
102
RTVSPropertyOp19
 70
     1
102
RTVSPropertyOp20
 70
     1
102
RTVSPropertyOp21
 70
     1
102
RTVSPropertyOp22
 70
     1
102
RTVSPropertyOp23
 70
     1
102
RTVSPropertyOp24
 70
     1
102
RTVSPropertyOp25
 70
     1
102
RTVSPropertyOp26
 70
     1
102
RTVSPropertyOp27
 70
     1
102
RTVSPropertyOp28
 70
     1
102
RTVSPropertyOp29
 70
     1
102
RTVSPropertyOp30
 70
     1
102
RTVSPropertyOp31
 70
     1
102
RTVSPropertyOp32
 70
     1
102
RTVSPropertyOp33
 70
     1
102
RTVSPropertyOp34
 70
     1
102
RTVSPropertyOp35
 70
     1
102
RTVSPropertyOp36
 70
     1
102
RTVSPropertyOp37
 70
     1
102
RTVSPropertyOp38
 70
     1
102
RTVSPropertyOp39
 70
     1
102
RTVSPropertyOp40
 70
     1
102
RTVSPropertyOp41
 70
     1
102
RTVSPropertyOp42
 70
     1
102
RTVSPropertyOp43
 70
     1
102
RTVSPropertyOp44
 70
     1
102
RTVSPropertyOp45
 70
     1
102
RTVSPropertyOp46
 70
     1
102
RTVSPropertyOp47
 70
     1
102
RTVSPropertyOp48
 70
     1
102
RTVSPropertyOp49
 70
     1
102
RTVSPropertyOp50
 70
     1
102
RTVSPropertyOp51
 70
     0
102
RTVSPropertyOp52
 70
     0
102
RTVSPropertyOp53
 70
     1
102
RTVSPropertyOp54
 70
     1
102
RTVSPropertyOp55
 70
     1
102
RTVSPropertyOp56
 70
     1
102
RTVSPropertyOp57
 70
     1
102
RTVSPost2010Prop28
280
     0
102
RTVSPost2010PropOp28
 70
     1
102
RTVSPost2010Prop29
280
     1
102
RTVSPost2010PropOp29
 70
     1
102
RTVSPost2010Prop30
280
     1
102
RTVSPost2010PropOp30
 70
     1
102
RTVSPost2010Prop31
280
     0
102
RTVSPost2010PropOp31
 70
     1
102
RTVSPost2010Prop32
280
     0
102
RTVSPost2010PropOp32
 70
     1
102
RTVSPost2010Prop33
280
     0
102
RTVSPost2010PropOp33
 70
     1
102
RTVSPost2010Prop34
280
     0
102
RTVSPost2010PropOp34
 70
     1
102
RTVSPost2010Prop35
280
     0
102
RTVSPost2010PropOp35
 70
     1
102
RTVSPost2010Prop36
280
     0
102
RTVSPost2010PropOp36
 70
     1
102
RTVSPost2010Prop37
 90
       50
102
RTVSPost2010PropOp37
 70
     1
102
RTVSPost2010Prop38
140
0.0
102
RTVSPost2010PropOp38
 70
     1
102
RTVSPost2010Prop39
140
1.0
102
RTVSPost2010PropOp39
 70
     1
102
RTVSPost2010Prop40
 90
        0
102
RTVSPost2010PropOp40
 70
     1
102
RTVSPost2010Prop41ColorIndex
 90
       18
102
RTVSPost2010Prop41ColorRGB
 90
        0
102
RTVSPost2010PropOp41
 70
     1
102
RTVSPost2010Prop42
 90
       50
102
RTVSPost2010PropOp42
 70
     1
102
RTVSPost2010Prop43
 90
        3
102
RTVSPost2010PropOp43
 70
     1
102
RTVSPost2010Prop44ColorIndex
 90
        5
102
RTVSPost2010Prop44ColorRGB
 90
      255
102
RTVSPost2010PropOp44
 70
     1
102
RTVSPost2010Prop45
280
     0
102
RTVSPost2010PropOp45
 70
     1
102
RTVSPost2010Prop46
 90
       50
102
RTVSPost2010PropOp46
 70
     1
102
RTVSPost2010Prop47
 90
       50
102
RTVSPost2010PropOp47
 70
     1
102
RTVSPost2010Prop48
 90
       50
102
RTVSPost2010PropOp48
 70
     1
102
RTVSPost2010Prop49
280
     0
102
RTVSPost2010PropOp49
 70
     1
102
RTVSPost2010Prop50
 90
       50
102
RTVSPost2010PropOp50
 70
     1
102
RTVSPost2010Prop51ColorIndex
 90
      256
102
RTVSPost2010Prop51ColorRGB
 90
-16777216
102
RTVSPost2010PropOp51
 70
     0
102
RTVSPost2010Prop52
140
1.0
102
RTVSPost2010PropOp52
 70
     0
102
RTVSPost2010Prop53
 90
        2
102
RTVSPost2010PropOp53
 70
     1
102
RTVSPost2010Prop54
  1
strokes_ogs.tif
102
RTVSPost2010PropOp54
 70
     1
102
RTVSPost2010Prop55
280
     0
102
RTVSPost2010PropOp55
 70
     1
102
RTVSPost2010Prop56
140
1.0
102
RTVSPost2010PropOp56
 70
     1
102
RTVSPost2010Prop57
140
1.0
102
RTVSPost2010PropOp57
 70
     1
  0
ENDSEC
  0
EOF
