  0
SECTION
  2
HEADER
  9
$ACADVER
  1
AC1021
  9
$ACADMAINTVER
 70
    25
  9
$DWGCODEPAGE
  3
ANSI_932
  9
$INSBASE
 10
0.0
 20
0.0
 30
0.0
  9
$EXTMIN
 10
0.0
 20
0.0
 30
0.0
  9
$EXTMAX
 10
594.0
 20
420.0
 30
0.0
  9
$LIMMIN
 10
0.0
 20
0.0
  9
$LIMMAX
 10
594.0
 20
420.0
  9
$ORTHOMODE
 70
     0
  9
$REGENMODE
 70
     1
  9
$FILLMODE
 70
     1
  9
$QTEXTMODE
 70
     0
  9
$MIRRTEXT
 70
     1
  9
$LTSCALE
 40
1.0
  9
$ATTMODE
 70
     1
  9
$TEXTSIZE
 40
4.8865234375
  9
$TRACEWID
 40
1.0
  9
$TEXTSTYLE
  7
Standard
  9
$CLAYER
  8
0
  9
$CELTYPE
  6
ByLayer
  9
$CECOLOR
 62
   256
  9
$CELTSCALE
 40
1.0
  9
$DISPSILH
 70
     0
  9
$DIMSCALE
 40
1.0
  9
$DIMASZ
 40
2.5
  9
$DIMEXO
 40
0.625
  9
$DIMDLI
 40
3.75
  9
$DIMRND
 40
0.0
  9
$DIMDLE
 40
0.0
  9
$DIMEXE
 40
1.25
  9
$DIMTP
 40
0.0
  9
$DIMTM
 40
0.0
  9
$DIMTXT
 40
2.5
  9
$DIMCEN
 40
2.5
  9
$DIMTSZ
 40
0.0
  9
$DIMTOL
 70
     0
  9
$DIMLIM
 70
     0
  9
$DIMTIH
 70
     0
  9
$DIMTOH
 70
     0
  9
$DIMSE1
 70
     0
  9
$DIMSE2
 70
     0
  9
$DIMTAD
 70
     1
  9
$DIMZIN
 70
     8
  9
$DIMBLK
  1

  9
$DIMASO
 70
     1
  9
$DIMSHO
 70
     1
  9
$DIMPOST
  1

  9
$DIMAPOST
  1

  9
$DIMALT
 70
     0
  9
$DIMALTD
 70
     3
  9
$DIMALTF
 40
0.0393700787
  9
$DIMLFAC
 40
1.0
  9
$DIMTOFL
 70
     1
  9
$DIMTVP
 40
0.0
  9
$DIMTIX
 70
     0
  9
$DIMSOXD
 70
     0
  9
$DIMSAH
 70
     0
  9
$DIMBLK1
  1

  9
$DIMBLK2
  1

  9
$DIMSTYLE
  2
ISO-25
  9
$DIMCLRD
 70
     0
  9
$DIMCLRE
 70
     0
  9
$DIMCLRT
 70
     0
  9
$DIMTFAC
 40
1.0
  9
$DIMGAP
 40
0.625
  9
$DIMJUST
 70
     0
  9
$DIMSD1
 70
     0
  9
$DIMSD2
 70
     0
  9
$DIMTOLJ
 70
     0
  9
$DIMTZIN
 70
     8
  9
$DIMALTZ
 70
     0
  9
$DIMALTTZ
 70
     0
  9
$DIMUPT
 70
     0
  9
$DIMDEC
 70
     2
  9
$DIMTDEC
 70
     2
  9
$DIMALTU
 70
     2
  9
$DIMALTTD
 70
     3
  9
$DIMTXSTY
  7
Standard
  9
$DIMAUNIT
 70
     0
  9
$DIMADEC
 70
     0
  9
$DIMALTRND
 40
0.0
  9
$DIMAZIN
 70
     0
  9
$DIMDSEP
 70
    44
  9
$DIMATFIT
 70
     3
  9
$DIMFRAC
 70
     0
  9
$DIMLDRBLK
  1

  9
$DIMLUNIT
 70
     2
  9
$DIMLWD
 70
    -2
  9
$DIMLWE
 70
    -2
  9
$DIMTMOVE
 70
     0
  9
$DIMFXL
 40
1.0
  9
$DIMFXLON
 70
     0
  9
$DIMJOGANG
 40
0.7853981634
  9
$DIMTFILL
 70
     0
  9
$DIMTFILLCLR
 70
     0
  9
$DIMARCSYM
 70
     0
  9
$DIMLTYPE
  6

  9
$DIMLTEX1
  6

  9
$DIMLTEX2
  6

  9
$LUNITS
 70
     2
  9
$LUPREC
 70
     4
  9
$SKETCHINC
 40
1.0
  9
$FILLETRAD
 40
10.0
  9
$AUNITS
 70
     0
  9
$AUPREC
 70
     0
  9
$MENU
  1
.
  9
$ELEVATION
 40
0.0
  9
$PELEVATION
 40
0.0
  9
$THICKNESS
 40
0.0
  9
$LIMCHECK
 70
     0
  9
$CHAMFERA
 40
0.0
  9
$CHAMFERB
 40
0.0
  9
$CHAMFERC
 40
0.0
  9
$CHAMFERD
 40
0.0
  9
$SKPOLY
 70
     0
  9
$TDCREATE
 40
2459156.698558044
  9
$TDUCREATE
 40
2459156.323558044
  9
$TDUPDATE
 40
2459156.698561782
  9
$TDUUPDATE
 40
2459156.323561782
  9
$TDINDWG
 40
0.0000000116
  9
$TDUSRTIMER
 40
0.0000000116
  9
$USRTIMER
 70
     1
  9
$ANGBASE
 50
0.0
  9
$ANGDIR
 70
     0
  9
$PDMODE
 70
     0
  9
$PDSIZE
 40
0.0
  9
$PLINEWID
 40
0.0
  9
$SPLFRAME
 70
     0
  9
$SPLINETYPE
 70
     6
  9
$SPLINESEGS
 70
     8
  9
$HANDSEED
  5
4AE
  9
$SURFTAB1
 70
     6
  9
$SURFTAB2
 70
     6
  9
$SURFTYPE
 70
     6
  9
$SURFU
 70
     6
  9
$SURFV
 70
     6
  9
$UCSBASE
  2

  9
$UCSNAME
  2

  9
$UCSORG
 10
0.0
 20
0.0
 30
0.0
  9
$UCSXDIR
 10
1.0
 20
0.0
 30
0.0
  9
$UCSYDIR
 10
0.0
 20
1.0
 30
0.0
  9
$UCSORTHOREF
  2

  9
$UCSORTHOVIEW
 70
     0
  9
$UCSORGTOP
 10
0.0
 20
0.0
 30
0.0
  9
$UCSORGBOTTOM
 10
0.0
 20
0.0
 30
0.0
  9
$UCSORGLEFT
 10
0.0
 20
0.0
 30
0.0
  9
$UCSORGRIGHT
 10
0.0
 20
0.0
 30
0.0
  9
$UCSORGFRONT
 10
0.0
 20
0.0
 30
0.0
  9
$UCSORGBACK
 10
0.0
 20
0.0
 30
0.0
  9
$PUCSBASE
  2

  9
$PUCSNAME
  2

  9
$PUCSORG
 10
0.0
 20
0.0
 30
0.0
  9
$PUCSXDIR
 10
1.0
 20
0.0
 30
0.0
  9
$PUCSYDIR
 10
0.0
 20
1.0
 30
0.0
  9
$PUCSORTHOREF
  2

  9
$PUCSORTHOVIEW
 70
     0
  9
$PUCSORGTOP
 10
0.0
 20
0.0
 30
0.0
  9
$PUCSORGBOTTOM
 10
0.0
 20
0.0
 30
0.0
  9
$PUCSORGLEFT
 10
0.0
 20
0.0
 30
0.0
  9
$PUCSORGRIGHT
 10
0.0
 20
0.0
 30
0.0
  9
$PUCSORGFRONT
 10
0.0
 20
0.0
 30
0.0
  9
$PUCSORGBACK
 10
0.0
 20
0.0
 30
0.0
  9
$USERI1
 70
     0
  9
$USERI2
 70
     0
  9
$USERI3
 70
     0
  9
$USERI4
 70
     0
  9
$USERI5
 70
     0
  9
$USERR1
 40
0.0
  9
$USERR2
 40
0.0
  9
$USERR3
 40
0.0
  9
$USERR4
 40
0.0
  9
$USERR5
 40
0.0
  9
$WORLDVIEW
 70
     1
  9
$SHADEDGE
 70
     3
  9
$SHADEDIF
 70
    70
  9
$TILEMODE
 70
     1
  9
$MAXACTVP
 70
    64
  9
$PINSBASE
 10
0.0
 20
0.0
 30
0.0
  9
$PLIMCHECK
 70
     0
  9
$PEXTMIN
 10
0.0
 20
0.0
 30
0.0
  9
$PEXTMAX
 10
594.0
 20
420.0
 30
0.0
  9
$PLIMMIN
 10
0.0
 20
0.0
  9
$PLIMMAX
 10
594.0
 20
420.0
  9
$UNITMODE
 70
     0
  9
$VISRETAIN
 70
     1
  9
$PLINEGEN
 70
     0
  9
$PSLTSCALE
 70
     1
  9
$TREEDEPTH
 70
  3020
  9
$CMLSTYLE
  2
Standard
  9
$CMLJUST
 70
     0
  9
$CMLSCALE
 40
20.0
  9
$PROXYGRAPHICS
 70
     1
  9
$MEASUREMENT
 70
     1
  9
$CELWEIGHT
370
    -1
  9
$ENDCAPS
280
     0
  9
$JOINSTYLE
280
     0
  9
$LWDISPLAY
290
     0
  9
$INSUNITS
 70
     4
  9
$HYPERLINKBASE
  1

  9
$STYLESHEET
  1

  9
$XEDIT
290
     1
  9
$CEPSNTYPE
380
     0
  9
$PSTYLEMODE
290
     1
  9
$FINGERPRINTGUID
  2
{88ccc2ea-4017-4839-88f6-e5c61ec29885}
  9
$VERSIONGUID
  2
{FAEB1C32-E019-11D5-929B-00C0DF256EC4}
  9
$EXTNAMES
290
     1
  9
$PSVPSCALE
 40
0.0
  9
$OLESTARTUP
290
     0
  9
$SORTENTS
280
   127
  9
$INDEXCTL
280
     0
  9
$HIDETEXT
280
     1
  9
$XCLIPFRAME
290
     0
  9
$HALOGAP
280
     0
  9
$OBSCOLOR
 70
   257
  9
$OBSLTYPE
280
     0
  9
$INTERSECTIONDISPLAY
280
     0
  9
$INTERSECTIONCOLOR
 70
   257
  9
$DIMASSOC
280
     2
  9
$PROJECTNAME
  1

  9
$CAMERADISPLAY
290
     0
  9
$LENSLENGTH
 40
50.0
  9
$CAMERAHEIGHT
 40
0.0
  9
$STEPSPERSEC
 40
2.0
  9
$STEPSIZE
 40
6.0
  9
$3DDWFPREC
 40
2.0
  9
$PSOLWIDTH
 40
5.0
  9
$PSOLHEIGHT
 40
80.0
  9
$LOFTANG1
 40
1.5707963268
  9
$LOFTANG2
 40
1.5707963268
  9
$LOFTMAG1
 40
0.0
  9
$LOFTMAG2
 40
0.0
  9
$LOFTPARAM
 70
     7
  9
$LOFTNORMALS
280
     1
  9
$LATITUDE
 40
37.795
  9
$LONGITUDE
 40
-122.394
  9
$NORTHDIRECTION
 40
0.0
  9
$TIMEZONE
 70
 -8000
  9
$LIGHTGLYPHDISPLAY
280
     1
  9
$TILEMODELIGHTSYNCH
280
     1
  9
$CMATERIAL
347
44
  9
$SOLIDHIST
280
     0
  9
$SHOWHIST
280
     1
  9
$DWFFRAME
280
     2
  9
$DGNFRAME
280
     2
  9
$REALWORLDSCALE
290
     1
  9
$INTERFERECOLOR
 62
   256
  9
$CSHADOW
280
     0
  9
$SHADOWPLANELOCATION
 40
0.0
  0
ENDSEC
  0
SECTION
  2
CLASSES
  0
CLASS
  1
ACDBDICTIONARYWDFLT
  2
AcDbDictionaryWithDefault
  3
ObjectDBX Classes
 90
        0
 91
        3
280
     0
281
     0
  0
CLASS
  1
VISUALSTYLE
  2
AcDbVisualStyle
  3
ObjectDBX Classes
 90
     4095
 91
        3
280
     0
281
     0
  0
CLASS
  1
MATERIAL
  2
AcDbMaterial
  3
ObjectDBX Classes
 90
     1153
 91
        3
280
     0
281
     0
  0
CLASS
  1
SCALE
  2
AcDbScale
  3
ObjectDBX Classes
 90
     1153
 91
        3
280
     0
281
     0
  0
CLASS
  1
TABLESTYLE
  2
AcDbTableStyle
  3
ObjectDBX Classes
 90
     4095
 91
        3
280
     0
281
     0
  0
CLASS
  1
MLEADERSTYLE
  2
AcDbMLeaderStyle
  3
ACDB_MLEADERSTYLE_CLASS
 90
     4095
 91
        3
280
     0
281
     0
  0
CLASS
  1
SUN
  2
AcDbSun
  3
SCENEOE
 90
     1153
 91
        3
280
     0
281
     0
  0
CLASS
  1
DICTIONARYVAR
  2
AcDbDictionaryVar
  3
ObjectDBX Classes
 90
        0
 91
        3
280
     0
281
     0
  0
CLASS
  1
CELLSTYLEMAP
  2
AcDbCellStyleMap
  3
ObjectDBX Classes
 90
     1152
 91
        3
280
     0
281
     0
  0
ENDSEC
  0
SECTION
  2
TABLES
  0
TABLE
  2
VPORT
  5
8
330
0
100
AcDbSymbolTable
 70
     1
  0
VPORT
  5
29
330
8
100
AcDbSymbolTableRecord
100
AcDbViewportTableRecord
  2
*Active
 70
     0
 10
0.0
 20
0.0
 11
1.0
 21
1.0
 12
344.1869158879
 22
148.5
 13
0.0
 23
0.0
 14
10.0
 24
10.0
 15
10.0
 25
10.0
 16
0.0
 26
0.0
 36
1.0
 17
0.0
 27
0.0
 37
0.0
 40
297.0
 41
1.9729729729
 42
50.0
 43
0.0
 44
0.0
 50
0.0
 51
0.0
 71
     0
 72
   100
 73
     1
 74
     3
 75
     0
 76
     0
 77
     0
 78
     0
281
     0
 65
     1
110
0.0
120
0.0
130
0.0
111
1.0
121
0.0
131
0.0
112
0.0
122
1.0
132
0.0
 79
     0
146
0.0
348
2F
 60
     3
 61
     5
292
     1
282
     1
141
0.0
142
0.0
 63
   250
361
6D
  0
ENDTAB
  0
TABLE
  2
LTYPE
  5
5
330
0
100
AcDbSymbolTable
 70
     1
  0
LTYPE
  5
14
330
5
100
AcDbSymbolTableRecord
100
AcDbLinetypeTableRecord
  2
ByBlock
 70
     0
  3

 72
    65
 73
     0
 40
0.0
  0
LTYPE
  5
15
330
5
100
AcDbSymbolTableRecord
100
AcDbLinetypeTableRecord
  2
ByLayer
 70
     0
  3

 72
    65
 73
     0
 40
0.0
  0
LTYPE
  5
16
330
5
100
AcDbSymbolTableRecord
100
AcDbLinetypeTableRecord
  2
Continuous
 70
     0
  3
Solid line
 72
    65
 73
     0
 40
0.0
  0
ENDTAB
  0
TABLE
  2
LAYER
  5
2
330
0
100
AcDbSymbolTable
 70
     4
  0
LAYER
  5
10
330
2
100
AcDbSymbolTableRecord
100
AcDbLayerTableRecord
  2
0
 70
     0
 62
     7
  6
Continuous
370
    -3
390
F
347
46
  0
LAYER
  5
6E
330
2
100
AcDbSymbolTableRecord
100
AcDbLayerTableRecord
  2
一般
 70
     0
 62
     7
  6
Continuous
370
    -3
390
F
347
46
  0
LAYER
  5
7F
330
2
100
AcDbSymbolTableRecord
100
AcDbLayerTableRecord
  2
_Translation
 70
     1
 62
    -7
  6
Continuous
370
    -3
390
F
347
46
  0
LAYER
  5
266
330
2
100
AcDbSymbolTableRecord
100
AcDbLayerTableRecord
  2
寸法
 70
     0
 62
     7
  6
Continuous
370
    -3
390
F
347
46
  0
ENDTAB
  0
TABLE
  2
STYLE
  5
3
330
0
100
AcDbSymbolTable
 70
     2
  0
STYLE
  5
11
330
3
100
AcDbSymbolTableRecord
100
AcDbTextStyleTableRecord
  2
Standard
 70
     0
 40
0.0
 41
1.0
 50
0.0
 71
     0
 42
4.8865234375
  3
txt
  4

  0
STYLE
  5
276
330
3
100
AcDbSymbolTableRecord
100
AcDbTextStyleTableRecord
  2
SEACAD_Arial
 70
     0
 40
0.0
 41
1.0
 50
0.0
 71
     0
 42
3.2576822917
  3
arial.ttf
  4

1001
ACAD
1000
Arial
1071
        0
  0
ENDTAB
  0
TABLE
  2
VIEW
  5
6
330
0
100
AcDbSymbolTable
 70
     0
  0
ENDTAB
  0
TABLE
  2
UCS
  5
7
330
0
100
AcDbSymbolTable
 70
     0
  0
ENDTAB
  0
TABLE
  2
APPID
  5
9
330
0
100
AcDbSymbolTable
 70
     2
  0
APPID
  5
12
330
9
100
AcDbSymbolTableRecord
100
AcDbRegAppTableRecord
  2
ACAD
 70
     0
  0
APPID
  5
4A4
330
9
100
AcDbSymbolTableRecord
100
AcDbRegAppTableRecord
  2
ACAD_MLEADERVER
 70
     0
  0
ENDTAB
  0
TABLE
  2
DIMSTYLE
  5
A
330
0
100
AcDbSymbolTable
 70
     3
100
AcDbDimStyleTable
  0
DIMSTYLE
105
27
330
A
100
AcDbSymbolTableRecord
100
AcDbDimStyleTableRecord
  2
ISO-25
 70
     0
 41
2.5
 42
0.625
 43
3.75
 44
1.25
 73
     0
 74
     0
 77
     1
 78
     8
140
2.5
141
2.5
143
0.0393700787
147
0.625
171
     3
172
     1
178
     0
271
     2
272
     2
274
     3
278
    44
283
     0
284
     8
340
11
  0
DIMSTYLE
105
267
330
A
100
AcDbSymbolTableRecord
100
AcDbDimStyleTableRecord
  2
Standard
 70
     0
178
     0
340
11
  0
DIMSTYLE
105
277
102
{ACAD_REACTORS
330
278
330
282
330
28C
330
2A8
330
2DC
330
2E6
330
2F0
330
2FA
330
304
330
30E
330
324
330
32E
330
344
330
34E
330
358
330
362
330
36C
330
376
330
41E
330
428
330
43E
330
448
330
452
102
}
330
A
100
AcDbSymbolTableRecord
100
AcDbDimStyleTableRecord
  2
Arch
 70
     0
 41
3.175
 42
1.6288411458
 44
1.6288411458
 73
     0
 74
     0
 77
     1
 78
     8
140
3.2576822917
141
1.6288411458
143
1.0
147
0.8144205729
172
     1
173
     1
178
     0
179
     2
271
     1
272
     1
284
     8
340
276
343
271
344
271
  0
ENDTAB
  0
TABLE
  2
BLOCK_RECORD
  5
1
330
0
100
AcDbSymbolTable
 70
    72
  0
BLOCK_RECORD
  5
1F
330
1
100
AcDbSymbolTableRecord
100
AcDbBlockTableRecord
  2
*Model_Space
340
22
 70
     0
280
     1
281
     0
  0
BLOCK_RECORD
  5
1B
330
1
100
AcDbSymbolTableRecord
100
AcDbBlockTableRecord
  2
*Paper_Space
340
1E
 70
     0
280
     1
281
     0
  0
BLOCK_RECORD
  5
1C8
330
1
100
AcDbSymbolTableRecord
100
AcDbBlockTableRecord
  2
SE
340
0
102
{BLKREFS
331
1C9
102
}
 70
     0
280
     1
281
     0
  0
BLOCK_RECORD
  5
1CA
330
1
100
AcDbSymbolTableRecord
100
AcDbBlockTableRecord
  2
SE1
340
0
102
{BLKREFS
331
1CB
102
}
 70
     0
280
     1
281
     0
  0
BLOCK_RECORD
  5
1D4
330
1
100
AcDbSymbolTableRecord
100
AcDbBlockTableRecord
  2
SE2
340
0
102
{BLKREFS
331
1D5
102
}
 70
     0
280
     1
281
     0
  0
BLOCK_RECORD
  5
1D6
330
1
100
AcDbSymbolTableRecord
100
AcDbBlockTableRecord
  2
SE3
340
0
102
{BLKREFS
331
1D7
102
}
 70
     0
280
     1
281
     0
  0
BLOCK_RECORD
  5
1E0
330
1
100
AcDbSymbolTableRecord
100
AcDbBlockTableRecord
  2
SE4
340
0
102
{BLKREFS
331
1E1
102
}
 70
     0
280
     1
281
     0
  0
BLOCK_RECORD
  5
1E2
330
1
100
AcDbSymbolTableRecord
100
AcDbBlockTableRecord
  2
SE5
340
0
102
{BLKREFS
331
1E3
102
}
 70
     0
280
     1
281
     0
  0
BLOCK_RECORD
  5
1EC
330
1
100
AcDbSymbolTableRecord
100
AcDbBlockTableRecord
  2
SE6
340
0
102
{BLKREFS
331
1ED
102
}
 70
     0
280
     1
281
     0
  0
BLOCK_RECORD
  5
1EE
330
1
100
AcDbSymbolTableRecord
100
AcDbBlockTableRecord
  2
SE7
340
0
102
{BLKREFS
331
1EF
102
}
 70
     0
280
     1
281
     0
  0
BLOCK_RECORD
  5
1F8
330
1
100
AcDbSymbolTableRecord
100
AcDbBlockTableRecord
  2
SE8
340
0
102
{BLKREFS
331
1F9
102
}
 70
     0
280
     1
281
     0
  0
BLOCK_RECORD
  5
1FA
330
1
100
AcDbSymbolTableRecord
100
AcDbBlockTableRecord
  2
SE9
340
0
102
{BLKREFS
331
1FB
102
}
 70
     0
280
     1
281
     0
  0
BLOCK_RECORD
  5
204
330
1
100
AcDbSymbolTableRecord
100
AcDbBlockTableRecord
  2
グループ
340
0
102
{BLKREFS
331
218
102
}
 70
     0
280
     1
281
     0
  0
BLOCK_RECORD
  5
219
330
1
100
AcDbSymbolTableRecord
100
AcDbBlockTableRecord
  2
グループ-1
340
0
102
{BLKREFS
331
220
102
}
 70
     0
280
     1
281
     0
  0
BLOCK_RECORD
  5
221
330
1
100
AcDbSymbolTableRecord
100
AcDbBlockTableRecord
  2
グループ-2
340
0
102
{BLKREFS
331
228
102
}
 70
     0
280
     1
281
     0
  0
BLOCK_RECORD
  5
229
330
1
100
AcDbSymbolTableRecord
100
AcDbBlockTableRecord
  2
グループ-3
340
0
102
{BLKREFS
331
230
102
}
 70
     0
280
     1
281
     0
  0
BLOCK_RECORD
  5
231
330
1
100
AcDbSymbolTableRecord
100
AcDbBlockTableRecord
  2
SE10
340
0
102
{BLKREFS
331
232
102
}
 70
     0
280
     1
281
     0
  0
BLOCK_RECORD
  5
233
330
1
100
AcDbSymbolTableRecord
100
AcDbBlockTableRecord
  2
SE11
340
0
102
{BLKREFS
331
234
102
}
 70
     0
280
     1
281
     0
  0
BLOCK_RECORD
  5
23D
330
1
100
AcDbSymbolTableRecord
100
AcDbBlockTableRecord
  2
グループ-4
340
0
102
{BLKREFS
331
256
102
}
 70
     0
280
     1
281
     0
  0
BLOCK_RECORD
  5
251
330
1
100
AcDbSymbolTableRecord
100
AcDbBlockTableRecord
  2
グループ-5
340
0
102
{BLKREFS
331
259
102
}
 70
     0
280
     1
281
     0
  0
BLOCK_RECORD
  5
25A
330
1
100
AcDbSymbolTableRecord
100
AcDbBlockTableRecord
  2
SE12
340
0
102
{BLKREFS
331
25B
102
}
 70
     0
280
     1
281
     0
  0
BLOCK_RECORD
  5
25C
330
1
100
AcDbSymbolTableRecord
100
AcDbBlockTableRecord
  2
SE13
340
0
102
{BLKREFS
331
25D
102
}
 70
     0
280
     1
281
     0
  0
BLOCK_RECORD
  5
268
330
1
100
AcDbSymbolTableRecord
100
AcDbBlockTableRecord
  2
_Oblique
340
0
 70
     0
280
     1
281
     0
  0
BLOCK_RECORD
  5
26C
330
1
100
AcDbSymbolTableRecord
100
AcDbBlockTableRecord
  2
_Dot
340
0
 70
     0
280
     1
281
     0
  0
BLOCK_RECORD
  5
271
330
1
100
AcDbSymbolTableRecord
100
AcDbBlockTableRecord
  2
_SE_FILLED
340
0
 70
     0
280
     1
281
     0
  0
BLOCK_RECORD
  5
279
330
1
100
AcDbSymbolTableRecord
100
AcDbBlockTableRecord
  2
DMBLK51
340
0
 70
     0
280
     1
281
     0
  0
BLOCK_RECORD
  5
283
330
1
100
AcDbSymbolTableRecord
100
AcDbBlockTableRecord
  2
DMBLK52
340
0
 70
     0
280
     1
281
     0
  0
BLOCK_RECORD
  5
28D
330
1
100
AcDbSymbolTableRecord
100
AcDbBlockTableRecord
  2
DMBLK53
340
0
 70
     0
280
     1
281
     0
  0
BLOCK_RECORD
  5
296
330
1
100
AcDbSymbolTableRecord
100
AcDbBlockTableRecord
  2
SE14
340
0
102
{BLKREFS
331
297
102
}
 70
     0
280
     1
281
     0
  0
BLOCK_RECORD
  5
298
330
1
100
AcDbSymbolTableRecord
100
AcDbBlockTableRecord
  2
SE15
340
0
102
{BLKREFS
331
299
102
}
 70
     0
280
     1
281
     0
  0
BLOCK_RECORD
  5
2A2
330
1
100
AcDbSymbolTableRecord
100
AcDbBlockTableRecord
  2
グループ-6
340
0
102
{BLKREFS
331
2A7
102
}
 70
     0
280
     1
281
     0
  0
BLOCK_RECORD
  5
2A9
330
1
100
AcDbSymbolTableRecord
100
AcDbBlockTableRecord
  2
DMBLK54
340
0
 70
     0
280
     1
281
     0
  0
BLOCK_RECORD
  5
2B2
330
1
100
AcDbSymbolTableRecord
100
AcDbBlockTableRecord
  2
グループ-7
340
0
102
{BLKREFS
331
2B7
102
}
 70
     0
280
     1
281
     0
  0
BLOCK_RECORD
  5
2B8
330
1
100
AcDbSymbolTableRecord
100
AcDbBlockTableRecord
  2
グループ-8
340
0
102
{BLKREFS
331
2C3
102
}
 70
     0
280
     1
281
     0
  0
BLOCK_RECORD
  5
2C4
330
1
100
AcDbSymbolTableRecord
100
AcDbBlockTableRecord
  2
SE16
340
0
102
{BLKREFS
331
2C5
102
}
 70
     0
280
     1
281
     0
  0
BLOCK_RECORD
  5
2C6
330
1
100
AcDbSymbolTableRecord
100
AcDbBlockTableRecord
  2
SE17
340
0
102
{BLKREFS
331
2C7
102
}
 70
     0
280
     1
281
     0
  0
BLOCK_RECORD
  5
2D0
330
1
100
AcDbSymbolTableRecord
100
AcDbBlockTableRecord
  2
グループ-9
340
0
102
{BLKREFS
331
2DB
102
}
 70
     0
280
     1
281
     0
  0
BLOCK_RECORD
  5
2DD
330
1
100
AcDbSymbolTableRecord
100
AcDbBlockTableRecord
  2
DMBLK55
340
0
 70
     0
280
     1
281
     0
  0
BLOCK_RECORD
  5
2E7
330
1
100
AcDbSymbolTableRecord
100
AcDbBlockTableRecord
  2
DMBLK56
340
0
 70
     0
280
     1
281
     0
  0
BLOCK_RECORD
  5
2F1
330
1
100
AcDbSymbolTableRecord
100
AcDbBlockTableRecord
  2
DMBLK57
340
0
 70
     0
280
     1
281
     0
  0
BLOCK_RECORD
  5
2FB
330
1
100
AcDbSymbolTableRecord
100
AcDbBlockTableRecord
  2
DMBLK58
340
0
 70
     0
280
     1
281
     0
  0
BLOCK_RECORD
  5
305
330
1
100
AcDbSymbolTableRecord
100
AcDbBlockTableRecord
  2
DMBLK59
340
0
 70
     0
280
     1
281
     0
  0
BLOCK_RECORD
  5
30F
330
1
100
AcDbSymbolTableRecord
100
AcDbBlockTableRecord
  2
DMBLK60
340
0
 70
     0
280
     1
281
     0
  0
BLOCK_RECORD
  5
318
330
1
100
AcDbSymbolTableRecord
100
AcDbBlockTableRecord
  2
SE18
340
0
102
{BLKREFS
331
319
102
}
 70
     0
280
     1
281
     0
  0
BLOCK_RECORD
  5
31A
330
1
100
AcDbSymbolTableRecord
100
AcDbBlockTableRecord
  2
SE19
340
0
102
{BLKREFS
331
31B
102
}
 70
     0
280
     1
281
     0
  0
BLOCK_RECORD
  5
325
330
1
100
AcDbSymbolTableRecord
100
AcDbBlockTableRecord
  2
DMBLK61
340
0
 70
     0
280
     1
281
     0
  0
BLOCK_RECORD
  5
32F
330
1
100
AcDbSymbolTableRecord
100
AcDbBlockTableRecord
  2
DMBLK62
340
0
 70
     0
280
     1
281
     0
  0
BLOCK_RECORD
  5
338
330
1
100
AcDbSymbolTableRecord
100
AcDbBlockTableRecord
  2
グループ-10
340
0
102
{BLKREFS
331
343
102
}
 70
     0
280
     1
281
     0
  0
BLOCK_RECORD
  5
345
330
1
100
AcDbSymbolTableRecord
100
AcDbBlockTableRecord
  2
DMBLK63
340
0
 70
     0
280
     1
281
     0
  0
BLOCK_RECORD
  5
34F
330
1
100
AcDbSymbolTableRecord
100
AcDbBlockTableRecord
  2
DMBLK64
340
0
 70
     0
280
     1
281
     0
  0
BLOCK_RECORD
  5
359
330
1
100
AcDbSymbolTableRecord
100
AcDbBlockTableRecord
  2
DMBLK65
340
0
 70
     0
280
     1
281
     0
  0
BLOCK_RECORD
  5
363
330
1
100
AcDbSymbolTableRecord
100
AcDbBlockTableRecord
  2
DMBLK66
340
0
 70
     0
280
     1
281
     0
  0
BLOCK_RECORD
  5
36D
330
1
100
AcDbSymbolTableRecord
100
AcDbBlockTableRecord
  2
DMBLK67
340
0
 70
     0
280
     1
281
     0
  0
BLOCK_RECORD
  5
377
330
1
100
AcDbSymbolTableRecord
100
AcDbBlockTableRecord
  2
DMBLK68
340
0
 70
     0
280
     1
281
     0
  0
BLOCK_RECORD
  5
380
330
1
100
AcDbSymbolTableRecord
100
AcDbBlockTableRecord
  2
SE20
340
0
102
{BLKREFS
331
381
102
}
 70
     0
280
     1
281
     0
  0
BLOCK_RECORD
  5
382
330
1
100
AcDbSymbolTableRecord
100
AcDbBlockTableRecord
  2
SE21
340
0
102
{BLKREFS
331
383
102
}
 70
     0
280
     1
281
     0
  0
BLOCK_RECORD
  5
38C
330
1
100
AcDbSymbolTableRecord
100
AcDbBlockTableRecord
  2
SE22
340
0
102
{BLKREFS
331
38D
102
}
 70
     0
280
     1
281
     0
  0
BLOCK_RECORD
  5
38E
330
1
100
AcDbSymbolTableRecord
100
AcDbBlockTableRecord
  2
SE23
340
0
102
{BLKREFS
331
38F
102
}
 70
     0
280
     1
281
     0
  0
BLOCK_RECORD
  5
398
330
1
100
AcDbSymbolTableRecord
100
AcDbBlockTableRecord
  2
SE24
340
0
102
{BLKREFS
331
399
102
}
 70
     0
280
     1
281
     0
  0
BLOCK_RECORD
  5
39A
330
1
100
AcDbSymbolTableRecord
100
AcDbBlockTableRecord
  2
SE25
340
0
102
{BLKREFS
331
39B
102
}
 70
     0
280
     1
281
     0
  0
BLOCK_RECORD
  5
3A4
330
1
100
AcDbSymbolTableRecord
100
AcDbBlockTableRecord
  2
グループ-11
340
0
102
{BLKREFS
331
3C2
102
}
 70
     0
280
     1
281
     0
  0
BLOCK_RECORD
  5
3C3
330
1
100
AcDbSymbolTableRecord
100
AcDbBlockTableRecord
  2
SE26
340
0
102
{BLKREFS
331
3C4
102
}
 70
     0
280
     1
281
     0
  0
BLOCK_RECORD
  5
3C5
330
1
100
AcDbSymbolTableRecord
100
AcDbBlockTableRecord
  2
SE27
340
0
102
{BLKREFS
331
3C6
102
}
 70
     0
280
     1
281
     0
  0
BLOCK_RECORD
  5
3CF
330
1
100
AcDbSymbolTableRecord
100
AcDbBlockTableRecord
  2
グループ-12
340
0
102
{BLKREFS
331
41D
102
}
 70
     0
280
     1
281
     0
  0
BLOCK_RECORD
  5
41F
330
1
100
AcDbSymbolTableRecord
100
AcDbBlockTableRecord
  2
DMBLK69
340
0
 70
     0
280
     1
281
     0
  0
BLOCK_RECORD
  5
429
330
1
100
AcDbSymbolTableRecord
100
AcDbBlockTableRecord
  2
DMBLK70
340
0
 70
     0
280
     1
281
     0
  0
BLOCK_RECORD
  5
432
330
1
100
AcDbSymbolTableRecord
100
AcDbBlockTableRecord
  2
SE28
340
0
102
{BLKREFS
331
433
102
}
 70
     0
280
     1
281
     0
  0
BLOCK_RECORD
  5
434
330
1
100
AcDbSymbolTableRecord
100
AcDbBlockTableRecord
  2
SE29
340
0
102
{BLKREFS
331
435
102
}
 70
     0
280
     1
281
     0
  0
BLOCK_RECORD
  5
43F
330
1
100
AcDbSymbolTableRecord
100
AcDbBlockTableRecord
  2
DMBLK71
340
0
 70
     0
280
     1
281
     0
  0
BLOCK_RECORD
  5
449
330
1
100
AcDbSymbolTableRecord
100
AcDbBlockTableRecord
  2
DMBLK72
340
0
 70
     0
280
     1
281
     0
  0
BLOCK_RECORD
  5
453
330
1
100
AcDbSymbolTableRecord
100
AcDbBlockTableRecord
  2
DMBLK73
340
0
 70
     0
280
     1
281
     0
  0
BLOCK_RECORD
  5
45C
330
1
100
AcDbSymbolTableRecord
100
AcDbBlockTableRecord
  2
SE30
340
0
102
{BLKREFS
331
45D
102
}
 70
     0
280
     1
281
     0
  0
BLOCK_RECORD
  5
45E
330
1
100
AcDbSymbolTableRecord
100
AcDbBlockTableRecord
  2
SE31
340
0
102
{BLKREFS
331
45F
102
}
 70
     0
280
     1
281
     0
  0
BLOCK_RECORD
  5
466
330
1
100
AcDbSymbolTableRecord
100
AcDbBlockTableRecord
  2
グループ-13
340
0
102
{BLKREFS
331
46E
102
}
 70
     0
280
     1
281
     0
  0
ENDTAB
  0
ENDSEC
  0
SECTION
  2
BLOCKS
  0
BLOCK
  5
20
330
1F
100
AcDbEntity
  8
0
100
AcDbBlockBegin
  2
*Model_Space
 70
     0
 10
0.0
 20
0.0
 30
0.0
  3
*Model_Space
  1

  0
ENDBLK
  5
21
330
1F
100
AcDbEntity
  8
0
100
AcDbBlockEnd
  0
BLOCK
  5
1C
330
1B
100
AcDbEntity
 67
     1
  8
0
100
AcDbBlockBegin
  2
*Paper_Space
 70
     0
 10
0.0
 20
0.0
 30
0.0
  3
*Paper_Space
  1

  0
ENDBLK
  5
1D
330
1B
100
AcDbEntity
 67
     1
  8
0
100
AcDbBlockEnd
  0
BLOCK
  5
1D2
330
1C8
100
AcDbEntity
  8
0
100
AcDbBlockBegin
  2
SE
 70
     0
 10
0.0
 20
0.0
 30
0.0
  3
SE
  1

  0
INSERT
  5
1CB
330
1C8
100
AcDbEntity
  8
一般
100
AcDbBlockReference
  2
SE1
 10
0.0
 20
0.0
 30
0.0
  0
ENDBLK
  5
1D3
330
1C8
100
AcDbEntity
  8
0
100
AcDbBlockEnd
  0
BLOCK
  5
1D0
330
1CA
100
AcDbEntity
  8
0
100
AcDbBlockBegin
  2
SE1
 70
     0
 10
0.0
 20
0.0
 30
0.0
  3
SE1
  1

  0
LINE
  5
1CC
330
1CA
100
AcDbEntity
  8
一般
  6
Continuous
 62
     7
100
AcDbLine
 10
-53.6
 20
135.0
 30
0.0
 11
55.6
 21
135.0
 31
0.0
  0
LINE
  5
1CD
330
1CA
100
AcDbEntity
  8
一般
  6
Continuous
 62
     7
100
AcDbLine
 10
55.6
 20
135.0
 30
0.0
 11
55.6
 21
117.15
 31
0.0
  0
LINE
  5
1CE
330
1CA
100
AcDbEntity
  8
一般
  6
Continuous
 62
     7
100
AcDbLine
 10
55.6
 20
117.15
 30
0.0
 11
-53.6
 21
117.15
 31
0.0
  0
LINE
  5
1CF
330
1CA
100
AcDbEntity
  8
一般
  6
Continuous
 62
     7
100
AcDbLine
 10
-53.6
 20
117.15
 30
0.0
 11
-53.6
 21
135.0
 31
0.0
  0
ENDBLK
  5
1D1
330
1CA
100
AcDbEntity
  8
0
100
AcDbBlockEnd
  0
BLOCK
  5
1DE
330
1D4
100
AcDbEntity
  8
0
100
AcDbBlockBegin
  2
SE2
 70
     0
 10
0.0
 20
0.0
 30
0.0
  3
SE2
  1

  0
INSERT
  5
1D7
330
1D4
100
AcDbEntity
  8
一般
100
AcDbBlockReference
  2
SE3
 10
0.0
 20
0.0
 30
0.0
  0
ENDBLK
  5
1DF
330
1D4
100
AcDbEntity
  8
0
100
AcDbBlockEnd
  0
BLOCK
  5
1DC
330
1D6
100
AcDbEntity
  8
0
100
AcDbBlockBegin
  2
SE3
 70
     0
 10
0.0
 20
0.0
 30
0.0
  3
SE3
  1

  0
LINE
  5
1D8
330
1D6
100
AcDbEntity
  8
一般
  6
Continuous
 62
     7
100
AcDbLine
 10
-151.8354720951
 20
75.0260393766
 30
0.0
 11
-82.8354720951
 21
75.0260393766
 31
0.0
  0
LINE
  5
1D9
330
1D6
100
AcDbEntity
  8
一般
  6
Continuous
 62
     7
100
AcDbLine
 10
-82.8354720951
 20
75.0260393766
 30
0.0
 11
-82.8354720951
 21
-43.9739606234
 31
0.0
  0
LINE
  5
1DA
330
1D6
100
AcDbEntity
  8
一般
  6
Continuous
 62
     7
100
AcDbLine
 10
-82.8354720951
 20
-43.9739606234
 30
0.0
 11
-151.8354720951
 21
-43.9739606234
 31
0.0
  0
LINE
  5
1DB
330
1D6
100
AcDbEntity
  8
一般
  6
Continuous
 62
     7
100
AcDbLine
 10
-151.8354720951
 20
-43.9739606234
 30
0.0
 11
-151.8354720951
 21
75.0260393766
 31
0.0
  0
ENDBLK
  5
1DD
330
1D6
100
AcDbEntity
  8
0
100
AcDbBlockEnd
  0
BLOCK
  5
1EA
330
1E0
100
AcDbEntity
  8
0
100
AcDbBlockBegin
  2
SE4
 70
     0
 10
0.0
 20
0.0
 30
0.0
  3
SE4
  1

  0
INSERT
  5
1E3
330
1E0
100
AcDbEntity
  8
一般
100
AcDbBlockReference
  2
SE5
 10
0.0
 20
0.0
 30
0.0
  0
ENDBLK
  5
1EB
330
1E0
100
AcDbEntity
  8
0
100
AcDbBlockEnd
  0
BLOCK
  5
1E8
330
1E2
100
AcDbEntity
  8
0
100
AcDbBlockBegin
  2
SE5
 70
     0
 10
0.0
 20
0.0
 30
0.0
  3
SE5
  1

  0
LINE
  5
1E4
330
1E2
100
AcDbEntity
  8
一般
  6
Continuous
 62
     7
100
AcDbLine
 10
-134.4902626955
 20
75.0071767611
 30
0.0
 11
-134.4902626955
 21
95.0381969052
 31
0.0
  0
LINE
  5
1E5
330
1E2
100
AcDbEntity
  8
一般
  6
Continuous
 62
     7
100
AcDbLine
 10
-134.4902626955
 20
95.0381969052
 30
0.0
 11
-133.4902626955
 21
95.0381969052
 31
0.0
  0
LINE
  5
1E6
330
1E2
100
AcDbEntity
  8
一般
  6
Continuous
 62
     7
100
AcDbLine
 10
-133.4902626955
 20
95.0381969052
 30
0.0
 11
-133.4902626955
 21
75.0071767611
 31
0.0
  0
LINE
  5
1E7
330
1E2
100
AcDbEntity
  8
一般
  6
Continuous
 62
     7
100
AcDbLine
 10
-133.4902626955
 20
75.0071767611
 30
0.0
 11
-134.4902626955
 21
75.0071767611
 31
0.0
  0
ENDBLK
  5
1E9
330
1E2
100
AcDbEntity
  8
0
100
AcDbBlockEnd
  0
BLOCK
  5
1F6
330
1EC
100
AcDbEntity
  8
0
100
AcDbBlockBegin
  2
SE6
 70
     0
 10
0.0
 20
0.0
 30
0.0
  3
SE6
  1

  0
INSERT
  5
1EF
330
1EC
100
AcDbEntity
  8
一般
100
AcDbBlockReference
  2
SE7
 10
0.0
 20
0.0
 30
0.0
  0
ENDBLK
  5
1F7
330
1EC
100
AcDbEntity
  8
0
100
AcDbBlockEnd
  0
BLOCK
  5
1F4
330
1EE
100
AcDbEntity
  8
0
100
AcDbBlockBegin
  2
SE7
 70
     0
 10
0.0
 20
0.0
 30
0.0
  3
SE7
  1

  0
LINE
  5
1F0
330
1EE
100
AcDbEntity
  8
一般
  6
Continuous
 62
     7
100
AcDbLine
 10
-102.0521565723
 20
75.0071767611
 30
0.0
 11
-102.0521565723
 21
95.0381969052
 31
0.0
  0
LINE
  5
1F1
330
1EE
100
AcDbEntity
  8
一般
  6
Continuous
 62
     7
100
AcDbLine
 10
-102.0521565723
 20
95.0381969052
 30
0.0
 11
-101.0521565723
 21
95.0381969052
 31
0.0
  0
LINE
  5
1F2
330
1EE
100
AcDbEntity
  8
一般
  6
Continuous
 62
     7
100
AcDbLine
 10
-101.0521565723
 20
95.0381969052
 30
0.0
 11
-101.0521565723
 21
75.0071767611
 31
0.0
  0
LINE
  5
1F3
330
1EE
100
AcDbEntity
  8
一般
  6
Continuous
 62
     7
100
AcDbLine
 10
-101.0521565723
 20
75.0071767611
 30
0.0
 11
-102.0521565723
 21
75.0071767611
 31
0.0
  0
ENDBLK
  5
1F5
330
1EE
100
AcDbEntity
  8
0
100
AcDbBlockEnd
  0
BLOCK
  5
202
330
1F8
100
AcDbEntity
  8
0
100
AcDbBlockBegin
  2
SE8
 70
     0
 10
0.0
 20
0.0
 30
0.0
  3
SE8
  1

  0
INSERT
  5
1FB
330
1F8
100
AcDbEntity
  8
一般
100
AcDbBlockReference
  2
SE9
 10
0.0
 20
0.0
 30
0.0
  0
ENDBLK
  5
203
330
1F8
100
AcDbEntity
  8
0
100
AcDbBlockEnd
  0
BLOCK
  5
200
330
1FA
100
AcDbEntity
  8
0
100
AcDbBlockBegin
  2
SE9
 70
     0
 10
0.0
 20
0.0
 30
0.0
  3
SE9
  1

  0
LINE
  5
1FC
330
1FA
100
AcDbEntity
  8
一般
  6
Continuous
 62
     7
100
AcDbLine
 10
38.3012895366
 20
40.0260393766
 30
0.0
 11
40.3012895366
 21
40.0260393766
 31
0.0
  0
LINE
  5
1FD
330
1FA
100
AcDbEntity
  8
一般
  6
Continuous
 62
     7
100
AcDbLine
 10
40.3012895366
 20
40.0260393766
 30
0.0
 11
40.3012895366
 21
30.0260393766
 31
0.0
  0
LINE
  5
1FE
330
1FA
100
AcDbEntity
  8
一般
  6
Continuous
 62
     7
100
AcDbLine
 10
40.3012895366
 20
30.0260393766
 30
0.0
 11
38.3012895366
 21
30.0260393766
 31
0.0
  0
LINE
  5
1FF
330
1FA
100
AcDbEntity
  8
一般
  6
Continuous
 62
     7
100
AcDbLine
 10
38.3012895366
 20
30.0260393766
 30
0.0
 11
38.3012895366
 21
40.0260393766
 31
0.0
  0
ENDBLK
  5
201
330
1FA
100
AcDbEntity
  8
0
100
AcDbBlockEnd
  0
BLOCK
  5
216
330
204
100
AcDbEntity
  8
0
100
AcDbBlockBegin
  2
グループ
 70
     0
 10
0.0
 20
0.0
 30
0.0
  3
グループ
  1

  0
LINE
  5
205
330
204
100
AcDbEntity
  8
一般
  6
Continuous
 62
     7
100
AcDbLine
 10
0.0
 20
23.0
 30
0.0
 11
10.0
 21
23.0
 31
0.0
  0
LINE
  5
206
330
204
100
AcDbEntity
  8
一般
  6
Continuous
 62
     7
100
AcDbLine
 10
10.0
 20
23.0
 30
0.0
 11
10.0
 21
0.0
 31
0.0
  0
LINE
  5
207
330
204
100
AcDbEntity
  8
一般
  6
Continuous
 62
     7
100
AcDbLine
 10
10.0
 20
0.0
 30
0.0
 11
0.0
 21
0.0
 31
0.0
  0
LINE
  5
208
330
204
100
AcDbEntity
  8
一般
  6
Continuous
 62
     7
100
AcDbLine
 10
0.0
 20
0.0
 30
0.0
 11
0.0
 21
23.0
 31
0.0
  0
HATCH
  5
209
330
204
100
AcDbEntity
  8
一般
  6
Continuous
 62
     7
100
AcDbHatch
 10
0.0
 20
0.0
 30
0.0
210
0.0
220
0.0
230
1.0
  2
SOLID
 70
     1
 71
     0
 91
        1
 92
        1
 93
        4
 72
     1
 10
0.0
 20
0.0
 11
10.0
 21
0.0
 72
     1
 10
10.0
 20
0.0
 11
10.0
 21
23.00000000000006
 72
     1
 10
10.0
 20
23.00000000000006
 11
-0.0000000000000018
 21
23.00000000000006
 72
     1
 10
0.0
 20
23.00000000000006
 11
0.0
 21
0.0
 97
        0
 75
     0
 76
     1
 98
        0
  0
LINE
  5
20A
330
204
100
AcDbEntity
  8
一般
  6
Continuous
 62
     7
100
AcDbLine
 10
0.0
 20
23.0
 30
0.0
 11
10.0
 21
23.0
 31
0.0
  0
LINE
  5
20B
330
204
100
AcDbEntity
  8
一般
  6
Continuous
 62
     7
100
AcDbLine
 10
10.0
 20
23.0
 30
0.0
 11
10.0
 21
0.0
 31
0.0
  0
LINE
  5
20C
330
204
100
AcDbEntity
  8
一般
  6
Continuous
 62
     7
100
AcDbLine
 10
10.0
 20
0.0
 30
0.0
 11
0.0
 21
0.0
 31
0.0
  0
LINE
  5
20D
330
204
100
AcDbEntity
  8
一般
  6
Continuous
 62
     7
100
AcDbLine
 10
0.0
 20
0.0
 30
0.0
 11
0.0
 21
23.0
 31
0.0
  0
LINE
  5
20E
330
204
100
AcDbEntity
  8
一般
  6
Continuous
 62
     7
100
AcDbLine
 10
11.0
 20
23.0
 30
0.0
 11
12.0
 21
23.0
 31
0.0
  0
LINE
  5
20F
330
204
100
AcDbEntity
  8
一般
  6
Continuous
 62
     7
100
AcDbLine
 10
12.0
 20
23.0
 30
0.0
 11
12.0
 21
0.0
 31
0.0
  0
LINE
  5
210
330
204
100
AcDbEntity
  8
一般
  6
Continuous
 62
     7
100
AcDbLine
 10
12.0
 20
0.0
 30
0.0
 11
11.0
 21
0.0
 31
0.0
  0
LINE
  5
211
330
204
100
AcDbEntity
  8
一般
  6
Continuous
 62
     7
100
AcDbLine
 10
11.0
 20
0.0
 30
0.0
 11
11.0
 21
23.0
 31
0.0
  0
LINE
  5
212
330
204
100
AcDbEntity
  8
一般
  6
Continuous
 62
     7
100
AcDbLine
 10
10.0
 20
21.2307692308
 30
0.0
 11
11.0
 21
21.2307692308
 31
0.0
  0
LINE
  5
213
330
204
100
AcDbEntity
  8
一般
  6
Continuous
 62
     7
100
AcDbLine
 10
11.0
 20
21.2307692308
 30
0.0
 11
11.0
 21
1.7692307692
 31
0.0
  0
LINE
  5
214
330
204
100
AcDbEntity
  8
一般
  6
Continuous
 62
     7
100
AcDbLine
 10
11.0
 20
1.7692307692
 30
0.0
 11
10.0
 21
1.7692307692
 31
0.0
  0
LINE
  5
215
330
204
100
AcDbEntity
  8
一般
  6
Continuous
 62
     7
100
AcDbLine
 10
10.0
 20
1.7692307692
 30
0.0
 11
10.0
 21
21.2307692308
 31
0.0
  0
ENDBLK
  5
217
330
204
100
AcDbEntity
  8
0
100
AcDbBlockEnd
  0
BLOCK
  5
21E
330
219
100
AcDbEntity
  8
0
100
AcDbBlockBegin
  2
グループ-1
 70
     0
 10
0.0
 20
0.0
 30
0.0
  3
グループ-1
  1

  0
SPLINE
  5
21A
330
219
100
AcDbEntity
  8
一般
  6
Continuous
 62
     7
100
AcDbSpline
210
0.0
220
0.0
230
1.0
 70
     8
 71
     2
 72
    11
 73
     8
 74
     0
 42
0.000000001
 43
0.0000000001
 40
0.0
 40
0.0
 40
0.0
 40
0.1666666666666667
 40
0.3333333333333333
 40
0.5
 40
0.6666666666666666
 40
0.8333333333333333
 40
1.0
 40
1.0
 40
1.0
 10
2.621337121588112
 20
4.0
 30
0.0
 10
1.918951956768979
 20
4.0
 30
0.0
 10
0.7023851648193613
 20
3.464101615137736
 30
0.0
 10
0.0
 20
2.535898384862264
 30
0.0
 10
0.0
 20
1.464101615137793
 30
0.0
 10
0.7023851648193613
 20
0.5358983848622643
 30
0.0
 10
1.918951956768979
 20
0.0
 30
0.0
 10
2.621337121588112
 20
0.0
 30
0.0
  0
LINE
  5
21B
330
219
100
AcDbEntity
  8
一般
  6
Continuous
 62
     7
100
AcDbLine
 10
2.6386833912
 20
4.0
 30
0.0
 11
41.958740215
 21
4.0
 31
0.0
  0
LINE
  5
21C
330
219
100
AcDbEntity
  8
一般
  6
Continuous
 62
     7
100
AcDbLine
 10
41.958740215
 20
4.0
 30
0.0
 11
41.958740215
 21
0.0
 31
0.0
  0
LINE
  5
21D
330
219
100
AcDbEntity
  8
一般
  6
Continuous
 62
     7
100
AcDbLine
 10
41.958740215
 20
0.0
 30
0.0
 11
2.6386833912
 21
0.0
 31
0.0
  0
ENDBLK
  5
21F
330
219
100
AcDbEntity
  8
0
100
AcDbBlockEnd
  0
BLOCK
  5
226
330
221
100
AcDbEntity
  8
0
100
AcDbBlockBegin
  2
グループ-2
 70
     0
 10
0.0
 20
0.0
 30
0.0
  3
グループ-2
  1

  0
SPLINE
  5
222
330
221
100
AcDbEntity
  8
一般
  6
Continuous
 62
     7
100
AcDbSpline
210
0.0
220
0.0
230
1.0
 70
     8
 71
     2
 72
    11
 73
     8
 74
     0
 42
0.000000001
 43
0.0000000001
 40
0.0
 40
0.0
 40
0.0
 40
0.1666666666666667
 40
0.3333333333333333
 40
0.5
 40
0.6666666666666666
 40
0.8333333333333333
 40
1.0
 40
1.0
 40
1.0
 10
2.621337121588112
 20
4.0
 30
0.0
 10
1.918951956768979
 20
4.0
 30
0.0
 10
0.7023851648193613
 20
3.464101615137736
 30
0.0
 10
0.0
 20
2.535898384862264
 30
0.0
 10
0.0
 20
1.464101615137736
 30
0.0
 10
0.7023851648193613
 20
0.5358983848622714
 30
0.0
 10
1.918951956768979
 20
0.0
 30
0.0
 10
2.621337121588112
 20
0.0
 30
0.0
  0
LINE
  5
223
330
221
100
AcDbEntity
  8
一般
  6
Continuous
 62
     7
100
AcDbLine
 10
2.6386833912
 20
4.0
 30
0.0
 11
41.958740215
 21
4.0
 31
0.0
  0
LINE
  5
224
330
221
100
AcDbEntity
  8
一般
  6
Continuous
 62
     7
100
AcDbLine
 10
41.958740215
 20
4.0
 30
0.0
 11
41.958740215
 21
0.0
 31
0.0
  0
LINE
  5
225
330
221
100
AcDbEntity
  8
一般
  6
Continuous
 62
     7
100
AcDbLine
 10
41.958740215
 20
0.0
 30
0.0
 11
2.6386833912
 21
0.0
 31
0.0
  0
ENDBLK
  5
227
330
221
100
AcDbEntity
  8
0
100
AcDbBlockEnd
  0
BLOCK
  5
22E
330
229
100
AcDbEntity
  8
0
100
AcDbBlockBegin
  2
グループ-3
 70
     0
 10
0.0
 20
0.0
 30
0.0
  3
グループ-3
  1

  0
SPLINE
  5
22A
330
229
100
AcDbEntity
  8
一般
  6
Continuous
 62
     7
100
AcDbSpline
210
0.0
220
0.0
230
1.0
 70
     8
 71
     2
 72
    11
 73
     8
 74
     0
 42
0.000000001
 43
0.0000000001
 40
0.0
 40
0.0
 40
0.0
 40
0.1666666666666667
 40
0.3333333333333333
 40
0.5
 40
0.6666666666666666
 40
0.8333333333333333
 40
1.0
 40
1.0
 40
1.0
 10
2.621337121588112
 20
4.0
 30
0.0
 10
1.918951956768979
 20
4.0
 30
0.0
 10
0.7023851648193613
 20
3.464101615137736
 30
0.0
 10
0.0
 20
2.535898384862207
 30
0.0
 10
0.0
 20
1.464101615137736
 30
0.0
 10
0.7023851648193613
 20
0.5358983848622074
 30
0.0
 10
1.918951956768979
 20
0.0
 30
0.0
 10
2.621337121588112
 20
0.0
 30
0.0
  0
LINE
  5
22B
330
229
100
AcDbEntity
  8
一般
  6
Continuous
 62
     7
100
AcDbLine
 10
2.6386833912
 20
4.0
 30
0.0
 11
41.958740215
 21
4.0
 31
0.0
  0
LINE
  5
22C
330
229
100
AcDbEntity
  8
一般
  6
Continuous
 62
     7
100
AcDbLine
 10
41.958740215
 20
4.0
 30
0.0
 11
41.958740215
 21
0.0
 31
0.0
  0
LINE
  5
22D
330
229
100
AcDbEntity
  8
一般
  6
Continuous
 62
     7
100
AcDbLine
 10
41.958740215
 20
0.0
 30
0.0
 11
2.6386833912
 21
0.0
 31
0.0
  0
ENDBLK
  5
22F
330
229
100
AcDbEntity
  8
0
100
AcDbBlockEnd
  0
BLOCK
  5
23B
330
231
100
AcDbEntity
  8
0
100
AcDbBlockBegin
  2
SE10
 70
     0
 10
0.0
 20
0.0
 30
0.0
  3
SE10
  1

  0
INSERT
  5
234
330
231
100
AcDbEntity
  8
一般
100
AcDbBlockReference
  2
SE11
 10
0.0
 20
0.0
 30
0.0
  0
ENDBLK
  5
23C
330
231
100
AcDbEntity
  8
0
100
AcDbBlockEnd
  0
BLOCK
  5
239
330
233
100
AcDbEntity
  8
0
100
AcDbBlockBegin
  2
SE11
 70
     0
 10
0.0
 20
0.0
 30
0.0
  3
SE11
  1

  0
LINE
  5
235
330
233
100
AcDbEntity
  8
一般
  6
Continuous
 62
     7
100
AcDbLine
 10
-86.8354720951
 20
-95.7218129183
 30
0.0
 11
-86.8354720951
 21
-140.7218129183
 31
0.0
  0
LINE
  5
236
330
233
100
AcDbEntity
  8
一般
  6
Continuous
 62
     7
100
AcDbLine
 10
-86.8354720951
 20
-140.7218129183
 30
0.0
 11
-146.8354720951
 21
-140.7218129183
 31
0.0
  0
LINE
  5
237
330
233
100
AcDbEntity
  8
一般
  6
Continuous
 62
     7
100
AcDbLine
 10
-146.8354720951
 20
-140.7218129183
 30
0.0
 11
-146.8354720951
 21
-95.7218129183
 31
0.0
  0
LINE
  5
238
330
233
100
AcDbEntity
  8
一般
  6
Continuous
 62
     7
100
AcDbLine
 10
-146.8354720951
 20
-95.7218129183
 30
0.0
 11
-86.8354720951
 21
-95.7218129183
 31
0.0
  0
ENDBLK
  5
23A
330
233
100
AcDbEntity
  8
0
100
AcDbBlockEnd
  0
BLOCK
  5
24F
330
23D
100
AcDbEntity
  8
0
100
AcDbBlockBegin
  2
グループ-4
 70
     0
 10
0.0
 20
0.0
 30
0.0
  3
グループ-4
  1

  0
LINE
  5
23E
330
23D
100
AcDbEntity
  8
一般
  6
Continuous
 62
     7
100
AcDbLine
 10
23.0
 20
12.0
 30
0.0
 11
23.0
 21
2.0
 31
0.0
  0
LINE
  5
23F
330
23D
100
AcDbEntity
  8
一般
  6
Continuous
 62
     7
100
AcDbLine
 10
23.0
 20
2.0
 30
0.0
 11
0.0
 21
2.0
 31
0.0
  0
LINE
  5
240
330
23D
100
AcDbEntity
  8
一般
  6
Continuous
 62
     7
100
AcDbLine
 10
0.0
 20
2.0
 30
0.0
 11
0.0
 21
12.0
 31
0.0
  0
LINE
  5
241
330
23D
100
AcDbEntity
  8
一般
  6
Continuous
 62
     7
100
AcDbLine
 10
0.0
 20
12.0
 30
0.0
 11
23.0
 21
12.0
 31
0.0
  0
HATCH
  5
242
330
23D
100
AcDbEntity
  8
一般
  6
Continuous
 62
     7
100
AcDbHatch
 10
0.0
 20
0.0
 30
0.0
210
0.0
220
0.0
230
1.0
  2
SOLID
 70
     1
 71
     0
 91
        1
 92
        1
 93
        4
 72
     1
 10
0.0
 20
11.99999999999994
 11
0.0
 21
1.999999999999948
 72
     1
 10
0.0
 20
1.999999999999943
 11
23.00000000000001
 21
1.999999999999943
 72
     1
 10
23.0
 20
1.999999999999943
 11
23.0
 21
11.99999999999994
 72
     1
 10
23.0
 20
11.99999999999994
 11
-0.0000000000000071
 21
11.99999999999994
 97
        0
 75
     0
 76
     1
 98
        0
  0
LINE
  5
243
330
23D
100
AcDbEntity
  8
一般
  6
Continuous
 62
     7
100
AcDbLine
 10
23.0
 20
12.0
 30
0.0
 11
23.0
 21
2.0
 31
0.0
  0
LINE
  5
244
330
23D
100
AcDbEntity
  8
一般
  6
Continuous
 62
     7
100
AcDbLine
 10
23.0
 20
2.0
 30
0.0
 11
0.0
 21
2.0
 31
0.0
  0
LINE
  5
245
330
23D
100
AcDbEntity
  8
一般
  6
Continuous
 62
     7
100
AcDbLine
 10
0.0
 20
2.0
 30
0.0
 11
0.0
 21
12.0
 31
0.0
  0
LINE
  5
246
330
23D
100
AcDbEntity
  8
一般
  6
Continuous
 62
     7
100
AcDbLine
 10
0.0
 20
12.0
 30
0.0
 11
23.0
 21
12.0
 31
0.0
  0
LINE
  5
247
330
23D
100
AcDbEntity
  8
一般
  6
Continuous
 62
     7
100
AcDbLine
 10
23.0
 20
1.0
 30
0.0
 11
23.0
 21
0.0
 31
0.0
  0
LINE
  5
248
330
23D
100
AcDbEntity
  8
一般
  6
Continuous
 62
     7
100
AcDbLine
 10
23.0
 20
0.0
 30
0.0
 11
0.0
 21
0.0
 31
0.0
  0
LINE
  5
249
330
23D
100
AcDbEntity
  8
一般
  6
Continuous
 62
     7
100
AcDbLine
 10
0.0
 20
0.0
 30
0.0
 11
0.0
 21
1.0
 31
0.0
  0
LINE
  5
24A
330
23D
100
AcDbEntity
  8
一般
  6
Continuous
 62
     7
100
AcDbLine
 10
0.0
 20
1.0
 30
0.0
 11
23.0
 21
1.0
 31
0.0
  0
LINE
  5
24B
330
23D
100
AcDbEntity
  8
一般
  6
Continuous
 62
     7
100
AcDbLine
 10
21.2307692308
 20
2.0
 30
0.0
 11
21.2307692308
 21
1.0
 31
0.0
  0
LINE
  5
24C
330
23D
100
AcDbEntity
  8
一般
  6
Continuous
 62
     7
100
AcDbLine
 10
21.2307692308
 20
1.0
 30
0.0
 11
1.7692307692
 21
1.0
 31
0.0
  0
LINE
  5
24D
330
23D
100
AcDbEntity
  8
一般
  6
Continuous
 62
     7
100
AcDbLine
 10
1.7692307692
 20
1.0
 30
0.0
 11
1.7692307692
 21
2.0
 31
0.0
  0
LINE
  5
24E
330
23D
100
AcDbEntity
  8
一般
  6
Continuous
 62
     7
100
AcDbLine
 10
1.7692307692
 20
2.0
 30
0.0
 11
21.2307692308
 21
2.0
 31
0.0
  0
ENDBLK
  5
250
330
23D
100
AcDbEntity
  8
0
100
AcDbBlockEnd
  0
BLOCK
  5
257
330
251
100
AcDbEntity
  8
0
100
AcDbBlockBegin
  2
グループ-5
 70
     0
 10
0.0
 20
0.0
 30
0.0
  3
グループ-5
  1

  0
LINE
  5
252
330
251
100
AcDbEntity
  8
一般
  6
Continuous
 62
     7
100
AcDbLine
 10
20.3461538462
 20
2.0
 30
0.0
 11
20.3461538462
 21
0.0
 31
0.0
  0
LINE
  5
253
330
251
100
AcDbEntity
  8
一般
  6
Continuous
 62
     7
100
AcDbLine
 10
20.3461538462
 20
0.0
 30
0.0
 11
2.6538461538
 21
0.0
 31
0.0
  0
LINE
  5
254
330
251
100
AcDbEntity
  8
一般
  6
Continuous
 62
     7
100
AcDbLine
 10
2.6538461538
 20
0.0
 30
0.0
 11
2.6538461538
 21
2.0
 31
0.0
  0
LINE
  5
255
330
251
100
AcDbEntity
  8
一般
  6
Continuous
 62
     7
100
AcDbLine
 10
2.6538461538
 20
2.0
 30
0.0
 11
20.3461538462
 21
2.0
 31
0.0
  0
INSERT
  5
256
330
251
100
AcDbEntity
  8
一般
 62
     7
100
AcDbBlockReference
  2
グループ-4
 10
0.0
 20
2.0
 30
0.0
  0
ENDBLK
  5
258
330
251
100
AcDbEntity
  8
0
100
AcDbBlockEnd
  0
BLOCK
  5
264
330
25A
100
AcDbEntity
  8
0
100
AcDbBlockBegin
  2
SE12
 70
     0
 10
0.0
 20
0.0
 30
0.0
  3
SE12
  1

  0
INSERT
  5
25D
330
25A
100
AcDbEntity
  8
一般
100
AcDbBlockReference
  2
SE13
 10
0.0
 20
0.0
 30
0.0
  0
ENDBLK
  5
265
330
25A
100
AcDbEntity
  8
0
100
AcDbBlockEnd
  0
BLOCK
  5
262
330
25C
100
AcDbEntity
  8
0
100
AcDbBlockBegin
  2
SE13
 70
     0
 10
0.0
 20
0.0
 30
0.0
  3
SE13
  1

  0
LINE
  5
25E
330
25C
100
AcDbEntity
  8
一般
  6
Continuous
 62
     7
100
AcDbLine
 10
-107.7780908542
 20
-119.240356111
 30
0.0
 11
-94.7780908542
 21
-119.240356111
 31
0.0
  0
LINE
  5
25F
330
25C
100
AcDbEntity
  8
一般
  6
Continuous
 62
     7
100
AcDbLine
 10
-94.7780908542
 20
-119.240356111
 30
0.0
 11
-94.7780908542
 21
-120.7434689541
 31
0.0
  0
LINE
  5
260
330
25C
100
AcDbEntity
  8
一般
  6
Continuous
 62
     7
100
AcDbLine
 10
-94.7780908542
 20
-120.7434689541
 30
0.0
 11
-107.7780908542
 21
-120.7434689541
 31
0.0
  0
LINE
  5
261
330
25C
100
AcDbEntity
  8
一般
  6
Continuous
 62
     7
100
AcDbLine
 10
-107.7780908542
 20
-120.7434689541
 30
0.0
 11
-107.7780908542
 21
-119.240356111
 31
0.0
  0
ENDBLK
  5
263
330
25C
100
AcDbEntity
  8
0
100
AcDbBlockEnd
  0
BLOCK
  5
269
330
268
100
AcDbEntity
  8
0
100
AcDbBlockBegin
  2
_Oblique
 70
     0
 10
0.0
 20
0.0
 30
0.0
  3
_Oblique
  1

  0
LINE
  5
26B
330
268
100
AcDbEntity
  8
0
  6
ByBlock
 62
     0
370
    -2
100
AcDbLine
 10
-0.5
 20
-0.5
 30
0.0
 11
0.5
 21
0.5
 31
0.0
  0
ENDBLK
  5
26A
330
268
100
AcDbEntity
  8
0
100
AcDbBlockEnd
  0
BLOCK
  5
26D
330
26C
100
AcDbEntity
  8
0
100
AcDbBlockBegin
  2
_Dot
 70
     0
 10
0.0
 20
0.0
 30
0.0
  3
_Dot
  1

  0
LWPOLYLINE
  5
26F
330
26C
100
AcDbEntity
  8
0
  6
ByBlock
 62
     0
100
AcDbPolyline
 90
        2
 70
     1
 43
0.5
 10
-0.25
 20
0.0
 42
1.0
 10
0.25
 20
0.0
 42
1.0
  0
LINE
  5
270
330
26C
100
AcDbEntity
  8
0
  6
ByBlock
 62
     0
370
    -2
100
AcDbLine
 10
-0.5
 20
0.0
 30
0.0
 11
-1.0
 21
0.0
 31
0.0
  0
ENDBLK
  5
26E
330
26C
100
AcDbEntity
  8
0
100
AcDbBlockEnd
  0
BLOCK
  5
274
330
271
100
AcDbEntity
  8
0
100
AcDbBlockBegin
  2
_SE_FILLED
 70
     0
 10
0.0
 20
0.0
 30
0.0
  3
_SE_FILLED
  1

  0
SOLID
  5
272
330
271
100
AcDbEntity
  8
0
 62
     0
100
AcDbTrace
 10
0.0
 20
0.0
 30
0.0
 11
-1.0
 21
-0.1665
 31
0.0
 12
-1.0
 22
0.1665
 32
0.0
 13
0.0
 23
0.0
 33
0.0
  0
LINE
  5
273
330
271
100
AcDbEntity
  8
0
 62
     0
100
AcDbLine
 10
0.0
 20
0.0
 30
0.0
 11
-1.0
 21
0.0
 31
0.0
  0
ENDBLK
  5
275
330
271
100
AcDbEntity
  8
0
100
AcDbBlockEnd
  0
BLOCK
  5
280
330
279
100
AcDbEntity
  8
0
100
AcDbBlockBegin
  2
DMBLK51
 70
     0
 10
0.0
 20
0.0
 30
0.0
  3
DMBLK51
  1

  0
HATCH
  5
27A
330
279
100
AcDbEntity
  8
寸法
  6
Continuous
 62
     7
100
AcDbHatch
 10
0.0
 20
0.0
 30
0.0
210
0.0
220
0.0
230
1.0
  2
SOLID
 70
     1
 71
     0
 91
        1
 92
        1
 93
        3
 72
     1
 10
-182.7083338361762
 20
-40.79896066181414
 11
-182.1791671759046
 21
-43.97396062344365
 72
     1
 10
-182.1791671759046
 20
-43.97396062344365
 11
-181.650000515633
 21
-40.79896066181414
 72
     1
 10
-181.650000515633
 20
-40.79896066181414
 11
-182.7083338361762
 21
-40.79896066181414
 97
        0
 75
     0
 76
     1
 98
        0
  0
HATCH
  5
27B
330
279
100
AcDbEntity
  8
寸法
  6
Continuous
 62
     7
100
AcDbHatch
 10
0.0
 20
0.0
 30
0.0
210
0.0
220
0.0
230
1.0
  2
SOLID
 70
     1
 71
     0
 91
        1
 92
        1
 93
        3
 72
     1
 10
-182.7083338361762
 20
71.85104215674052
 11
-181.650000515633
 21
71.85104215674052
 72
     1
 10
-181.650000515633
 20
71.85104215674052
 11
-182.1791671759046
 21
75.02604211837003
 72
     1
 10
-182.1791671759046
 20
75.02604211837003
 11
-182.7083338361762
 21
71.85104215674052
 97
        0
 75
     0
 76
     1
 98
        0
  0
LINE
  5
27C
330
279
100
AcDbEntity
  8
寸法
  6
Continuous
 62
     7
100
AcDbLine
 10
-156.1172959704
 20
-43.9739606234
 30
0.0
 11
-183.808008333
 21
-43.9739606234
 31
0.0
  0
LINE
  5
27D
330
279
100
AcDbEntity
  8
寸法
  6
Continuous
 62
     7
100
AcDbLine
 10
-154.9652236862
 20
75.0260393766
 30
0.0
 11
-183.808008333
 21
75.0260393766
 31
0.0
  0
LINE
  5
27E
330
279
100
AcDbEntity
  8
寸法
  6
Continuous
 62
     7
100
AcDbLine
 10
-182.1791671759
 20
-43.9739606234
 30
0.0
 11
-182.1791671759
 21
75.0260421184
 31
0.0
  0
TEXT
  5
27F
330
279
100
AcDbEntity
  8
寸法
  6
Continuous
 62
     7
100
AcDbText
 10
-182.9935877488
 20
11.7018050138
 30
0.0
 40
3.2576822917
  1
119
 50
90.0
  7
SEACAD_Arial
 11
-186.2512700405
 21
11.7018050138
 31
0.0
100
AcDbText
 73
     3
  0
ENDBLK
  5
281
330
279
100
AcDbEntity
  8
0
100
AcDbBlockEnd
  0
BLOCK
  5
28A
330
283
100
AcDbEntity
  8
0
100
AcDbBlockBegin
  2
DMBLK52
 70
     0
 10
0.0
 20
0.0
 30
0.0
  3
DMBLK52
  1

  0
HATCH
  5
284
330
283
100
AcDbEntity
  8
寸法
  6
Continuous
 62
     7
100
AcDbHatch
 10
0.0
 20
0.0
 30
0.0
210
0.0
220
0.0
230
1.0
  2
SOLID
 70
     1
 71
     0
 91
        1
 92
        1
 93
        3
 72
     1
 10
190.0407121151158
 20
-34.62275883988792
 11
188.9823787945726
 21
-34.62275883988792
 72
     1
 10
188.9823787945726
 20
-34.62275883988792
 11
189.5115454548442
 21
-37.79775880151743
 72
     1
 10
189.5115454548442
 20
-37.79775880151743
 11
190.0407121151158
 21
-34.62275883988792
 97
        0
 75
     0
 76
     1
 98
        0
  0
HATCH
  5
285
330
283
100
AcDbEntity
  8
寸法
  6
Continuous
 62
     7
100
AcDbHatch
 10
0.0
 20
0.0
 30
0.0
210
0.0
220
0.0
230
1.0
  2
SOLID
 70
     1
 71
     0
 91
        1
 92
        1
 93
        3
 72
     1
 10
190.0407121151158
 20
57.03469670503085
 11
189.5115454548442
 21
60.20969666666036
 72
     1
 10
189.5115454548442
 20
60.20969666666036
 11
188.9823787945726
 21
57.03469670503085
 72
     1
 10
188.9823787945726
 20
57.03469670503085
 11
190.0407121151158
 21
57.03469670503085
 97
        0
 75
     0
 76
     1
 98
        0
  0
LINE
  5
286
330
283
100
AcDbEntity
  8
寸法
  6
Continuous
 62
     7
100
AcDbLine
 10
178.1403863437
 20
-37.7977588015
 30
0.0
 11
191.1403866119
 21
-37.7977588015
 31
0.0
  0
LINE
  5
287
330
283
100
AcDbEntity
  8
寸法
  6
Continuous
 62
     7
100
AcDbLine
 10
178.1403863437
 20
60.2096964255
 30
0.0
 11
191.1403866119
 21
60.2096964255
 31
0.0
  0
LINE
  5
288
330
283
100
AcDbEntity
  8
寸法
  6
Continuous
 62
     7
100
AcDbLine
 10
189.5115454548
 20
-37.7977588015
 30
0.0
 11
189.5115454548
 21
60.2096966667
 31
0.0
  0
TEXT
  5
289
330
283
100
AcDbEntity
  8
寸法
  6
Continuous
 62
     7
100
AcDbText
 10
188.6971248819
 20
8.6564784434
 30
0.0
 40
3.2576822917
  1
98
 50
90.0
  7
SEACAD_Arial
 11
185.4394425903
 21
8.6564784434
 31
0.0
100
AcDbText
 73
     3
  0
ENDBLK
  5
28B
330
283
100
AcDbEntity
  8
0
100
AcDbBlockEnd
  0
BLOCK
  5
294
330
28D
100
AcDbEntity
  8
0
100
AcDbBlockBegin
  2
DMBLK53
 70
     0
 10
0.0
 20
0.0
 30
0.0
  3
DMBLK53
  1

  0
HATCH
  5
28E
330
28D
100
AcDbEntity
  8
寸法
  6
Continuous
 62
     7
100
AcDbHatch
 10
0.0
 20
0.0
 30
0.0
210
0.0
220
0.0
230
1.0
  2
SOLID
 70
     1
 71
     0
 91
        1
 92
        1
 93
        3
 72
     1
 10
-79.66047213342551
 20
100.3753428971395
 11
-82.83547209505502
 21
99.8461762368679
 72
     1
 10
-82.83547209505502
 20
99.8461762368679
 11
-79.66047213342551
 21
99.31700957659632
 72
     1
 10
-79.66047213342551
 20
99.31700957659632
 11
-79.66047213342551
 21
100.3753428971395
 97
        0
 75
     0
 76
     1
 98
        0
  0
HATCH
  5
28F
330
28D
100
AcDbEntity
  8
寸法
  6
Continuous
 62
     7
100
AcDbHatch
 10
0.0
 20
0.0
 30
0.0
210
0.0
220
0.0
230
1.0
  2
SOLID
 70
     1
 71
     0
 91
        1
 92
        1
 93
        3
 72
     1
 10
-155.0104720566842
 20
100.3753428971395
 11
-155.0104720566842
 21
99.31700957659632
 72
     1
 10
-155.0104720566842
 20
99.31700957659632
 11
-151.8354720950547
 21
99.8461762368679
 72
     1
 10
-151.8354720950547
 20
99.8461762368679
 11
-155.0104720566842
 21
100.3753428971395
 97
        0
 75
     0
 76
     1
 98
        0
  0
LINE
  5
290
330
28D
100
AcDbEntity
  8
寸法
  6
Continuous
 62
     7
100
AcDbLine
 10
-82.8354720951
 20
84.6288411571
 30
0.0
 11
-82.8354720951
 21
101.4750173939
 31
0.0
  0
LINE
  5
291
330
28D
100
AcDbEntity
  8
寸法
  6
Continuous
 62
     7
100
AcDbLine
 10
-151.8354720951
 20
84.6288411571
 30
0.0
 11
-151.8354720951
 21
101.4750173939
 31
0.0
  0
LINE
  5
292
330
28D
100
AcDbEntity
  8
寸法
  6
Continuous
 62
     7
100
AcDbLine
 10
-76.4854721718
 20
99.8461762369
 30
0.0
 11
-158.1854735494
 21
99.8461762369
 31
0.0
  0
TEXT
  5
293
330
28D
100
AcDbEntity
  8
寸法
  6
Continuous
 62
     7
100
AcDbText
 10
-119.8849617199
 20
100.6605968098
 30
0.0
 40
3.2576822917
  1
69
  7
SEACAD_Arial
 11
-119.8849617199
 21
103.9182791015
 31
0.0
100
AcDbText
 73
     3
  0
ENDBLK
  5
295
330
28D
100
AcDbEntity
  8
0
100
AcDbBlockEnd
  0
BLOCK
  5
2A0
330
296
100
AcDbEntity
  8
0
100
AcDbBlockBegin
  2
SE14
 70
     0
 10
0.0
 20
0.0
 30
0.0
  3
SE14
  1

  0
INSERT
  5
299
330
296
100
AcDbEntity
  8
一般
100
AcDbBlockReference
  2
SE15
 10
0.0
 20
0.0
 30
0.0
  0
ENDBLK
  5
2A1
330
296
100
AcDbEntity
  8
0
100
AcDbBlockEnd
  0
BLOCK
  5
29E
330
298
100
AcDbEntity
  8
0
100
AcDbBlockBegin
  2
SE15
 70
     0
 10
0.0
 20
0.0
 30
0.0
  3
SE15
  1

  0
LINE
  5
29A
330
298
100
AcDbEntity
  8
一般
  6
Continuous
 62
     7
100
AcDbLine
 10
-139.4085166544
 20
63.0
 30
0.0
 11
-96.4085166544
 21
63.0
 31
0.0
  0
LINE
  5
29B
330
298
100
AcDbEntity
  8
一般
  6
Continuous
 62
     7
100
AcDbLine
 10
-96.4085166544
 20
63.0
 30
0.0
 11
-96.4085166544
 21
-30.0
 31
0.0
  0
LINE
  5
29C
330
298
100
AcDbEntity
  8
一般
  6
Continuous
 62
     7
100
AcDbLine
 10
-96.4085166544
 20
-30.0
 30
0.0
 11
-139.4085166544
 21
-30.0
 31
0.0
  0
LINE
  5
29D
330
298
100
AcDbEntity
  8
一般
  6
Continuous
 62
     7
100
AcDbLine
 10
-139.4085166544
 20
-30.0
 30
0.0
 11
-139.4085166544
 21
63.0
 31
0.0
  0
ENDBLK
  5
29F
330
298
100
AcDbEntity
  8
0
100
AcDbBlockEnd
  0
BLOCK
  5
2A5
330
2A2
100
AcDbEntity
  8
0
100
AcDbBlockBegin
  2
グループ-6
 70
     0
 10
0.0
 20
0.0
 30
0.0
  3
グループ-6
  1

  0
CIRCLE
  5
2A3
330
2A2
100
AcDbEntity
  8
一般
  6
Continuous
 62
     7
100
AcDbCircle
 10
12.25
 20
12.25
 30
0.0
 40
12.24999999999997
  0
CIRCLE
  5
2A4
330
2A2
100
AcDbEntity
  8
一般
  6
Continuous
 62
     7
100
AcDbCircle
 10
12.25
 20
12.25
 30
0.0
 40
11.49999999999997
  0
ENDBLK
  5
2A6
330
2A2
100
AcDbEntity
  8
0
100
AcDbBlockEnd
  0
BLOCK
  5
2B0
330
2A9
100
AcDbEntity
  8
0
100
AcDbBlockBegin
  2
DMBLK54
 70
     0
 10
0.0
 20
0.0
 30
0.0
  3
DMBLK54
  1

  0
HATCH
  5
2AA
330
2A9
100
AcDbEntity
  8
寸法
  6
Continuous
 62
     7
100
AcDbHatch
 10
0.0
 20
0.0
 30
0.0
210
0.0
220
0.0
230
1.0
  2
SOLID
 70
     1
 71
     0
 91
        1
 92
        1
 93
        3
 72
     1
 10
-168.7083334040425
 20
35.35103941492684
 11
-167.6500000834993
 21
35.35103941492684
 72
     1
 10
-167.6500000834993
 20
35.35103941492684
 11
-168.1791667437709
 21
38.52603937655635
 72
     1
 10
-168.1791667437709
 20
38.52603937655635
 11
-168.7083334040425
 21
35.35103941492684
 97
        0
 75
     0
 76
     1
 98
        0
  0
HATCH
  5
2AB
330
2A9
100
AcDbEntity
  8
寸法
  6
Continuous
 62
     7
100
AcDbHatch
 10
0.0
 20
0.0
 30
0.0
210
0.0
220
0.0
230
1.0
  2
SOLID
 70
     1
 71
     0
 91
        1
 92
        1
 93
        3
 72
     1
 10
-168.7083334040425
 20
78.20103933818592
 11
-168.1791667437709
 21
75.02603937655641
 72
     1
 10
-168.1791667437709
 20
75.02603937655641
 11
-167.6500000834993
 21
78.20103933818592
 72
     1
 10
-167.6500000834993
 20
78.20103933818592
 11
-168.7083334040425
 21
78.20103933818592
 97
        0
 75
     0
 76
     1
 98
        0
  0
LINE
  5
2AC
330
2A9
100
AcDbEntity
  8
寸法
  6
Continuous
 62
     7
100
AcDbLine
 10
-156.1172959704
 20
38.5260393766
 30
0.0
 11
-169.8080079008
 21
38.5260393766
 31
0.0
  0
LINE
  5
2AD
330
2A9
100
AcDbEntity
  8
寸法
  6
Continuous
 62
     7
100
AcDbLine
 10
-154.9652236862
 20
75.0260393766
 30
0.0
 11
-169.8080079008
 21
75.0260393766
 31
0.0
  0
LINE
  5
2AE
330
2A9
100
AcDbEntity
  8
寸法
  6
Continuous
 62
     7
100
AcDbLine
 10
-168.1791667438
 20
32.1760394533
 30
0.0
 11
-168.1791667438
 21
81.3760382977
 31
0.0
  0
TEXT
  5
2AF
330
2A9
100
AcDbEntity
  8
寸法
  6
Continuous
 62
     7
100
AcDbText
 10
-168.9935873167
 20
52.3144307524
 30
0.0
 40
3.2576822917
  1
36.5
 50
90.0
  7
SEACAD_Arial
 11
-172.2512696084
 21
52.3144307524
 31
0.0
100
AcDbText
 73
     3
  0
ENDBLK
  5
2B1
330
2A9
100
AcDbEntity
  8
0
100
AcDbBlockEnd
  0
BLOCK
  5
2B5
330
2B2
100
AcDbEntity
  8
0
100
AcDbBlockBegin
  2
グループ-7
 70
     0
 10
0.0
 20
0.0
 30
0.0
  3
グループ-7
  1

  0
CIRCLE
  5
2B3
330
2B2
100
AcDbEntity
  8
一般
  6
Continuous
 62
     7
100
AcDbCircle
 10
2.0
 20
3.0
 30
0.0
 40
1.999999999999971
  0
LINE
  5
2B4
330
2B2
100
AcDbEntity
  8
一般
  6
Continuous
 62
     7
100
AcDbLine
 10
0.238241245
 20
0.0
 30
0.0
 11
3.7741396299
 21
6.124355653
 31
0.0
  0
ENDBLK
  5
2B6
330
2B2
100
AcDbEntity
  8
0
100
AcDbBlockEnd
  0
BLOCK
  5
2C1
330
2B8
100
AcDbEntity
  8
0
100
AcDbBlockBegin
  2
グループ-8
 70
     0
 10
0.0
 20
0.0
 30
0.0
  3
グループ-8
  1

  0
LINE
  5
2B9
330
2B8
100
AcDbEntity
  8
一般
  6
Continuous
 62
     7
100
AcDbLine
 10
0.0
 20
119.0
 30
0.0
 11
7.0
 21
119.0
 31
0.0
  0
LINE
  5
2BA
330
2B8
100
AcDbEntity
  8
一般
  6
Continuous
 62
     7
100
AcDbLine
 10
7.0
 20
119.0
 30
0.0
 11
7.0
 21
0.0
 31
0.0
  0
LINE
  5
2BB
330
2B8
100
AcDbEntity
  8
一般
  6
Continuous
 62
     7
100
AcDbLine
 10
7.0
 20
0.0
 30
0.0
 11
0.0
 21
0.0
 31
0.0
  0
LINE
  5
2BC
330
2B8
100
AcDbEntity
  8
一般
  6
Continuous
 62
     7
100
AcDbLine
 10
0.0
 20
0.0
 30
0.0
 11
0.0
 21
119.0
 31
0.0
  0
LINE
  5
2BD
330
2B8
100
AcDbEntity
  8
一般
  6
Continuous
 62
     7
100
AcDbLine
 10
7.1542825614
 20
119.0
 30
0.0
 11
9.1542825614
 21
119.0
 31
0.0
  0
LINE
  5
2BE
330
2B8
100
AcDbEntity
  8
一般
  6
Continuous
 62
     7
100
AcDbLine
 10
9.1542825614
 20
119.0
 30
0.0
 11
9.1542825614
 21
0.0
 31
0.0
  0
LINE
  5
2BF
330
2B8
100
AcDbEntity
  8
一般
  6
Continuous
 62
     7
100
AcDbLine
 10
9.1542825614
 20
0.0
 30
0.0
 11
7.1542825614
 21
0.0
 31
0.0
  0
LINE
  5
2C0
330
2B8
100
AcDbEntity
  8
一般
  6
Continuous
 62
     7
100
AcDbLine
 10
7.1542825614
 20
0.0
 30
0.0
 11
7.1542825614
 21
119.0
 31
0.0
  0
ENDBLK
  5
2C2
330
2B8
100
AcDbEntity
  8
0
100
AcDbBlockEnd
  0
BLOCK
  5
2CE
330
2C4
100
AcDbEntity
  8
0
100
AcDbBlockBegin
  2
SE16
 70
     0
 10
0.0
 20
0.0
 30
0.0
  3
SE16
  1

  0
INSERT
  5
2C7
330
2C4
100
AcDbEntity
  8
一般
100
AcDbBlockReference
  2
SE17
 10
0.0
 20
0.0
 30
0.0
  0
ENDBLK
  5
2CF
330
2C4
100
AcDbEntity
  8
0
100
AcDbBlockEnd
  0
BLOCK
  5
2CC
330
2C6
100
AcDbEntity
  8
0
100
AcDbBlockBegin
  2
SE17
 70
     0
 10
0.0
 20
0.0
 30
0.0
  3
SE17
  1

  0
LINE
  5
2C8
330
2C6
100
AcDbEntity
  8
一般
  6
Continuous
 62
     7
100
AcDbLine
 10
38.2411952897
 20
-3.9909195997
 30
0.0
 11
38.7411952897
 21
-3.9909195997
 31
0.0
  0
LINE
  5
2C9
330
2C6
100
AcDbEntity
  8
一般
  6
Continuous
 62
     7
100
AcDbLine
 10
38.7411952897
 20
-3.9909195997
 30
0.0
 11
38.7411952897
 21
-13.9909195997
 31
0.0
  0
LINE
  5
2CA
330
2C6
100
AcDbEntity
  8
一般
  6
Continuous
 62
     7
100
AcDbLine
 10
38.7411952897
 20
-13.9909195997
 30
0.0
 11
38.2411952897
 21
-13.9909195997
 31
0.0
  0
LINE
  5
2CB
330
2C6
100
AcDbEntity
  8
一般
  6
Continuous
 62
     7
100
AcDbLine
 10
38.2411952897
 20
-13.9909195997
 30
0.0
 11
38.2411952897
 21
-3.9909195997
 31
0.0
  0
ENDBLK
  5
2CD
330
2C6
100
AcDbEntity
  8
0
100
AcDbBlockEnd
  0
BLOCK
  5
2D9
330
2D0
100
AcDbEntity
  8
0
100
AcDbBlockBegin
  2
グループ-9
 70
     0
 10
0.0
 20
0.0
 30
0.0
  3
グループ-9
  1

  0
LINE
  5
2D1
330
2D0
100
AcDbEntity
  8
一般
  6
Continuous
 62
     7
100
AcDbLine
 10
69.0
 20
9.1542825614
 30
0.0
 11
69.0
 21
2.1542825614
 31
0.0
  0
LINE
  5
2D2
330
2D0
100
AcDbEntity
  8
一般
  6
Continuous
 62
     7
100
AcDbLine
 10
69.0
 20
2.1542825614
 30
0.0
 11
0.0
 21
2.1542825614
 31
0.0
  0
LINE
  5
2D3
330
2D0
100
AcDbEntity
  8
一般
  6
Continuous
 62
     7
100
AcDbLine
 10
0.0
 20
2.1542825614
 30
0.0
 11
0.0
 21
9.1542825614
 31
0.0
  0
LINE
  5
2D4
330
2D0
100
AcDbEntity
  8
一般
  6
Continuous
 62
     7
100
AcDbLine
 10
0.0
 20
9.1542825614
 30
0.0
 11
69.0
 21
9.1542825614
 31
0.0
  0
LINE
  5
2D5
330
2D0
100
AcDbEntity
  8
一般
  6
Continuous
 62
     7
100
AcDbLine
 10
69.0
 20
2.0
 30
0.0
 11
69.0
 21
0.0
 31
0.0
  0
LINE
  5
2D6
330
2D0
100
AcDbEntity
  8
一般
  6
Continuous
 62
     7
100
AcDbLine
 10
69.0
 20
0.0
 30
0.0
 11
0.0
 21
0.0
 31
0.0
  0
LINE
  5
2D7
330
2D0
100
AcDbEntity
  8
一般
  6
Continuous
 62
     7
100
AcDbLine
 10
0.0
 20
0.0
 30
0.0
 11
0.0
 21
2.0
 31
0.0
  0
LINE
  5
2D8
330
2D0
100
AcDbEntity
  8
一般
  6
Continuous
 62
     7
100
AcDbLine
 10
0.0
 20
2.0
 30
0.0
 11
69.0
 21
2.0
 31
0.0
  0
ENDBLK
  5
2DA
330
2D0
100
AcDbEntity
  8
0
100
AcDbBlockEnd
  0
BLOCK
  5
2E4
330
2DD
100
AcDbEntity
  8
0
100
AcDbBlockBegin
  2
DMBLK55
 70
     0
 10
0.0
 20
0.0
 30
0.0
  3
DMBLK55
  1

  0
HATCH
  5
2DE
330
2DD
100
AcDbEntity
  8
寸法
  6
Continuous
 62
     7
100
AcDbHatch
 10
0.0
 20
0.0
 30
0.0
210
0.0
220
0.0
230
1.0
  2
SOLID
 70
     1
 71
     0
 91
        1
 92
        1
 93
        3
 72
     1
 10
-168.7083330762169
 20
-5.789816256386644
 11
-168.1791664159454
 21
-8.964816218016153
 72
     1
 10
-168.1791664159454
 20
-8.964816218016153
 11
-167.6499997556738
 21
-5.789816256386644
 72
     1
 10
-167.6499997556738
 20
-5.789816256386644
 11
-168.7083330762169
 21
-5.789816256386644
 97
        0
 75
     0
 76
     1
 98
        0
  0
HATCH
  5
2DF
330
2DD
100
AcDbEntity
  8
寸法
  6
Continuous
 62
     7
100
AcDbHatch
 10
0.0
 20
0.0
 30
0.0
210
0.0
220
0.0
230
1.0
  2
SOLID
 70
     1
 71
     0
 91
        1
 92
        1
 93
        3
 72
     1
 10
-168.7083330762169
 20
-47.13981617964567
 11
-167.6499997556738
 21
-47.13981617964567
 72
     1
 10
-167.6499997556738
 20
-47.13981617964567
 11
-168.1791664159454
 21
-43.96481621801616
 72
     1
 10
-168.1791664159454
 20
-43.96481621801616
 11
-168.7083330762169
 21
-47.13981617964567
 97
        0
 75
     0
 76
     1
 98
        0
  0
LINE
  5
2E0
330
2DD
100
AcDbEntity
  8
寸法
  6
Continuous
 62
     7
100
AcDbLine
 10
-158.1172959704
 20
-8.964816218
 30
0.0
 11
-169.808007573
 21
-8.964816218
 31
0.0
  0
LINE
  5
2E1
330
2DD
100
AcDbEntity
  8
寸法
  6
Continuous
 62
     7
100
AcDbLine
 10
-158.1172959704
 20
-43.964816218
 30
0.0
 11
-169.808007573
 21
-43.964816218
 31
0.0
  0
LINE
  5
2E2
330
2DD
100
AcDbEntity
  8
寸法
  6
Continuous
 62
     7
100
AcDbLine
 10
-168.1791664159
 20
-2.6148162948
 30
0.0
 11
-168.1791664159
 21
-50.3148158246
 31
0.0
  0
TEXT
  5
2E3
330
2DD
100
AcDbEntity
  8
寸法
  6
Continuous
 62
     7
100
AcDbText
 10
-168.9935869889
 20
-29.0143067817
 30
0.0
 40
3.2576822917
  1
35
 50
90.0
  7
SEACAD_Arial
 11
-172.2512692805
 21
-29.0143067817
 31
0.0
100
AcDbText
 73
     3
  0
ENDBLK
  5
2E5
330
2DD
100
AcDbEntity
  8
0
100
AcDbBlockEnd
  0
BLOCK
  5
2EE
330
2E7
100
AcDbEntity
  8
0
100
AcDbBlockBegin
  2
DMBLK56
 70
     0
 10
0.0
 20
0.0
 30
0.0
  3
DMBLK56
  1

  0
HATCH
  5
2E8
330
2E7
100
AcDbEntity
  8
寸法
  6
Continuous
 62
     7
100
AcDbHatch
 10
0.0
 20
0.0
 30
0.0
210
0.0
220
0.0
230
1.0
  2
SOLID
 70
     1
 71
     0
 91
        1
 92
        1
 93
        3
 72
     1
 10
-59.11319171865796
 20
58.82500003837055
 11
-59.64235837892954
 21
62.00000000000006
 72
     1
 10
-59.64235837892954
 20
62.00000000000006
 11
-60.17152503920113
 21
58.82500003837055
 72
     1
 10
-60.17152503920113
 20
58.82500003837055
 11
-59.11319171865796
 21
58.82500003837055
 97
        0
 75
     0
 76
     1
 98
        0
  0
HATCH
  5
2E9
330
2E7
100
AcDbEntity
  8
寸法
  6
Continuous
 62
     7
100
AcDbHatch
 10
0.0
 20
0.0
 30
0.0
210
0.0
220
0.0
230
1.0
  2
SOLID
 70
     1
 71
     0
 91
        1
 92
        1
 93
        3
 72
     1
 10
-59.11319171865796
 20
78.20103933818592
 11
-60.17152503920113
 21
78.20103933818592
 72
     1
 10
-60.17152503920113
 20
78.20103933818592
 11
-59.64235837892954
 21
75.02603937655641
 72
     1
 10
-59.64235837892954
 20
75.02603937655641
 11
-59.11319171865796
 21
78.20103933818592
 97
        0
 75
     0
 76
     1
 98
        0
  0
LINE
  5
2EA
330
2E7
100
AcDbEntity
  8
寸法
  6
Continuous
 62
     7
100
AcDbLine
 10
-77.9616439701
 20
62.0
 30
0.0
 11
-58.0135172219
 21
62.0
 31
0.0
  0
LINE
  5
2EB
330
2E7
100
AcDbEntity
  8
寸法
  6
Continuous
 62
     7
100
AcDbLine
 10
-77.9616439701
 20
75.0260393766
 30
0.0
 11
-58.0135172219
 21
75.0260393766
 31
0.0
  0
LINE
  5
2EC
330
2E7
100
AcDbEntity
  8
寸法
  6
Continuous
 62
     7
100
AcDbLine
 10
-59.6423583789
 20
55.6500000767
 30
0.0
 11
-59.6423583789
 21
81.376039505
 31
0.0
  0
TEXT
  5
2ED
330
2E7
100
AcDbEntity
  8
寸法
  6
Continuous
 62
     7
100
AcDbText
 10
-60.4567789518
 20
65.9635290689
 30
0.0
 40
3.2576822917
  1
13
 50
90.0
  7
SEACAD_Arial
 11
-63.7144612435
 21
65.9635290689
 31
0.0
100
AcDbText
 73
     3
  0
ENDBLK
  5
2EF
330
2E7
100
AcDbEntity
  8
0
100
AcDbBlockEnd
  0
BLOCK
  5
2F8
330
2F1
100
AcDbEntity
  8
0
100
AcDbBlockBegin
  2
DMBLK57
 70
     0
 10
0.0
 20
0.0
 30
0.0
  3
DMBLK57
  1

  0
HATCH
  5
2F2
330
2F1
100
AcDbEntity
  8
寸法
  6
Continuous
 62
     7
100
AcDbHatch
 10
0.0
 20
0.0
 30
0.0
210
0.0
220
0.0
230
1.0
  2
SOLID
 70
     1
 71
     0
 91
        1
 92
        1
 93
        3
 72
     1
 10
-59.11319171865796
 20
-27.82500003837049
 11
-60.17152503920113
 21
-27.82500003837049
 72
     1
 10
-60.17152503920113
 20
-27.82500003837049
 11
-59.64235837892954
 21
-31.0
 72
     1
 10
-59.64235837892954
 20
-31.0
 11
-59.11319171865796
 21
-27.82500003837049
 97
        0
 75
     0
 76
     1
 98
        0
  0
HATCH
  5
2F3
330
2F1
100
AcDbEntity
  8
寸法
  6
Continuous
 62
     7
100
AcDbHatch
 10
0.0
 20
0.0
 30
0.0
210
0.0
220
0.0
230
1.0
  2
SOLID
 70
     1
 71
     0
 91
        1
 92
        1
 93
        3
 72
     1
 10
-59.11319171865796
 20
58.82500224374235
 11
-59.64235837892954
 21
62.00000220537186
 72
     1
 10
-59.64235837892954
 20
62.00000220537186
 11
-60.17152503920113
 21
58.82500224374235
 72
     1
 10
-60.17152503920113
 20
58.82500224374235
 11
-59.11319171865796
 21
58.82500224374235
 97
        0
 75
     0
 76
     1
 98
        0
  0
LINE
  5
2F4
330
2F1
100
AcDbEntity
  8
寸法
  6
Continuous
 62
     7
100
AcDbLine
 10
-77.9616439701
 20
-31.0
 30
0.0
 11
-58.0135172219
 21
-31.0
 31
0.0
  0
LINE
  5
2F5
330
2F1
100
AcDbEntity
  8
寸法
  6
Continuous
 62
     7
100
AcDbLine
 10
-77.9616439701
 20
62.0
 30
0.0
 11
-58.0135172219
 21
62.0
 31
0.0
  0
LINE
  5
2F6
330
2F1
100
AcDbEntity
  8
寸法
  6
Continuous
 62
     7
100
AcDbLine
 10
-59.6423583789
 20
-31.0
 30
0.0
 11
-59.6423583789
 21
62.0000022054
 31
0.0
  0
TEXT
  5
2F7
330
2F1
100
AcDbEntity
  8
寸法
  6
Continuous
 62
     7
100
AcDbText
 10
-60.4567789518
 20
12.9505106136
 30
0.0
 40
3.2576822917
  1
93
 50
90.0
  7
SEACAD_Arial
 11
-63.7144612435
 21
12.9505106136
 31
0.0
100
AcDbText
 73
     3
  0
ENDBLK
  5
2F9
330
2F1
100
AcDbEntity
  8
0
100
AcDbBlockEnd
  0
BLOCK
  5
302
330
2FB
100
AcDbEntity
  8
0
100
AcDbBlockBegin
  2
DMBLK58
 70
     0
 10
0.0
 20
0.0
 30
0.0
  3
DMBLK58
  1

  0
HATCH
  5
2FC
330
2FB
100
AcDbEntity
  8
寸法
  6
Continuous
 62
     7
100
AcDbHatch
 10
0.0
 20
0.0
 30
0.0
210
0.0
220
0.0
230
1.0
  2
SOLID
 70
     1
 71
     0
 91
        1
 92
        1
 93
        3
 72
     1
 10
-99.01047205668453
 20
-64.83894814516361
 11
-95.83547209505502
 21
-64.30978148489203
 72
     1
 10
-95.83547209505502
 20
-64.30978148489203
 11
-99.01047205668453
 21
-63.78061482462044
 72
     1
 10
-99.01047205668453
 20
-63.78061482462044
 11
-99.01047205668453
 21
-64.83894814516361
 97
        0
 75
     0
 76
     1
 98
        0
  0
HATCH
  5
2FD
330
2FB
100
AcDbEntity
  8
寸法
  6
Continuous
 62
     7
100
AcDbHatch
 10
0.0
 20
0.0
 30
0.0
210
0.0
220
0.0
230
1.0
  2
SOLID
 70
     1
 71
     0
 91
        1
 92
        1
 93
        3
 72
     1
 10
-79.66047213342551
 20
-64.83894814516361
 11
-79.66047213342551
 21
-63.78061482462044
 72
     1
 10
-79.66047213342551
 20
-63.78061482462044
 11
-82.83547209505502
 21
-64.30978148489203
 72
     1
 10
-82.83547209505502
 20
-64.30978148489203
 11
-79.66047213342551
 21
-64.83894814516361
 97
        0
 75
     0
 76
     1
 98
        0
  0
LINE
  5
2FE
330
2FB
100
AcDbEntity
  8
寸法
  6
Continuous
 62
     7
100
AcDbLine
 10
-95.8354720951
 20
-55.9386228655
 30
0.0
 11
-95.8354720951
 21
-65.938622642
 31
0.0
  0
LINE
  5
2FF
330
2FB
100
AcDbEntity
  8
寸法
  6
Continuous
 62
     7
100
AcDbLine
 10
-82.8354720951
 20
-51.8198728655
 30
0.0
 11
-82.8354720951
 21
-65.938622642
 31
0.0
  0
LINE
  5
300
330
2FB
100
AcDbEntity
  8
寸法
  6
Continuous
 62
     7
100
AcDbLine
 10
-102.1854720183
 20
-64.3097814849
 30
0.0
 11
-76.4854723692
 21
-64.3097814849
 31
0.0
  0
TEXT
  5
301
330
2FB
100
AcDbEntity
  8
寸法
  6
Continuous
 62
     7
100
AcDbText
 10
-91.8849624501
 20
-63.495360912
 30
0.0
 40
3.2576822917
  1
13
  7
SEACAD_Arial
 11
-91.8849624501
 21
-60.2376786203
 31
0.0
100
AcDbText
 73
     3
  0
ENDBLK
  5
303
330
2FB
100
AcDbEntity
  8
0
100
AcDbBlockEnd
  0
BLOCK
  5
30C
330
305
100
AcDbEntity
  8
0
100
AcDbBlockBegin
  2
DMBLK59
 70
     0
 10
0.0
 20
0.0
 30
0.0
  3
DMBLK59
  1

  0
HATCH
  5
306
330
305
100
AcDbEntity
  8
寸法
  6
Continuous
 62
     7
100
AcDbHatch
 10
0.0
 20
0.0
 30
0.0
210
0.0
220
0.0
230
1.0
  2
SOLID
 70
     1
 71
     0
 91
        1
 92
        1
 93
        3
 72
     1
 10
-142.0061663468864
 20
-64.83894826378673
 11
-138.8311663852569
 21
-64.30978160351515
 72
     1
 10
-138.8311663852569
 20
-64.30978160351515
 11
-142.0061663468864
 21
-63.78061494324356
 72
     1
 10
-142.0061663468864
 20
-63.78061494324356
 11
-142.0061663468864
 21
-64.83894826378673
 97
        0
 75
     0
 76
     1
 98
        0
  0
HATCH
  5
307
330
305
100
AcDbEntity
  8
寸法
  6
Continuous
 62
     7
100
AcDbHatch
 10
0.0
 20
0.0
 30
0.0
210
0.0
220
0.0
230
1.0
  2
SOLID
 70
     1
 71
     0
 91
        1
 92
        1
 93
        3
 72
     1
 10
-92.6561664236275
 20
-64.83894826378673
 11
-92.6561664236275
 21
-63.78061494324356
 72
     1
 10
-92.6561664236275
 20
-63.78061494324356
 11
-95.831166385257
 21
-64.30978160351515
 72
     1
 10
-95.831166385257
 20
-64.30978160351515
 11
-92.6561664236275
 21
-64.83894826378673
 97
        0
 75
     0
 76
     1
 98
        0
  0
LINE
  5
308
330
305
100
AcDbEntity
  8
寸法
  6
Continuous
 62
     7
100
AcDbLine
 10
-138.8311663853
 20
-51.6288411571
 30
0.0
 11
-138.8311663853
 21
-65.9386227606
 31
0.0
  0
LINE
  5
309
330
305
100
AcDbEntity
  8
寸法
  6
Continuous
 62
     7
100
AcDbLine
 10
-95.8311663853
 20
-51.6288411571
 30
0.0
 11
-95.8311663853
 21
-65.9386227606
 31
0.0
  0
LINE
  5
30A
330
305
100
AcDbEntity
  8
寸法
  6
Continuous
 62
     7
100
AcDbLine
 10
-145.1811663085
 20
-64.3097816035
 30
0.0
 11
-89.4811654673
 21
-64.3097816035
 31
0.0
  0
TEXT
  5
30B
330
305
100
AcDbEntity
  8
寸法
  6
Continuous
 62
     7
100
AcDbText
 10
-119.8806561442
 20
-63.4953610306
 30
0.0
 40
3.2576822917
  1
43
  7
SEACAD_Arial
 11
-119.8806561442
 21
-60.2376787389
 31
0.0
100
AcDbText
 73
     3
  0
ENDBLK
  5
30D
330
305
100
AcDbEntity
  8
0
100
AcDbBlockEnd
  0
BLOCK
  5
316
330
30F
100
AcDbEntity
  8
0
100
AcDbBlockBegin
  2
DMBLK60
 70
     0
 10
0.0
 20
0.0
 30
0.0
  3
DMBLK60
  1

  0
HATCH
  5
310
330
30F
100
AcDbEntity
  8
寸法
  6
Continuous
 62
     7
100
AcDbHatch
 10
0.0
 20
0.0
 30
0.0
210
0.0
220
0.0
230
1.0
  2
SOLID
 70
     1
 71
     0
 91
        1
 92
        1
 93
        3
 72
     1
 10
-66.95928824921464
 20
-34.17499996162951
 11
-67.48845490948622
 21
-31.0
 72
     1
 10
-67.48845490948622
 20
-31.0
 11
-68.01762156975781
 21
-34.17499996162951
 72
     1
 10
-68.01762156975781
 20
-34.17499996162951
 11
-66.95928824921464
 21
-34.17499996162951
 97
        0
 75
     0
 76
     1
 98
        0
  0
HATCH
  5
311
330
30F
100
AcDbEntity
  8
寸法
  6
Continuous
 62
     7
100
AcDbHatch
 10
0.0
 20
0.0
 30
0.0
210
0.0
220
0.0
230
1.0
  2
SOLID
 70
     1
 71
     0
 91
        1
 92
        1
 93
        3
 72
     1
 10
-66.95928824921464
 20
-12.82500003837049
 11
-68.01762156975781
 21
-12.82500003837049
 72
     1
 10
-68.01762156975781
 20
-12.82500003837049
 11
-67.48845490948622
 21
-16.0
 72
     1
 10
-67.48845490948622
 20
-16.0
 11
-66.95928824921464
 21
-12.82500003837049
 97
        0
 75
     0
 76
     1
 98
        0
  0
LINE
  5
312
330
30F
100
AcDbEntity
  8
寸法
  6
Continuous
 62
     7
100
AcDbLine
 10
-77.6901704245
 20
-31.0
 30
0.0
 11
-65.5881402068
 21
-31.0
 31
0.0
  0
LINE
  5
313
330
30F
100
AcDbEntity
  8
寸法
  6
Continuous
 62
     7
100
AcDbLine
 10
-77.0006401107
 20
-16.0
 30
0.0
 11
-65.5881402068
 21
-16.0
 31
0.0
  0
LINE
  5
314
330
30F
100
AcDbEntity
  8
寸法
  6
Continuous
 62
     7
100
AcDbLine
 10
-67.4884549095
 20
-37.3499999233
 30
0.0
 11
-67.4884549095
 21
-9.6499999464
 31
0.0
  0
TEXT
  5
315
330
30F
100
AcDbEntity
  8
寸法
  6
Continuous
 62
     7
100
AcDbText
 10
-68.4386122446
 20
-26.4744057383
 30
0.0
 40
3.8006293403
  1
15
 50
90.0
  7
SEACAD_Arial
 11
-72.2392415848
 21
-26.4744057383
 31
0.0
100
AcDbText
 73
     3
  0
ENDBLK
  5
317
330
30F
100
AcDbEntity
  8
0
100
AcDbBlockEnd
  0
BLOCK
  5
322
330
318
100
AcDbEntity
  8
0
100
AcDbBlockBegin
  2
SE18
 70
     0
 10
0.0
 20
0.0
 30
0.0
  3
SE18
  1

  0
INSERT
  5
31B
330
318
100
AcDbEntity
  8
一般
100
AcDbBlockReference
  2
SE19
 10
0.0
 20
0.0
 30
0.0
  0
ENDBLK
  5
323
330
318
100
AcDbEntity
  8
0
100
AcDbBlockEnd
  0
BLOCK
  5
320
330
31A
100
AcDbEntity
  8
0
100
AcDbBlockBegin
  2
SE19
 70
     0
 10
0.0
 20
0.0
 30
0.0
  3
SE19
  1

  0
LINE
  5
31C
330
31A
100
AcDbEntity
  8
一般
  6
Continuous
 62
     7
100
AcDbLine
 10
-123.8311663853
 20
-3.0
 30
0.0
 11
-110.8311663853
 21
-3.0
 31
0.0
  0
LINE
  5
31D
330
31A
100
AcDbEntity
  8
一般
  6
Continuous
 62
     7
100
AcDbLine
 10
-110.8311663853
 20
-3.0
 30
0.0
 11
-110.8311663853
 21
-16.0
 31
0.0
  0
LINE
  5
31E
330
31A
100
AcDbEntity
  8
一般
  6
Continuous
 62
     7
100
AcDbLine
 10
-110.8311663853
 20
-16.0
 30
0.0
 11
-123.8311663853
 21
-16.0
 31
0.0
  0
LINE
  5
31F
330
31A
100
AcDbEntity
  8
一般
  6
Continuous
 62
     7
100
AcDbLine
 10
-123.8311663853
 20
-16.0
 30
0.0
 11
-123.8311663853
 21
-3.0
 31
0.0
  0
ENDBLK
  5
321
330
31A
100
AcDbEntity
  8
0
100
AcDbBlockEnd
  0
BLOCK
  5
32C
330
325
100
AcDbEntity
  8
0
100
AcDbBlockBegin
  2
DMBLK61
 70
     0
 10
0.0
 20
0.0
 30
0.0
  3
DMBLK61
  1

  0
HATCH
  5
326
330
325
100
AcDbEntity
  8
寸法
  6
Continuous
 62
     7
100
AcDbHatch
 10
0.0
 20
0.0
 30
0.0
210
0.0
220
0.0
230
1.0
  2
SOLID
 70
     1
 71
     0
 91
        1
 92
        1
 93
        3
 72
     1
 10
-66.95928788488426
 20
0.1749999616295099
 11
-68.01762120542743
 21
0.1749999616295099
 72
     1
 10
-68.01762120542743
 20
0.1749999616295099
 11
-67.48845454515585
 21
-3.0
 72
     1
 10
-67.48845454515585
 20
-3.0
 11
-66.95928788488426
 21
0.1749999616295099
 97
        0
 75
     0
 76
     1
 98
        0
  0
HATCH
  5
327
330
325
100
AcDbEntity
  8
寸法
  6
Continuous
 62
     7
100
AcDbHatch
 10
0.0
 20
0.0
 30
0.0
210
0.0
220
0.0
230
1.0
  2
SOLID
 70
     1
 71
     0
 91
        1
 92
        1
 93
        3
 72
     1
 10
-66.95928788488426
 20
-19.17499996162951
 11
-67.48845454515585
 21
-16.0
 72
     1
 10
-67.48845454515585
 20
-16.0
 11
-68.01762120542743
 21
-19.17499996162951
 72
     1
 10
-68.01762120542743
 20
-19.17499996162951
 11
-66.95928788488426
 21
-19.17499996162951
 97
        0
 75
     0
 76
     1
 98
        0
  0
LINE
  5
328
330
325
100
AcDbEntity
  8
寸法
  6
Continuous
 62
     7
100
AcDbLine
 10
-78.5881401107
 20
-3.0
 30
0.0
 11
-65.5881398425
 21
-3.0
 31
0.0
  0
LINE
  5
329
330
325
100
AcDbEntity
  8
寸法
  6
Continuous
 62
     7
100
AcDbLine
 10
-78.5881401107
 20
-16.0
 30
0.0
 11
-65.5881398425
 21
-16.0
 31
0.0
  0
LINE
  5
32A
330
325
100
AcDbEntity
  8
寸法
  6
Continuous
 62
     7
100
AcDbLine
 10
-67.4884545452
 20
3.3499999233
 30
0.0
 11
-67.4884545452
 21
-22.3499997258
 31
0.0
  0
TEXT
  5
32B
330
325
100
AcDbEntity
  8
寸法
  6
Continuous
 62
     7
100
AcDbText
 10
-68.4386118802
 20
-12.4744057048
 30
0.0
 40
3.8006293403
  1
13
 50
90.0
  7
SEACAD_Arial
 11
-72.2392412205
 21
-12.4744057048
 31
0.0
100
AcDbText
 73
     3
  0
ENDBLK
  5
32D
330
325
100
AcDbEntity
  8
0
100
AcDbBlockEnd
  0
BLOCK
  5
336
330
32F
100
AcDbEntity
  8
0
100
AcDbBlockBegin
  2
DMBLK62
 70
     0
 10
0.0
 20
0.0
 30
0.0
  3
DMBLK62
  1

  0
HATCH
  5
330
330
32F
100
AcDbEntity
  8
寸法
  6
Continuous
 62
     7
100
AcDbHatch
 10
0.0
 20
0.0
 30
0.0
210
0.0
220
0.0
230
1.0
  2
SOLID
 70
     1
 71
     0
 91
        1
 92
        1
 93
        3
 72
     1
 10
-114.6485582549288
 20
9.131879510507531
 11
-114.6485582549288
 21
8.073546189964361
 72
     1
 10
-114.6485582549288
 20
8.073546189964361
 11
-111.4735582932993
 21
8.602712850235946
 72
     1
 10
-111.4735582932993
 20
8.602712850235946
 11
-114.6485582549288
 21
9.131879510507531
 97
        0
 75
     0
 76
     1
 98
        0
  0
HATCH
  5
331
330
32F
100
AcDbEntity
  8
寸法
  6
Continuous
 62
     7
100
AcDbHatch
 10
0.0
 20
0.0
 30
0.0
210
0.0
220
0.0
230
1.0
  2
SOLID
 70
     1
 71
     0
 91
        1
 92
        1
 93
        3
 72
     1
 10
-93.29855833166982
 20
9.131879510507531
 11
-96.47355829329933
 21
8.602712850235946
 72
     1
 10
-96.47355829329933
 20
8.602712850235946
 11
-93.29855833166982
 21
8.073546189964361
 72
     1
 10
-93.29855833166982
 20
8.073546189964361
 11
-93.29855833166982
 21
9.131879510507531
 97
        0
 75
     0
 76
     1
 98
        0
  0
LINE
  5
332
330
32F
100
AcDbEntity
  8
寸法
  6
Continuous
 62
     7
100
AcDbLine
 10
-111.4735582933
 20
3.5030273368
 30
0.0
 11
-111.4735582933
 21
10.5030275529
 31
0.0
  0
LINE
  5
333
330
32F
100
AcDbEntity
  8
寸法
  6
Continuous
 62
     7
100
AcDbLine
 10
-96.4735582933
 20
3.5030273368
 30
0.0
 11
-96.4735582933
 21
10.5030275529
 31
0.0
  0
LINE
  5
334
330
32F
100
AcDbEntity
  8
寸法
  6
Continuous
 62
     7
100
AcDbLine
 10
-117.8235582166
 20
8.6027128502
 30
0.0
 11
-90.1235582397
 21
8.6027128502
 31
0.0
  0
TEXT
  5
335
330
32F
100
AcDbEntity
  8
寸法
  6
Continuous
 62
     7
100
AcDbText
 10
-106.9479640316
 20
9.5528701853
 30
0.0
 40
3.8006293403
  1
15
  7
SEACAD_Arial
 11
-106.9479640316
 21
13.3534995256
 31
0.0
100
AcDbText
 73
     3
  0
ENDBLK
  5
337
330
32F
100
AcDbEntity
  8
0
100
AcDbBlockEnd
  0
BLOCK
  5
341
330
338
100
AcDbEntity
  8
0
100
AcDbBlockBegin
  2
グループ-10
 70
     0
 10
0.0
 20
0.0
 30
0.0
  3
グループ-10
  1

  0
LINE
  5
339
330
338
100
AcDbEntity
  8
一般
  6
Continuous
 62
     7
100
AcDbLine
 10
0.0
 20
13.0
 30
0.0
 11
13.0
 21
13.0
 31
0.0
  0
LINE
  5
33A
330
338
100
AcDbEntity
  8
一般
  6
Continuous
 62
     7
100
AcDbLine
 10
13.0
 20
13.0
 30
0.0
 11
13.0
 21
0.0
 31
0.0
  0
LINE
  5
33B
330
338
100
AcDbEntity
  8
一般
  6
Continuous
 62
     7
100
AcDbLine
 10
13.0
 20
0.0
 30
0.0
 11
0.0
 21
0.0
 31
0.0
  0
LINE
  5
33C
330
338
100
AcDbEntity
  8
一般
  6
Continuous
 62
     7
100
AcDbLine
 10
0.0
 20
0.0
 30
0.0
 11
0.0
 21
13.0
 31
0.0
  0
LINE
  5
33D
330
338
100
AcDbEntity
  8
一般
  6
Continuous
 62
     7
100
AcDbLine
 10
5.0
 20
11.0
 30
0.0
 11
8.0
 21
11.0
 31
0.0
  0
LINE
  5
33E
330
338
100
AcDbEntity
  8
一般
  6
Continuous
 62
     7
100
AcDbLine
 10
8.0
 20
11.0
 30
0.0
 11
8.0
 21
9.0
 31
0.0
  0
LINE
  5
33F
330
338
100
AcDbEntity
  8
一般
  6
Continuous
 62
     7
100
AcDbLine
 10
8.0
 20
9.0
 30
0.0
 11
5.0
 21
9.0
 31
0.0
  0
LINE
  5
340
330
338
100
AcDbEntity
  8
一般
  6
Continuous
 62
     7
100
AcDbLine
 10
5.0
 20
9.0
 30
0.0
 11
5.0
 21
11.0
 31
0.0
  0
ENDBLK
  5
342
330
338
100
AcDbEntity
  8
0
100
AcDbBlockEnd
  0
BLOCK
  5
34C
330
345
100
AcDbEntity
  8
0
100
AcDbBlockBegin
  2
DMBLK63
 70
     0
 10
0.0
 20
0.0
 30
0.0
  3
DMBLK63
  1

  0
HATCH
  5
346
330
345
100
AcDbEntity
  8
寸法
  6
Continuous
 62
     7
100
AcDbHatch
 10
0.0
 20
0.0
 30
0.0
210
0.0
220
0.0
230
1.0
  2
SOLID
 70
     1
 71
     0
 91
        1
 92
        1
 93
        3
 72
     1
 10
-17.18518368005778
 20
4.40188534312324
 11
-20.36018364168729
 21
3.872718682851655
 72
     1
 10
-20.36018364168729
 20
3.872718682851655
 11
-17.18518368005778
 21
3.34355202258007
 72
     1
 10
-17.18518368005778
 20
3.34355202258007
 11
-17.18518368005778
 21
4.40188534312324
 97
        0
 75
     0
 76
     1
 98
        0
  0
HATCH
  5
347
330
345
100
AcDbEntity
  8
寸法
  6
Continuous
 62
     7
100
AcDbHatch
 10
0.0
 20
0.0
 30
0.0
210
0.0
220
0.0
230
1.0
  2
SOLID
 70
     1
 71
     0
 91
        1
 92
        1
 93
        3
 72
     1
 10
-36.5351836033168
 20
4.40188534312324
 11
-36.5351836033168
 21
3.34355202258007
 72
     1
 10
-36.5351836033168
 20
3.34355202258007
 11
-33.36018364168729
 21
3.872718682851655
 72
     1
 10
-33.36018364168729
 20
3.872718682851655
 11
-36.5351836033168
 21
4.40188534312324
 97
        0
 75
     0
 76
     1
 98
        0
  0
LINE
  5
348
330
345
100
AcDbEntity
  8
寸法
  6
Continuous
 62
     7
100
AcDbLine
 10
-20.3601836417
 20
-5.4931508867
 30
0.0
 11
-20.3601836417
 21
5.0943495216
 31
0.0
  0
LINE
  5
349
330
345
100
AcDbEntity
  8
寸法
  6
Continuous
 62
     7
100
AcDbLine
 10
-33.3601836417
 20
-3.9056508867
 30
0.0
 11
-33.3601836417
 21
5.0943495216
 31
0.0
  0
LINE
  5
34A
330
345
100
AcDbEntity
  8
寸法
  6
Continuous
 62
     7
100
AcDbLine
 10
-14.0101837184
 20
3.8727186829
 30
0.0
 11
-39.7101833675
 21
3.8727186829
 31
0.0
  0
TEXT
  5
34B
330
345
100
AcDbEntity
  8
寸法
  6
Continuous
 62
     7
100
AcDbText
 10
-28.7723016426
 20
4.4835341125
 30
0.0
 40
2.4432617188
  1
13
  7
SEACAD_Arial
 11
-28.7723016426
 21
6.9267958313
 31
0.0
100
AcDbText
 73
     3
  0
ENDBLK
  5
34D
330
345
100
AcDbEntity
  8
0
100
AcDbBlockEnd
  0
BLOCK
  5
356
330
34F
100
AcDbEntity
  8
0
100
AcDbBlockBegin
  2
DMBLK64
 70
     0
 10
0.0
 20
0.0
 30
0.0
  3
DMBLK64
  1

  0
HATCH
  5
350
330
34F
100
AcDbEntity
  8
寸法
  6
Continuous
 62
     7
100
AcDbHatch
 10
0.0
 20
0.0
 30
0.0
210
0.0
220
0.0
230
1.0
  2
SOLID
 70
     1
 71
     0
 91
        1
 92
        1
 93
        3
 72
     1
 10
-25.18518368005778
 20
-2.185614970173674
 11
-28.36018364168729
 21
-2.714781630445259
 72
     1
 10
-28.36018364168729
 20
-2.714781630445259
 11
-25.18518368005778
 21
-3.243948290716844
 72
     1
 10
-25.18518368005778
 20
-3.243948290716844
 11
-25.18518368005778
 21
-2.185614970173674
 97
        0
 75
     0
 76
     1
 98
        0
  0
HATCH
  5
351
330
34F
100
AcDbEntity
  8
寸法
  6
Continuous
 62
     7
100
AcDbHatch
 10
0.0
 20
0.0
 30
0.0
210
0.0
220
0.0
230
1.0
  2
SOLID
 70
     1
 71
     0
 91
        1
 92
        1
 93
        3
 72
     1
 10
-36.5351836033168
 20
-2.185614970173674
 11
-36.5351836033168
 21
-3.243948290716844
 72
     1
 10
-36.5351836033168
 20
-3.243948290716844
 11
-33.36018364168729
 21
-2.714781630445259
 72
     1
 10
-33.36018364168729
 20
-2.714781630445259
 11
-36.5351836033168
 21
-2.185614970173674
 97
        0
 75
     0
 76
     1
 98
        0
  0
LINE
  5
352
330
34F
100
AcDbEntity
  8
寸法
  6
Continuous
 62
     7
100
AcDbLine
 10
-28.3601836417
 20
-3.4931508867
 30
0.0
 11
-28.3601836417
 21
-1.4931507917
 31
0.0
  0
LINE
  5
353
330
34F
100
AcDbEntity
  8
寸法
  6
Continuous
 62
     7
100
AcDbLine
 10
-33.3601836417
 20
-4.4931508867
 30
0.0
 11
-33.3601836417
 21
-1.4931507917
 31
0.0
  0
LINE
  5
354
330
34F
100
AcDbEntity
  8
寸法
  6
Continuous
 62
     7
100
AcDbLine
 10
-22.0101837184
 20
-2.7147816304
 30
0.0
 11
-39.7101839188
 21
-2.7147816304
 31
0.0
  0
TEXT
  5
355
330
34F
100
AcDbEntity
  8
寸法
  6
Continuous
 62
     7
100
AcDbText
 10
-31.8162425192
 20
-2.1039662008
 30
0.0
 40
2.4432617188
  1
5
  7
SEACAD_Arial
 11
-31.8162425192
 21
0.339295518
 31
0.0
100
AcDbText
 73
     3
  0
ENDBLK
  5
357
330
34F
100
AcDbEntity
  8
0
100
AcDbBlockEnd
  0
BLOCK
  5
360
330
359
100
AcDbEntity
  8
0
100
AcDbBlockBegin
  2
DMBLK65
 70
     0
 10
0.0
 20
0.0
 30
0.0
  3
DMBLK65
  1

  0
HATCH
  5
35A
330
359
100
AcDbEntity
  8
寸法
  6
Continuous
 62
     7
100
AcDbHatch
 10
0.0
 20
0.0
 30
0.0
210
0.0
220
0.0
230
1.0
  2
SOLID
 70
     1
 71
     0
 91
        1
 92
        1
 93
        3
 72
     1
 10
-22.20843045877257
 20
-2.185614972408814
 11
-25.38343042040208
 21
-2.714781632680399
 72
     1
 10
-25.38343042040208
 20
-2.714781632680399
 11
-22.20843045877257
 21
-3.243948292951984
 72
     1
 10
-22.20843045877257
 20
-3.243948292951984
 11
-22.20843045877257
 21
-2.185614972408814
 97
        0
 75
     0
 76
     1
 98
        0
  0
HATCH
  5
35B
330
359
100
AcDbEntity
  8
寸法
  6
Continuous
 62
     7
100
AcDbHatch
 10
0.0
 20
0.0
 30
0.0
210
0.0
220
0.0
230
1.0
  2
SOLID
 70
     1
 71
     0
 91
        1
 92
        1
 93
        3
 72
     1
 10
-31.55843038203158
 20
-2.185614972408814
 11
-31.55843038203158
 21
-3.243948292951984
 72
     1
 10
-31.55843038203158
 20
-3.243948292951984
 11
-28.38343042040208
 21
-2.714781632680399
 72
     1
 10
-28.38343042040208
 20
-2.714781632680399
 11
-31.55843038203158
 21
-2.185614972408814
 97
        0
 75
     0
 76
     1
 98
        0
  0
LINE
  5
35C
330
359
100
AcDbEntity
  8
寸法
  6
Continuous
 62
     7
100
AcDbLine
 10
-25.3834304204
 20
-3.9056508867
 30
0.0
 11
-25.3834304204
 21
-1.493150794
 31
0.0
  0
LINE
  5
35D
330
359
100
AcDbEntity
  8
寸法
  6
Continuous
 62
     7
100
AcDbLine
 10
-28.3834304204
 20
-3.7972377811
 30
0.0
 11
-28.3834304204
 21
-1.493150794
 31
0.0
  0
LINE
  5
35E
330
359
100
AcDbEntity
  8
寸法
  6
Continuous
 62
     7
100
AcDbLine
 10
-19.0334304971
 20
-2.7147816327
 30
0.0
 11
-34.7334303697
 21
-2.7147816327
 31
0.0
  0
TEXT
  5
35F
330
359
100
AcDbEntity
  8
寸法
  6
Continuous
 62
     7
100
AcDbText
 10
-27.8394893669
 20
-2.103966203
 30
0.0
 40
2.4432617188
  1
3
  7
SEACAD_Arial
 11
-27.8394893669
 21
0.3392955158
 31
0.0
100
AcDbText
 73
     3
  0
ENDBLK
  5
361
330
359
100
AcDbEntity
  8
0
100
AcDbBlockEnd
  0
BLOCK
  5
36A
330
363
100
AcDbEntity
  8
0
100
AcDbBlockBegin
  2
DMBLK66
 70
     0
 10
0.0
 20
0.0
 30
0.0
  3
DMBLK66
  1

  0
HATCH
  5
364
330
363
100
AcDbEntity
  8
寸法
  6
Continuous
 62
     7
100
AcDbHatch
 10
0.0
 20
0.0
 30
0.0
210
0.0
220
0.0
230
1.0
  2
SOLID
 70
     1
 71
     0
 91
        1
 92
        1
 93
        3
 72
     1
 10
-11.83101676758417
 20
-11.88978168706967
 11
-12.36018342785576
 21
-8.714781725440162
 72
     1
 10
-12.36018342785576
 20
-8.714781725440162
 11
-12.88935008812734
 21
-11.88978168706967
 72
     1
 10
-12.88935008812734
 20
-11.88978168706967
 11
-11.83101676758417
 21
-11.88978168706967
 97
        0
 75
     0
 76
     1
 98
        0
  0
HATCH
  5
365
330
363
100
AcDbEntity
  8
寸法
  6
Continuous
 62
     7
100
AcDbHatch
 10
0.0
 20
0.0
 30
0.0
210
0.0
220
0.0
230
1.0
  2
SOLID
 70
     1
 71
     0
 91
        1
 92
        1
 93
        3
 72
     1
 10
-11.83101676758417
 20
-3.539781763810652
 11
-12.88935008812734
 21
-3.539781763810652
 72
     1
 10
-12.88935008812734
 20
-3.539781763810652
 11
-12.36018342785576
 21
-6.714781725440162
 72
     1
 10
-12.36018342785576
 20
-6.714781725440162
 11
-11.83101676758417
 21
-3.539781763810652
 97
        0
 75
     0
 76
     1
 98
        0
  0
LINE
  5
366
330
363
100
AcDbEntity
  8
寸法
  6
Continuous
 62
     7
100
AcDbLine
 10
-18.551052803
 20
-8.7147817254
 30
0.0
 11
-11.1385525892
 21
-8.7147817254
 31
0.0
  0
LINE
  5
367
330
363
100
AcDbEntity
  8
寸法
  6
Continuous
 62
     7
100
AcDbLine
 10
-20.138552803
 20
-6.7147817254
 30
0.0
 11
-11.1385525892
 21
-6.7147817254
 31
0.0
  0
LINE
  5
368
330
363
100
AcDbEntity
  8
寸法
  6
Continuous
 62
     7
100
AcDbLine
 10
-12.3601834279
 20
-15.0647816487
 30
0.0
 11
-12.3601834279
 21
-0.36478194
 31
0.0
  0
TEXT
  5
369
330
363
100
AcDbEntity
  8
寸法
  6
Continuous
 62
     7
100
AcDbText
 10
-12.9709988575
 20
-8.6708406114
 30
0.0
 40
2.4432617188
  1
2
 50
90.0
  7
SEACAD_Arial
 11
-15.4142605763
 21
-8.6708406114
 31
0.0
100
AcDbText
 73
     3
  0
ENDBLK
  5
36B
330
363
100
AcDbEntity
  8
0
100
AcDbBlockEnd
  0
BLOCK
  5
374
330
36D
100
AcDbEntity
  8
0
100
AcDbBlockBegin
  2
DMBLK67
 70
     0
 10
0.0
 20
0.0
 30
0.0
  3
DMBLK67
  1

  0
HATCH
  5
36E
330
36D
100
AcDbEntity
  8
寸法
  6
Continuous
 62
     7
100
AcDbHatch
 10
0.0
 20
0.0
 30
0.0
210
0.0
220
0.0
230
1.0
  2
SOLID
 70
     1
 71
     0
 91
        1
 92
        1
 93
        3
 72
     1
 10
-11.83101736884589
 20
-13.88978168706967
 11
-12.36018402911747
 21
-10.71478172544016
 72
     1
 10
-12.36018402911747
 20
-10.71478172544016
 11
-12.88935068938906
 21
-13.88978168706967
 72
     1
 10
-12.88935068938906
 20
-13.88978168706967
 11
-11.83101736884589
 21
-13.88978168706967
 97
        0
 75
     0
 76
     1
 98
        0
  0
HATCH
  5
36F
330
36D
100
AcDbEntity
  8
寸法
  6
Continuous
 62
     7
100
AcDbHatch
 10
0.0
 20
0.0
 30
0.0
210
0.0
220
0.0
230
1.0
  2
SOLID
 70
     1
 71
     0
 91
        1
 92
        1
 93
        3
 72
     1
 10
-11.83101736884589
 20
-5.539781763810653
 11
-12.88935068938906
 21
-5.539781763810653
 72
     1
 10
-12.88935068938906
 20
-5.539781763810653
 11
-12.36018402911747
 21
-8.714781725440162
 72
     1
 10
-12.36018402911747
 20
-8.714781725440162
 11
-11.83101736884589
 21
-5.539781763810652
 97
        0
 75
     0
 76
     1
 98
        0
  0
LINE
  5
370
330
36D
100
AcDbEntity
  8
寸法
  6
Continuous
 62
     7
100
AcDbLine
 10
-20.138552803
 20
-10.7147817254
 30
0.0
 11
-11.1385531904
 21
-10.7147817254
 31
0.0
  0
LINE
  5
371
330
36D
100
AcDbEntity
  8
寸法
  6
Continuous
 62
     7
100
AcDbLine
 10
-20.138552803
 20
-8.7147817254
 30
0.0
 11
-11.1385531904
 21
-8.7147817254
 31
0.0
  0
LINE
  5
372
330
36D
100
AcDbEntity
  8
寸法
  6
Continuous
 62
     7
100
AcDbLine
 10
-12.3601840291
 20
-17.0647816487
 30
0.0
 11
-12.3601840291
 21
-2.36478194
 31
0.0
  0
TEXT
  5
373
330
36D
100
AcDbEntity
  8
寸法
  6
Continuous
 62
     7
100
AcDbText
 10
-12.9709994588
 20
-10.6708406114
 30
0.0
 40
2.4432617188
  1
2
 50
90.0
  7
SEACAD_Arial
 11
-15.4142611776
 21
-10.6708406114
 31
0.0
100
AcDbText
 73
     3
  0
ENDBLK
  5
375
330
36D
100
AcDbEntity
  8
0
100
AcDbBlockEnd
  0
BLOCK
  5
37E
330
377
100
AcDbEntity
  8
0
100
AcDbBlockBegin
  2
DMBLK68
 70
     0
 10
0.0
 20
0.0
 30
0.0
  3
DMBLK68
  1

  0
HATCH
  5
378
330
377
100
AcDbEntity
  8
寸法
  6
Continuous
 62
     7
100
AcDbHatch
 10
0.0
 20
0.0
 30
0.0
210
0.0
220
0.0
230
1.0
  2
SOLID
 70
     1
 71
     0
 91
        1
 92
        1
 93
        3
 72
     1
 10
-39.88935035411293
 20
-22.88978168706961
 11
-38.83101703356976
 21
-22.88978168706961
 72
     1
 10
-38.83101703356976
 20
-22.88978168706961
 11
-39.36018369384135
 21
-19.7147817254401
 72
     1
 10
-39.36018369384135
 20
-19.7147817254401
 11
-39.88935035411293
 21
-22.88978168706961
 97
        0
 75
     0
 76
     1
 98
        0
  0
HATCH
  5
379
330
377
100
AcDbEntity
  8
寸法
  6
Continuous
 62
     7
100
AcDbHatch
 10
0.0
 20
0.0
 30
0.0
210
0.0
220
0.0
230
1.0
  2
SOLID
 70
     1
 71
     0
 91
        1
 92
        1
 93
        3
 72
     1
 10
-39.88935035411293
 20
-3.539781763810653
 11
-39.36018369384135
 21
-6.714781725440162
 72
     1
 10
-39.36018369384135
 20
-6.714781725440162
 11
-38.83101703356976
 21
-3.539781763810653
 72
     1
 10
-38.83101703356976
 20
-3.539781763810653
 11
-39.88935035411293
 21
-3.539781763810653
 97
        0
 75
     0
 76
     1
 98
        0
  0
LINE
  5
37A
330
377
100
AcDbEntity
  8
寸法
  6
Continuous
 62
     7
100
AcDbLine
 10
-34.5818144804
 20
-19.7147817254
 30
0.0
 11
-40.5818145325
 21
-19.7147817254
 31
0.0
  0
LINE
  5
37B
330
377
100
AcDbEntity
  8
寸法
  6
Continuous
 62
     7
100
AcDbLine
 10
-34.5818144804
 20
-6.7147817254
 30
0.0
 11
-40.5818145325
 21
-6.7147817254
 31
0.0
  0
LINE
  5
37C
330
377
100
AcDbEntity
  8
寸法
  6
Continuous
 62
     7
100
AcDbLine
 10
-39.3601836938
 20
-26.0647816487
 30
0.0
 11
-39.3601836938
 21
-0.3647819996
 31
0.0
  0
TEXT
  5
37D
330
377
100
AcDbEntity
  8
寸法
  6
Continuous
 62
     7
100
AcDbText
 10
-39.9709991235
 20
-15.1268994582
 30
0.0
 40
2.4432617188
  1
13
 50
90.0
  7
SEACAD_Arial
 11
-42.4142608423
 21
-15.1268994582
 31
0.0
100
AcDbText
 73
     3
  0
ENDBLK
  5
37F
330
377
100
AcDbEntity
  8
0
100
AcDbBlockEnd
  0
BLOCK
  5
38A
330
380
100
AcDbEntity
  8
0
100
AcDbBlockBegin
  2
SE20
 70
     0
 10
0.0
 20
0.0
 30
0.0
  3
SE20
  1

  0
INSERT
  5
383
330
380
100
AcDbEntity
  8
一般
100
AcDbBlockReference
  2
SE21
 10
0.0
 20
0.0
 30
0.0
  0
ENDBLK
  5
38B
330
380
100
AcDbEntity
  8
0
100
AcDbBlockEnd
  0
BLOCK
  5
388
330
382
100
AcDbEntity
  8
0
100
AcDbBlockBegin
  2
SE21
 70
     0
 10
0.0
 20
0.0
 30
0.0
  3
SE21
  1

  0
LINE
  5
384
330
382
100
AcDbEntity
  8
一般
  6
Continuous
 62
     7
100
AcDbLine
 10
-33.3601836417
 20
-6.7147817254
 30
0.0
 11
-20.3601836417
 21
-6.7147817254
 31
0.0
  0
LINE
  5
385
330
382
100
AcDbEntity
  8
一般
  6
Continuous
 62
     7
100
AcDbLine
 10
-20.3601836417
 20
-6.7147817254
 30
0.0
 11
-20.3601836417
 21
-19.7147817254
 31
0.0
  0
LINE
  5
386
330
382
100
AcDbEntity
  8
一般
  6
Continuous
 62
     7
100
AcDbLine
 10
-20.3601836417
 20
-19.7147817254
 30
0.0
 11
-33.3601836417
 21
-19.7147817254
 31
0.0
  0
LINE
  5
387
330
382
100
AcDbEntity
  8
一般
  6
Continuous
 62
     7
100
AcDbLine
 10
-33.3601836417
 20
-19.7147817254
 30
0.0
 11
-33.3601836417
 21
-6.7147817254
 31
0.0
  0
ENDBLK
  5
389
330
382
100
AcDbEntity
  8
0
100
AcDbBlockEnd
  0
BLOCK
  5
396
330
38C
100
AcDbEntity
  8
0
100
AcDbBlockBegin
  2
SE22
 70
     0
 10
0.0
 20
0.0
 30
0.0
  3
SE22
  1

  0
INSERT
  5
38F
330
38C
100
AcDbEntity
  8
一般
100
AcDbBlockReference
  2
SE23
 10
0.0
 20
0.0
 30
0.0
  0
ENDBLK
  5
397
330
38C
100
AcDbEntity
  8
0
100
AcDbBlockEnd
  0
BLOCK
  5
394
330
38E
100
AcDbEntity
  8
0
100
AcDbBlockBegin
  2
SE23
 70
     0
 10
0.0
 20
0.0
 30
0.0
  3
SE23
  1

  0
LINE
  5
390
330
38E
100
AcDbEntity
  8
一般
  6
Continuous
 62
     7
100
AcDbLine
 10
-28.3601836417
 20
-8.7147817254
 30
0.0
 11
-25.3601836417
 21
-8.7147817254
 31
0.0
  0
LINE
  5
391
330
38E
100
AcDbEntity
  8
一般
  6
Continuous
 62
     7
100
AcDbLine
 10
-25.3601836417
 20
-8.7147817254
 30
0.0
 11
-25.3601836417
 21
-10.7147817254
 31
0.0
  0
LINE
  5
392
330
38E
100
AcDbEntity
  8
一般
  6
Continuous
 62
     7
100
AcDbLine
 10
-25.3601836417
 20
-10.7147817254
 30
0.0
 11
-28.3601836417
 21
-10.7147817254
 31
0.0
  0
LINE
  5
393
330
38E
100
AcDbEntity
  8
一般
  6
Continuous
 62
     7
100
AcDbLine
 10
-28.3601836417
 20
-10.7147817254
 30
0.0
 11
-28.3601836417
 21
-8.7147817254
 31
0.0
  0
ENDBLK
  5
395
330
38E
100
AcDbEntity
  8
0
100
AcDbBlockEnd
  0
BLOCK
  5
3A2
330
398
100
AcDbEntity
  8
0
100
AcDbBlockBegin
  2
SE24
 70
     0
 10
0.0
 20
0.0
 30
0.0
  3
SE24
  1

  0
INSERT
  5
39B
330
398
100
AcDbEntity
  8
一般
100
AcDbBlockReference
  2
SE25
 10
0.0
 20
0.0
 30
0.0
  0
ENDBLK
  5
3A3
330
398
100
AcDbEntity
  8
0
100
AcDbBlockEnd
  0
BLOCK
  5
3A0
330
39A
100
AcDbEntity
  8
0
100
AcDbBlockBegin
  2
SE25
 70
     0
 10
0.0
 20
0.0
 30
0.0
  3
SE25
  1

  0
LINE
  5
39C
330
39A
100
AcDbEntity
  8
一般
  6
Continuous
 62
     7
100
AcDbLine
 10
-99.548623972
 20
75.0195522051
 30
0.0
 11
-99.548623972
 21
95.0505723492
 31
0.0
  0
LINE
  5
39D
330
39A
100
AcDbEntity
  8
一般
  6
Continuous
 62
     7
100
AcDbLine
 10
-99.548623972
 20
95.0505723492
 30
0.0
 11
-98.548623972
 21
95.0505723492
 31
0.0
  0
LINE
  5
39E
330
39A
100
AcDbEntity
  8
一般
  6
Continuous
 62
     7
100
AcDbLine
 10
-98.548623972
 20
95.0505723492
 30
0.0
 11
-98.548623972
 21
75.0195522051
 31
0.0
  0
LINE
  5
39F
330
39A
100
AcDbEntity
  8
一般
  6
Continuous
 62
     7
100
AcDbLine
 10
-98.548623972
 20
75.0195522051
 30
0.0
 11
-99.548623972
 21
75.0195522051
 31
0.0
  0
ENDBLK
  5
3A1
330
39A
100
AcDbEntity
  8
0
100
AcDbBlockEnd
  0
BLOCK
  5
3C0
330
3A4
100
AcDbEntity
  8
0
100
AcDbBlockBegin
  2
グループ-11
 70
     0
 10
0.0
 20
0.0
 30
0.0
  3
グループ-11
  1

  0
LINE
  5
3A5
330
3A4
100
AcDbEntity
  8
一般
  6
Continuous
 62
     7
100
AcDbLine
 10
0.0
 20
0.0
 30
0.0
 11
0.0
 21
34.8408759237
 31
0.0
  0
LINE
  5
3A6
330
3A4
100
AcDbEntity
  8
一般
  6
Continuous
 62
     7
100
AcDbLine
 10
0.0
 20
34.8408759237
 30
0.0
 11
1.0
 21
34.8408759237
 31
0.0
  0
LINE
  5
3A7
330
3A4
100
AcDbEntity
  8
一般
  6
Continuous
 62
     7
100
AcDbLine
 10
1.0
 20
34.8408759237
 30
0.0
 11
1.0
 21
0.0
 31
0.0
  0
LINE
  5
3A8
330
3A4
100
AcDbEntity
  8
一般
  6
Continuous
 62
     7
100
AcDbLine
 10
1.0
 20
0.0
 30
0.0
 11
0.0
 21
0.0
 31
0.0
  0
HATCH
  5
3A9
330
3A4
100
AcDbEntity
  8
一般
  6
Continuous
 62
     7
100
AcDbHatch
 10
0.0
 20
0.0
 30
0.0
210
0.0
220
0.0
230
1.0
  2
SOLID
 70
     1
 71
     0
 91
        1
 92
        1
 93
        4
 72
     1
 10
1.0
 20
0.0
 11
1.0
 21
34.84087592373135
 72
     1
 10
1.0
 20
34.84087592373135
 11
-0.0000000000000009
 21
34.84087592373135
 72
     1
 10
0.0
 20
34.84087592373135
 11
0.0
 21
0.0
 72
     1
 10
0.0
 20
0.0
 11
1.000000000000001
 21
0.0
 97
        0
 75
     0
 76
     1
 98
        0
  0
LINE
  5
3AA
330
3A4
100
AcDbEntity
  8
一般
  6
Continuous
 62
     7
100
AcDbLine
 10
0.0
 20
0.0
 30
0.0
 11
0.0
 21
34.8408759237
 31
0.0
  0
LINE
  5
3AB
330
3A4
100
AcDbEntity
  8
一般
  6
Continuous
 62
     7
100
AcDbLine
 10
0.0
 20
34.8408759237
 30
0.0
 11
1.0
 21
34.8408759237
 31
0.0
  0
LINE
  5
3AC
330
3A4
100
AcDbEntity
  8
一般
  6
Continuous
 62
     7
100
AcDbLine
 10
1.0
 20
34.8408759237
 30
0.0
 11
1.0
 21
0.0
 31
0.0
  0
LINE
  5
3AD
330
3A4
100
AcDbEntity
  8
一般
  6
Continuous
 62
     7
100
AcDbLine
 10
1.0
 20
0.0
 30
0.0
 11
0.0
 21
0.0
 31
0.0
  0
LINE
  5
3AE
330
3A4
100
AcDbEntity
  8
一般
  6
Continuous
 62
     7
100
AcDbLine
 10
2.3614926379
 20
0.0
 30
0.0
 11
2.3614926379
 21
34.8408759237
 31
0.0
  0
LINE
  5
3AF
330
3A4
100
AcDbEntity
  8
一般
  6
Continuous
 62
     7
100
AcDbLine
 10
2.3614926379
 20
34.8408759237
 30
0.0
 11
3.3614926379
 21
34.8408759237
 31
0.0
  0
LINE
  5
3B0
330
3A4
100
AcDbEntity
  8
一般
  6
Continuous
 62
     7
100
AcDbLine
 10
3.3614926379
 20
34.8408759237
 30
0.0
 11
3.3614926379
 21
0.0
 31
0.0
  0
LINE
  5
3B1
330
3A4
100
AcDbEntity
  8
一般
  6
Continuous
 62
     7
100
AcDbLine
 10
3.3614926379
 20
0.0
 30
0.0
 11
2.3614926379
 21
0.0
 31
0.0
  0
HATCH
  5
3B2
330
3A4
100
AcDbEntity
  8
一般
  6
Continuous
 62
     7
100
AcDbHatch
 10
0.0
 20
0.0
 30
0.0
210
0.0
220
0.0
230
1.0
  2
SOLID
 70
     1
 71
     0
 91
        1
 92
        1
 93
        4
 72
     1
 10
8.166575975391659
 20
0.0
 11
8.166575975391659
 21
34.84087592373135
 72
     1
 10
8.166575975391659
 20
34.84087592373135
 11
7.166575975391658
 21
34.84087592373135
 72
     1
 10
7.166575975391659
 20
34.84087592373135
 11
7.166575975391659
 21
0.0
 72
     1
 10
7.166575975391659
 20
0.0
 11
8.166575975391659
 21
0.0
 97
        0
 75
     0
 76
     1
 98
        0
  0
LINE
  5
3B3
330
3A4
100
AcDbEntity
  8
一般
  6
Continuous
 62
     7
100
AcDbLine
 10
7.1665759754
 20
0.0
 30
0.0
 11
7.1665759754
 21
34.8408759237
 31
0.0
  0
LINE
  5
3B4
330
3A4
100
AcDbEntity
  8
一般
  6
Continuous
 62
     7
100
AcDbLine
 10
7.1665759754
 20
34.8408759237
 30
0.0
 11
8.1665759754
 21
34.8408759237
 31
0.0
  0
LINE
  5
3B5
330
3A4
100
AcDbEntity
  8
一般
  6
Continuous
 62
     7
100
AcDbLine
 10
8.1665759754
 20
34.8408759237
 30
0.0
 11
8.1665759754
 21
0.0
 31
0.0
  0
LINE
  5
3B6
330
3A4
100
AcDbEntity
  8
一般
  6
Continuous
 62
     7
100
AcDbLine
 10
8.1665759754
 20
0.0
 30
0.0
 11
7.1665759754
 21
0.0
 31
0.0
  0
LINE
  5
3B7
330
3A4
100
AcDbEntity
  8
一般
  6
Continuous
 62
     7
100
AcDbLine
 10
4.8614926379
 20
0.0
 30
0.0
 11
4.8614926379
 21
34.8408759237
 31
0.0
  0
LINE
  5
3B8
330
3A4
100
AcDbEntity
  8
一般
  6
Continuous
 62
     7
100
AcDbLine
 10
4.8614926379
 20
34.8408759237
 30
0.0
 11
5.8614926379
 21
34.8408759237
 31
0.0
  0
LINE
  5
3B9
330
3A4
100
AcDbEntity
  8
一般
  6
Continuous
 62
     7
100
AcDbLine
 10
5.8614926379
 20
34.8408759237
 30
0.0
 11
5.8614926379
 21
0.0
 31
0.0
  0
LINE
  5
3BA
330
3A4
100
AcDbEntity
  8
一般
  6
Continuous
 62
     7
100
AcDbLine
 10
5.8614926379
 20
0.0
 30
0.0
 11
4.8614926379
 21
0.0
 31
0.0
  0
HATCH
  5
3BB
330
3A4
100
AcDbEntity
  8
一般
  6
Continuous
 62
     7
100
AcDbHatch
 10
0.0
 20
0.0
 30
0.0
210
0.0
220
0.0
230
1.0
  2
SOLID
 70
     1
 71
     0
 91
        1
 92
        1
 93
        4
 72
     1
 10
5.861492637902302
 20
0.0
 11
5.861492637902302
 21
34.84087592373135
 72
     1
 10
5.861492637902302
 20
34.84087592373135
 11
4.861492637902301
 21
34.84087592373135
 72
     1
 10
4.861492637902302
 20
34.84087592373135
 11
4.861492637902302
 21
0.0
 72
     1
 10
4.861492637902302
 20
0.0
 11
5.861492637902303
 21
0.0
 97
        0
 75
     0
 76
     1
 98
        0
  0
LINE
  5
3BC
330
3A4
100
AcDbEntity
  8
一般
  6
Continuous
 62
     7
100
AcDbLine
 10
4.8614926379
 20
0.0
 30
0.0
 11
4.8614926379
 21
34.8408759237
 31
0.0
  0
LINE
  5
3BD
330
3A4
100
AcDbEntity
  8
一般
  6
Continuous
 62
     7
100
AcDbLine
 10
4.8614926379
 20
34.8408759237
 30
0.0
 11
5.8614926379
 21
34.8408759237
 31
0.0
  0
LINE
  5
3BE
330
3A4
100
AcDbEntity
  8
一般
  6
Continuous
 62
     7
100
AcDbLine
 10
5.8614926379
 20
34.8408759237
 30
0.0
 11
5.8614926379
 21
0.0
 31
0.0
  0
LINE
  5
3BF
330
3A4
100
AcDbEntity
  8
一般
  6
Continuous
 62
     7
100
AcDbLine
 10
5.8614926379
 20
0.0
 30
0.0
 11
4.8614926379
 21
0.0
 31
0.0
  0
ENDBLK
  5
3C1
330
3A4
100
AcDbEntity
  8
0
100
AcDbBlockEnd
  0
BLOCK
  5
3CD
330
3C3
100
AcDbEntity
  8
0
100
AcDbBlockBegin
  2
SE26
 70
     0
 10
0.0
 20
0.0
 30
0.0
  3
SE26
  1

  0
INSERT
  5
3C6
330
3C3
100
AcDbEntity
  8
一般
100
AcDbBlockReference
  2
SE27
 10
0.0
 20
0.0
 30
0.0
  0
ENDBLK
  5
3CE
330
3C3
100
AcDbEntity
  8
0
100
AcDbBlockEnd
  0
BLOCK
  5
3CB
330
3C5
100
AcDbEntity
  8
0
100
AcDbBlockBegin
  2
SE27
 70
     0
 10
0.0
 20
0.0
 30
0.0
  3
SE27
  1

  0
LINE
  5
3C7
330
3C5
100
AcDbEntity
  8
一般
  6
Continuous
 62
     7
100
AcDbLine
 10
-126.6661286782
 20
30.887639217
 30
0.0
 11
-124.5448083347
 21
33.0089595605
 31
0.0
  0
LINE
  5
3C8
330
3C5
100
AcDbEntity
  8
一般
  6
Continuous
 62
     7
100
AcDbLine
 10
-124.5448083347
 20
33.0089595605
 30
0.0
 11
-124.1912549441
 21
32.6554061699
 31
0.0
  0
LINE
  5
3C9
330
3C5
100
AcDbEntity
  8
一般
  6
Continuous
 62
     7
100
AcDbLine
 10
-124.1912549441
 20
32.6554061699
 30
0.0
 11
-126.3125752876
 21
30.5340858264
 31
0.0
  0
LINE
  5
3CA
330
3C5
100
AcDbEntity
  8
一般
  6
Continuous
 62
     7
100
AcDbLine
 10
-126.3125752876
 20
30.5340858264
 30
0.0
 11
-126.6661286782
 21
30.887639217
 31
0.0
  0
ENDBLK
  5
3CC
330
3C5
100
AcDbEntity
  8
0
100
AcDbBlockEnd
  0
BLOCK
  5
41B
330
3CF
100
AcDbEntity
  8
0
100
AcDbBlockBegin
  2
グループ-12
 70
     0
 10
0.0
 20
0.0
 30
0.0
  3
グループ-12
  1

  0
LINE
  5
3D0
330
3CF
100
AcDbEntity
  8
0
  6
Continuous
 62
     7
100
AcDbLine
 10
44.99991
 20
3.499993
 30
0.0
 11
44.99991
 21
98.499799
 31
0.0
  0
LINE
  5
3D1
330
3CF
100
AcDbEntity
  8
0
  6
Continuous
 62
     7
100
AcDbLine
 10
2.999994
 20
30.999938
 30
0.0
 11
2.999994
 21
45.999901
 31
0.0
  0
LINE
  5
3D2
330
3CF
100
AcDbEntity
  8
0
  6
Continuous
 62
     7
100
AcDbLine
 10
6.999986
 20
23.999952
 30
0.0
 11
44.99991
 21
23.999952
 31
0.0
  0
LINE
  5
3D3
330
3CF
100
AcDbEntity
  8
0
  6
Continuous
 62
     7
100
AcDbLine
 10
6.999986
 20
27.999944
 30
0.0
 11
44.99991
 21
27.999944
 31
0.0
  0
LINE
  5
3D4
330
3CF
100
AcDbEntity
  8
0
  6
Continuous
 62
     7
100
AcDbLine
 10
2.999994
 20
19.99996
 30
0.0
 11
44.99991
 21
19.99996
 31
0.0
  0
LINE
  5
3D5
330
3CF
100
AcDbEntity
  8
0
  6
Continuous
 62
     7
100
AcDbLine
 10
10.999978
 20
48.999895
 30
0.0
 11
44.99991
 21
48.999895
 31
0.0
  0
LINE
  5
3D6
330
3CF
100
AcDbEntity
  8
0
  6
Continuous
 62
     7
100
AcDbLine
 10
3.999992
 20
29.99994
 30
0.0
 11
44.99991
 21
29.99994
 31
0.0
  0
LINE
  5
3D7
330
3CF
100
AcDbEntity
  8
0
  6
Continuous
 62
     7
100
AcDbLine
 10
4.99999
 20
51.49989
 30
0.0
 11
4.99999
 21
50.499892
 31
0.0
  0
LINE
  5
3D8
330
3CF
100
AcDbEntity
  8
0
  6
Continuous
 62
     7
100
AcDbLine
 10
6.999986
 20
77.999837
 30
0.0
 11
44.99991
 21
77.999837
 31
0.0
  0
LINE
  5
3D9
330
3CF
100
AcDbEntity
  8
0
  6
Continuous
 62
     7
100
AcDbLine
 10
6.999986
 20
73.999845
 30
0.0
 11
44.99991
 21
73.999845
 31
0.0
  0
LINE
  5
3DA
330
3CF
100
AcDbEntity
  8
0
  6
Continuous
 62
     7
100
AcDbLine
 10
2.999994
 20
81.999829
 30
0.0
 11
44.99991
 21
81.999829
 31
0.0
  0
LINE
  5
3DB
330
3CF
100
AcDbEntity
  8
0
  6
Continuous
 62
     7
100
AcDbLine
 10
10.999978
 20
52.999887
 30
0.0
 11
44.99991
 21
52.999887
 31
0.0
  0
LINE
  5
3DC
330
3CF
100
AcDbEntity
  8
0
  6
Continuous
 62
     7
100
AcDbLine
 10
3.999992
 20
71.999849
 30
0.0
 11
44.99991
 21
71.999849
 31
0.0
  0
LINE
  5
3DD
330
3CF
100
AcDbEntity
  8
0
  6
Continuous
 62
     7
100
AcDbLine
 10
43.3999072
 20
77.999837
 30
0.0
 11
43.3999072
 21
81.999829
 31
0.0
  0
LINE
  5
3DE
330
3CF
100
AcDbEntity
  8
0
  6
Continuous
 62
     7
100
AcDbLine
 10
43.3999072
 20
19.99996
 30
0.0
 11
43.3999072
 21
23.999952
 31
0.0
  0
LINE
  5
3DF
330
3CF
100
AcDbEntity
  8
0
  6
Continuous
 62
     7
100
AcDbLine
 10
42.499915
 20
73.999845
 30
0.0
 11
42.499915
 21
77.999837
 31
0.0
  0
LINE
  5
3E0
330
3CF
100
AcDbEntity
  8
0
  6
Continuous
 62
     7
100
AcDbLine
 10
42.499915
 20
23.999952
 30
0.0
 11
42.499915
 21
27.999944
 31
0.0
  0
LINE
  5
3E1
330
3CF
100
AcDbEntity
  8
0
  6
Continuous
 62
     7
100
AcDbLine
 10
42.499915
 20
48.999895
 30
0.0
 11
42.499915
 21
52.999887
 31
0.0
  0
LINE
  5
3E2
330
3CF
100
AcDbEntity
  8
0
  6
Continuous
 62
     7
100
AcDbLine
 10
3.999992
 20
46.999899
 30
0.0
 11
44.99991
 21
46.999899
 31
0.0
  0
LINE
  5
3E3
330
3CF
100
AcDbEntity
  8
0
  6
Continuous
 62
     7
100
AcDbLine
 10
3.999992
 20
54.999883
 30
0.0
 11
44.99991
 21
54.999883
 31
0.0
  0
LINE
  5
3E4
330
3CF
100
AcDbEntity
  8
0
  6
Continuous
 62
     7
100
AcDbLine
 10
2.999994
 20
70.999851
 30
0.0
 11
2.999994
 21
55.999881
 31
0.0
  0
ARC
  5
3E5
330
3CF
100
AcDbEntity
  8
0
  6
Continuous
 62
     7
100
AcDbCircle
 10
3.999992
 20
45.999901
 30
0.0
 40
0.9999980000000049
100
AcDbArc
 50
90.0
 51
179.999992
  0
ARC
  5
3E6
330
3CF
100
AcDbEntity
  8
0
  6
Continuous
 62
     7
100
AcDbCircle
 10
3.999992
 20
30.999938
 30
0.0
 40
0.9999980000000049
100
AcDbArc
 50
180.0
 51
270.0
  0
ARC
  5
3E7
330
3CF
100
AcDbEntity
  8
0
  6
Continuous
 62
     7
100
AcDbCircle
 10
3.999992
 20
55.999881
 30
0.0
 40
0.9999980000000049
100
AcDbArc
 50
180.0
 51
270.0
  0
ARC
  5
3E8
330
3CF
100
AcDbEntity
  8
0
  6
Continuous
 62
     7
100
AcDbCircle
 10
3.999992
 20
70.999851
 30
0.0
 40
0.9999980000000049
100
AcDbArc
 50
90.0
 51
179.999992
  0
ARC
  5
3E9
330
3CF
100
AcDbEntity
  8
0
  6
Continuous
 62
     7
100
AcDbCircle
 10
2.999994
 20
78.999835
 30
0.0
 40
2.999993999999902
100
AcDbArc
 50
90.0
 51
180.0
  0
ARC
  5
3EA
330
3CF
100
AcDbEntity
  8
0
  6
Continuous
 62
     7
100
AcDbCircle
 10
2.999994
 20
22.999954
 30
0.0
 40
2.999994000000015
100
AcDbArc
 50
180.0
 51
270.0
  0
LINE
  5
3EB
330
3CF
100
AcDbEntity
  8
0
  6
Continuous
 62
     7
100
AcDbLine
 10
0.0
 20
0.0
 30
0.0
 11
0.0
 21
101.999792
 31
0.0
  0
LINE
  5
3EC
330
3CF
100
AcDbEntity
  8
0
  6
Continuous
 62
     7
100
AcDbLine
 10
1.6000038
 20
48.999895
 30
0.0
 11
1.6000038
 21
52.999887
 31
0.0
  0
LINE
  5
3ED
330
3CF
100
AcDbEntity
  8
0
  6
Continuous
 62
     7
100
AcDbLine
 10
0.0
 20
48.999895
 30
0.0
 11
1.6000038
 21
48.999895
 31
0.0
  0
LINE
  5
3EE
330
3CF
100
AcDbEntity
  8
0
  6
Continuous
 62
     7
100
AcDbLine
 10
0.0
 20
52.999887
 30
0.0
 11
1.6000038
 21
52.999887
 31
0.0
  0
LINE
  5
3EF
330
3CF
100
AcDbEntity
  8
0
  6
Continuous
 62
     7
100
AcDbLine
 10
1.6000038
 20
71.999849
 30
0.0
 11
1.6000038
 21
75.999841
 31
0.0
  0
LINE
  5
3F0
330
3CF
100
AcDbEntity
  8
0
  6
Continuous
 62
     7
100
AcDbLine
 10
0.0
 20
71.999849
 30
0.0
 11
1.6000038
 21
71.999849
 31
0.0
  0
LINE
  5
3F1
330
3CF
100
AcDbEntity
  8
0
  6
Continuous
 62
     7
100
AcDbLine
 10
0.0
 20
75.999841
 30
0.0
 11
1.6000038
 21
75.999841
 31
0.0
  0
LINE
  5
3F2
330
3CF
100
AcDbEntity
  8
0
  6
Continuous
 62
     7
100
AcDbLine
 10
1.6000038
 20
25.999948
 30
0.0
 11
1.6000038
 21
29.99994
 31
0.0
  0
LINE
  5
3F3
330
3CF
100
AcDbEntity
  8
0
  6
Continuous
 62
     7
100
AcDbLine
 10
0.0
 20
25.999948
 30
0.0
 11
1.6000038
 21
25.999948
 31
0.0
  0
LINE
  5
3F4
330
3CF
100
AcDbEntity
  8
0
  6
Continuous
 62
     7
100
AcDbLine
 10
0.0
 20
29.99994
 30
0.0
 11
1.6000038
 21
29.99994
 31
0.0
  0
LINE
  5
3F5
330
3CF
100
AcDbEntity
  8
0
  6
Continuous
 62
     7
100
AcDbLine
 10
5.999988
 20
49.499894
 30
0.0
 11
10.6999606
 21
49.499894
 31
0.0
  0
LINE
  5
3F6
330
3CF
100
AcDbEntity
  8
0
  6
Continuous
 62
     7
100
AcDbLine
 10
5.999988
 20
52.499888
 30
0.0
 11
10.6999606
 21
52.499888
 31
0.0
  0
LINE
  5
3F7
330
3CF
100
AcDbEntity
  8
0
  6
Continuous
 62
     7
100
AcDbLine
 10
10.999978
 20
52.7998744
 30
0.0
 11
10.999978
 21
52.999887
 31
0.0
  0
LINE
  5
3F8
330
3CF
100
AcDbEntity
  8
0
  6
Continuous
 62
     7
100
AcDbLine
 10
10.999978
 20
48.999895
 30
0.0
 11
10.999978
 21
49.1999066
 31
0.0
  0
ARC
  5
3F9
330
3CF
100
AcDbEntity
  8
0
  6
Continuous
 62
     7
100
AcDbCircle
 10
5.999988
 20
50.499892
 30
0.0
 40
0.9999980000000049
100
AcDbArc
 50
180.0
 51
270.0
  0
ARC
  5
3FA
330
3CF
100
AcDbEntity
  8
0
  6
Continuous
 62
     7
100
AcDbCircle
 10
5.999988
 20
51.49989
 30
0.0
 40
0.9999980000000049
100
AcDbArc
 50
90.0
 51
179.999992
  0
LINE
  5
3FB
330
3CF
100
AcDbEntity
  8
0
  6
Continuous
 62
     7
100
AcDbLine
 10
0.0
 20
2.499995
 30
0.0
 11
43.999912
 21
2.499995
 31
0.0
  0
LINE
  5
3FC
330
3CF
100
AcDbEntity
  8
0
  6
Continuous
 62
     7
100
AcDbLine
 10
0.0
 20
99.499797
 30
0.0
 11
43.999912
 21
99.499797
 31
0.0
  0
LINE
  5
3FD
330
3CF
100
AcDbEntity
  8
0
  6
Continuous
 62
     7
100
AcDbLine
 10
0.0
 20
0.0
 30
0.0
 11
6.999986
 21
0.0
 31
0.0
  0
LINE
  5
3FE
330
3CF
100
AcDbEntity
  8
0
  6
Continuous
 62
     7
100
AcDbLine
 10
7.999984
 20
0.999998
 30
0.0
 11
7.999984
 21
2.499995
 31
0.0
  0
LINE
  5
3FF
330
3CF
100
AcDbEntity
  8
0
  6
Continuous
 62
     7
100
AcDbLine
 10
0.0
 20
101.999792
 30
0.0
 11
6.999986
 21
101.999792
 31
0.0
  0
LINE
  5
400
330
3CF
100
AcDbEntity
  8
0
  6
Continuous
 62
     7
100
AcDbLine
 10
7.999984
 20
100.999794
 30
0.0
 11
7.999984
 21
99.499797
 31
0.0
  0
ARC
  5
401
330
3CF
100
AcDbEntity
  8
0
  6
Continuous
 62
     7
100
AcDbCircle
 10
43.999912
 20
3.499993
 30
0.0
 40
0.9999980000000392
100
AcDbArc
 50
270.000015
 51
0.0
  0
ARC
  5
402
330
3CF
100
AcDbEntity
  8
0
  6
Continuous
 62
     7
100
AcDbCircle
 10
43.999912
 20
98.499799
 30
0.0
 40
0.9999980000000049
100
AcDbArc
 50
0.0
 51
90.0
  0
ARC
  5
403
330
3CF
100
AcDbEntity
  8
0
  6
Continuous
 62
     7
100
AcDbCircle
 10
10.6999606
 20
49.1999066
 30
0.0
 40
0.2999993999999333
100
AcDbArc
 50
0.0
 51
90.0
  0
ARC
  5
404
330
3CF
100
AcDbEntity
  8
0
  6
Continuous
 62
     7
100
AcDbCircle
 10
10.6999606
 20
52.7998744
 30
0.0
 40
0.2999993999998299
100
AcDbArc
 50
270.000015
 51
0.0
  0
ARC
  5
405
330
3CF
100
AcDbEntity
  8
0
  6
Continuous
 62
     7
100
AcDbCircle
 10
6.999986
 20
100.999794
 30
0.0
 40
0.9999980000000049
100
AcDbArc
 50
0.0
 51
90.0
  0
ARC
  5
406
330
3CF
100
AcDbEntity
  8
0
  6
Continuous
 62
     7
100
AcDbCircle
 10
6.999986
 20
0.999998
 30
0.0
 40
0.9999980000000392
100
AcDbArc
 50
270.000015
 51
0.0
  0
ARC
  5
407
330
3CF
100
AcDbEntity
  8
0
  6
Continuous
 62
     7
100
AcDbCircle
 10
6.999986
 20
25.999948
 30
0.0
 40
1.99999600000001
100
AcDbArc
 50
180.0
 51
270.0
  0
ARC
  5
408
330
3CF
100
AcDbEntity
  8
0
  6
Continuous
 62
     7
100
AcDbCircle
 10
6.999986
 20
25.999948
 30
0.0
 40
1.99999600000001
100
AcDbArc
 50
90.0
 51
179.999992
  0
ARC
  5
409
330
3CF
100
AcDbEntity
  8
0
  6
Continuous
 62
     7
100
AcDbCircle
 10
6.999986
 20
75.999841
 30
0.0
 40
1.99999600000001
100
AcDbArc
 50
180.0
 51
270.0
  0
ARC
  5
40A
330
3CF
100
AcDbEntity
  8
0
  6
Continuous
 62
     7
100
AcDbCircle
 10
6.999986
 20
75.999841
 30
0.0
 40
1.999996000000124
100
AcDbArc
 50
90.0
 51
179.999992
  0
LINE
  5
40B
330
3CF
100
AcDbEntity
  8
0
  6
Continuous
 62
     7
100
AcDbLine
 10
0.0
 20
84.499824
 30
0.0
 11
6.499987
 21
84.499824
 31
0.0
  0
LINE
  5
40C
330
3CF
100
AcDbEntity
  8
0
  6
Continuous
 62
     7
100
AcDbLine
 10
6.499987
 20
84.499824
 30
0.0
 11
6.499987
 21
99.499797
 31
0.0
  0
LINE
  5
40D
330
3CF
100
AcDbEntity
  8
0
  6
Continuous
 62
     7
100
AcDbLine
 10
0.0
 20
17.499965
 30
0.0
 11
6.499987
 21
17.499965
 31
0.0
  0
LINE
  5
40E
330
3CF
100
AcDbEntity
  8
0
  6
Continuous
 62
     7
100
AcDbLine
 10
6.499987
 20
17.499965
 30
0.0
 11
6.499987
 21
2.499995
 31
0.0
  0
LINE
  5
40F
330
3CF
100
AcDbEntity
  8
0
  6
Continuous
 62
     7
100
AcDbLine
 10
40.2999074
 20
27.999944
 30
0.0
 11
40.2999074
 21
23.999952
 31
0.0
  0
LINE
  5
410
330
3CF
100
AcDbEntity
  8
0
  6
Continuous
 62
     7
100
AcDbLine
 10
39.9499021
 20
27.999944
 30
0.0
 11
39.9499021
 21
23.999952
 31
0.0
  0
LINE
  5
411
330
3CF
100
AcDbEntity
  8
0
  6
Continuous
 62
     7
100
AcDbLine
 10
36.6499207
 20
27.999944
 30
0.0
 11
36.6499207
 21
23.999952
 31
0.0
  0
LINE
  5
412
330
3CF
100
AcDbEntity
  8
0
  6
Continuous
 62
     7
100
AcDbLine
 10
36.2999154
 20
27.999944
 30
0.0
 11
36.2999154
 21
23.999952
 31
0.0
  0
LINE
  5
413
330
3CF
100
AcDbEntity
  8
0
  6
Continuous
 62
     7
100
AcDbLine
 10
40.2999074
 20
73.999845
 30
0.0
 11
40.2999074
 21
77.999837
 31
0.0
  0
LINE
  5
414
330
3CF
100
AcDbEntity
  8
0
  6
Continuous
 62
     7
100
AcDbLine
 10
39.9499021
 20
73.999845
 30
0.0
 11
39.9499021
 21
77.999837
 31
0.0
  0
LINE
  5
415
330
3CF
100
AcDbEntity
  8
0
  6
Continuous
 62
     7
100
AcDbLine
 10
36.6499207
 20
73.999845
 30
0.0
 11
36.6499207
 21
77.999837
 31
0.0
  0
LINE
  5
416
330
3CF
100
AcDbEntity
  8
0
  6
Continuous
 62
     7
100
AcDbLine
 10
36.2999154
 20
73.999845
 30
0.0
 11
36.2999154
 21
77.999837
 31
0.0
  0
LINE
  5
417
330
3CF
100
AcDbEntity
  8
0
  6
Continuous
 62
     7
100
AcDbLine
 10
2.999994
 20
32.499928
 30
0.0
 11
44.99991
 21
32.499928
 31
0.0
  0
LINE
  5
418
330
3CF
100
AcDbEntity
  8
0
  6
Continuous
 62
     7
100
AcDbLine
 10
2.999994
 20
44.499904
 30
0.0
 11
44.99991
 21
44.499904
 31
0.0
  0
LINE
  5
419
330
3CF
100
AcDbEntity
  8
0
  6
Continuous
 62
     7
100
AcDbLine
 10
2.999994
 20
57.499878
 30
0.0
 11
44.99991
 21
57.499878
 31
0.0
  0
LINE
  5
41A
330
3CF
100
AcDbEntity
  8
0
  6
Continuous
 62
     7
100
AcDbLine
 10
2.999994
 20
69.499854
 30
0.0
 11
44.99991
 21
69.499854
 31
0.0
  0
ENDBLK
  5
41C
330
3CF
100
AcDbEntity
  8
0
100
AcDbBlockEnd
  0
BLOCK
  5
426
330
41F
100
AcDbEntity
  8
0
100
AcDbBlockBegin
  2
DMBLK69
 70
     0
 10
0.0
 20
0.0
 30
0.0
  3
DMBLK69
  1

  0
HATCH
  5
420
330
41F
100
AcDbEntity
  8
寸法
  6
Continuous
 62
     7
100
AcDbHatch
 10
0.0
 20
0.0
 30
0.0
210
0.0
220
0.0
230
1.0
  2
SOLID
 70
     1
 71
     0
 91
        1
 92
        1
 93
        3
 72
     1
 10
202.0407129793831
 20
-37.12338883988735
 11
200.9823796588399
 21
-37.12338883988735
 72
     1
 10
200.9823796588399
 20
-37.12338883988735
 11
201.5115463191115
 21
-40.29838880151686
 72
     1
 10
201.5115463191115
 20
-40.29838880151686
 11
202.0407129793831
 21
-37.12338883988735
 97
        0
 75
     0
 76
     1
 98
        0
  0
HATCH
  5
421
330
41F
100
AcDbEntity
  8
寸法
  6
Continuous
 62
     7
100
AcDbHatch
 10
0.0
 20
0.0
 30
0.0
210
0.0
220
0.0
230
1.0
  2
SOLID
 70
     1
 71
     0
 91
        1
 92
        1
 93
        3
 72
     1
 10
202.0407129793831
 20
58.55231383256438
 11
201.5115463191115
 21
61.72731379419389
 72
     1
 10
201.5115463191115
 20
61.72731379419389
 11
200.9823796588399
 21
58.55231383256438
 72
     1
 10
200.9823796588399
 20
58.55231383256438
 11
202.0407129793831
 21
58.55231383256438
 97
        0
 75
     0
 76
     1
 98
        0
  0
LINE
  5
422
330
41F
100
AcDbEntity
  8
寸法
  6
Continuous
 62
     7
100
AcDbLine
 10
162.1403863437
 20
-40.2983888015
 30
0.0
 11
203.1403874762
 21
-40.2983888015
 31
0.0
  0
LINE
  5
423
330
41F
100
AcDbEntity
  8
寸法
  6
Continuous
 62
     7
100
AcDbLine
 10
158.1403863437
 20
61.7273111975
 30
0.0
 11
203.1403874762
 21
61.7273111975
 31
0.0
  0
LINE
  5
424
330
41F
100
AcDbEntity
  8
寸法
  6
Continuous
 62
     7
100
AcDbLine
 10
201.5115463191
 20
-40.2983888015
 30
0.0
 11
201.5115463191
 21
61.7273137942
 31
0.0
  0
TEXT
  5
425
330
41F
100
AcDbEntity
  8
寸法
  6
Continuous
 62
     7
100
AcDbText
 10
200.6971257462
 20
6.8902267626
 30
0.0
 40
3.2576822917
  1
102
 50
90.0
  7
SEACAD_Arial
 11
197.4394434545
 21
6.8902267626
 31
0.0
100
AcDbText
 73
     3
  0
ENDBLK
  5
427
330
41F
100
AcDbEntity
  8
0
100
AcDbBlockEnd
  0
BLOCK
  5
430
330
429
100
AcDbEntity
  8
0
100
AcDbBlockBegin
  2
DMBLK70
 70
     0
 10
0.0
 20
0.0
 30
0.0
  3
DMBLK70
  1

  0
HATCH
  5
42A
330
429
100
AcDbEntity
  8
寸法
  6
Continuous
 62
     7
100
AcDbHatch
 10
0.0
 20
0.0
 30
0.0
210
0.0
220
0.0
230
1.0
  2
SOLID
 70
     1
 71
     0
 91
        1
 92
        1
 93
        3
 72
     1
 10
112.6544218211109
 20
-62.52916632499546
 11
115.8294217827404
 21
-61.99999966472387
 72
     1
 10
115.8294217827404
 20
-61.99999966472387
 11
112.6544218211109
 21
-61.47083300445229
 72
     1
 10
112.6544218211109
 20
-61.47083300445229
 11
112.6544218211109
 21
-62.52916632499546
 97
        0
 75
     0
 76
     1
 98
        0
  0
HATCH
  5
42B
330
429
100
AcDbEntity
  8
寸法
  6
Continuous
 62
     7
100
AcDbHatch
 10
0.0
 20
0.0
 30
0.0
210
0.0
220
0.0
230
1.0
  2
SOLID
 70
     1
 71
     0
 91
        1
 92
        1
 93
        3
 72
     1
 10
183.6207049453781
 20
-62.52916632499546
 11
183.6207049453781
 21
-61.47083300445229
 72
     1
 10
183.6207049453781
 20
-61.47083300445229
 11
180.4457049837486
 21
-61.99999966472387
 72
     1
 10
180.4457049837486
 20
-61.99999966472387
 11
183.6207049453781
 21
-62.52916632499546
 97
        0
 75
     0
 76
     1
 98
        0
  0
LINE
  5
42C
330
429
100
AcDbEntity
  8
寸法
  6
Continuous
 62
     7
100
AcDbLine
 10
115.8294217827
 20
-48.6288411571
 30
0.0
 11
115.8294217827
 21
-63.6288408218
 31
0.0
  0
LINE
  5
42D
330
429
100
AcDbEntity
  8
寸法
  6
Continuous
 62
     7
100
AcDbLine
 10
180.4457049837
 20
-46.6288411571
 30
0.0
 11
180.4457049837
 21
-63.6288408218
 31
0.0
  0
LINE
  5
42E
330
429
100
AcDbEntity
  8
寸法
  6
Continuous
 62
     7
100
AcDbLine
 10
109.4794218595
 20
-61.9999996647
 30
0.0
 11
186.7957027795
 21
-61.9999996647
 31
0.0
  0
TEXT
  5
42F
330
429
100
AcDbEntity
  8
寸法
  6
Continuous
 62
     7
100
AcDbText
 10
143.675956059
 20
-61.1855790918
 30
0.0
 40
3.2576822917
  1
64.6
  7
SEACAD_Arial
 11
143.675956059
 21
-57.9278968001
 31
0.0
100
AcDbText
 73
     3
  0
ENDBLK
  5
431
330
429
100
AcDbEntity
  8
0
100
AcDbBlockEnd
  0
BLOCK
  5
43C
330
432
100
AcDbEntity
  8
0
100
AcDbBlockBegin
  2
SE28
 70
     0
 10
0.0
 20
0.0
 30
0.0
  3
SE28
  1

  0
INSERT
  5
435
330
432
100
AcDbEntity
  8
0
100
AcDbBlockReference
  2
SE29
 10
0.0
 20
0.0
 30
0.0
  0
ENDBLK
  5
43D
330
432
100
AcDbEntity
  8
0
100
AcDbBlockEnd
  0
BLOCK
  5
43A
330
434
100
AcDbEntity
  8
0
100
AcDbBlockBegin
  2
SE29
 70
     0
 10
0.0
 20
0.0
 30
0.0
  3
SE29
  1

  0
LINE
  5
436
330
434
100
AcDbEntity
  8
0
  6
Continuous
 62
     7
100
AcDbLine
 10
139.2115031411
 20
-55.0
 30
0.0
 11
155.2115031411
 21
-55.0
 31
0.0
  0
LINE
  5
437
330
434
100
AcDbEntity
  8
0
  6
Continuous
 62
     7
100
AcDbLine
 10
155.2115031411
 20
-55.0
 30
0.0
 11
155.2115031411
 21
-60.4125
 31
0.0
  0
LINE
  5
438
330
434
100
AcDbEntity
  8
0
  6
Continuous
 62
     7
100
AcDbLine
 10
155.2115031411
 20
-60.4125
 30
0.0
 11
139.2115031411
 21
-60.4125
 31
0.0
  0
LINE
  5
439
330
434
100
AcDbEntity
  8
0
  6
Continuous
 62
     7
100
AcDbLine
 10
139.2115031411
 20
-60.4125
 30
0.0
 11
139.2115031411
 21
-55.0
 31
0.0
  0
ENDBLK
  5
43B
330
434
100
AcDbEntity
  8
0
100
AcDbBlockEnd
  0
BLOCK
  5
446
330
43F
100
AcDbEntity
  8
0
100
AcDbBlockBegin
  2
DMBLK71
 70
     0
 10
0.0
 20
0.0
 30
0.0
  3
DMBLK71
  1

  0
HATCH
  5
440
330
43F
100
AcDbEntity
  8
寸法
  6
Continuous
 62
     7
100
AcDbHatch
 10
0.0
 20
0.0
 30
0.0
210
0.0
220
0.0
230
1.0
  2
SOLID
 70
     1
 71
     0
 91
        1
 92
        1
 93
        3
 72
     1
 10
-57.95928843622722
 20
-92.54681295667338
 11
-59.01762175677039
 21
-92.54681295667338
 72
     1
 10
-59.01762175677039
 20
-92.54681295667338
 11
-58.4884550964988
 21
-95.72181291830289
 72
     1
 10
-58.4884550964988
 20
-95.72181291830289
 11
-57.95928843622722
 21
-92.54681295667338
 97
        0
 75
     0
 76
     1
 98
        0
  0
HATCH
  5
441
330
43F
100
AcDbEntity
  8
寸法
  6
Continuous
 62
     7
100
AcDbHatch
 10
0.0
 20
0.0
 30
0.0
210
0.0
220
0.0
230
1.0
  2
SOLID
 70
     1
 71
     0
 91
        1
 92
        1
 93
        3
 72
     1
 10
-57.95928843622722
 20
-143.9463237183679
 11
-58.4884550964988
 21
-140.7713237567384
 72
     1
 10
-58.4884550964988
 20
-140.7713237567384
 11
-59.01762175677039
 21
-143.9463237183679
 72
     1
 10
-59.01762175677039
 20
-143.9463237183679
 11
-57.95928843622722
 21
-143.9463237183679
 97
        0
 75
     0
 76
     1
 98
        0
  0
LINE
  5
442
330
43F
100
AcDbEntity
  8
寸法
  6
Continuous
 62
     7
100
AcDbLine
 10
-78.1310872019
 20
-95.7218129183
 30
0.0
 11
-57.131087485
 21
-95.7218129183
 31
0.0
  0
LINE
  5
443
330
43F
100
AcDbEntity
  8
寸法
  6
Continuous
 62
     7
100
AcDbLine
 10
-78.1310872019
 20
-140.7713237567
 30
0.0
 11
-57.131087485
 21
-140.7713237567
 31
0.0
  0
LINE
  5
444
330
43F
100
AcDbEntity
  8
寸法
  6
Continuous
 62
     7
100
AcDbLine
 10
-58.4884550965
 20
-89.371812995
 30
0.0
 11
-58.4884550965
 21
-147.1213232721
 31
0.0
  0
TEXT
  5
445
330
43F
100
AcDbEntity
  8
寸法
  6
Continuous
 62
     7
100
AcDbText
 10
-59.1671389073
 20
-120.371143774
 30
0.0
 40
2.7147352431
  1
45
 50
90.0
  7
SEACAD_Arial
 11
-61.8818741503
 21
-120.371143774
 31
0.0
100
AcDbText
 73
     3
  0
ENDBLK
  5
447
330
43F
100
AcDbEntity
  8
0
100
AcDbBlockEnd
  0
BLOCK
  5
450
330
449
100
AcDbEntity
  8
0
100
AcDbBlockBegin
  2
DMBLK72
 70
     0
 10
0.0
 20
0.0
 30
0.0
  3
DMBLK72
  1

  0
HATCH
  5
44A
330
449
100
AcDbEntity
  8
寸法
  6
Continuous
 62
     7
100
AcDbHatch
 10
0.0
 20
0.0
 30
0.0
210
0.0
220
0.0
230
1.0
  2
SOLID
 70
     1
 71
     0
 91
        1
 92
        1
 93
        3
 72
     1
 10
-57.9592877263624
 20
-83.54681295667336
 11
-59.01762104690557
 21
-83.54681295667336
 72
     1
 10
-59.01762104690557
 20
-83.54681295667336
 11
-58.48845438663398
 21
-86.72181291830287
 72
     1
 10
-58.48845438663398
 20
-86.72181291830287
 11
-57.9592877263624
 21
-83.54681295667336
 97
        0
 75
     0
 76
     1
 98
        0
  0
HATCH
  5
44B
330
449
100
AcDbEntity
  8
寸法
  6
Continuous
 62
     7
100
AcDbHatch
 10
0.0
 20
0.0
 30
0.0
210
0.0
220
0.0
230
1.0
  2
SOLID
 70
     1
 71
     0
 91
        1
 92
        1
 93
        3
 72
     1
 10
-57.9592877263624
 20
-98.8968128799324
 11
-58.48845438663398
 21
-95.72181291830289
 72
     1
 10
-58.48845438663398
 20
-95.72181291830289
 11
-59.01762104690557
 21
-98.8968128799324
 72
     1
 10
-59.01762104690557
 20
-98.8968128799324
 11
-57.9592877263624
 21
-98.8968128799324
 97
        0
 75
     0
 76
     1
 98
        0
  0
LINE
  5
44C
330
449
100
AcDbEntity
  8
寸法
  6
Continuous
 62
     7
100
AcDbLine
 10
-77.8031044836
 20
-86.7218129183
 30
0.0
 11
-57.1310867751
 21
-86.7218129183
 31
0.0
  0
LINE
  5
44D
330
449
100
AcDbEntity
  8
寸法
  6
Continuous
 62
     7
100
AcDbLine
 10
-78.1310872019
 20
-95.7218129183
 30
0.0
 11
-57.1310867751
 21
-95.7218129183
 31
0.0
  0
LINE
  5
44E
330
449
100
AcDbEntity
  8
寸法
  6
Continuous
 62
     7
100
AcDbLine
 10
-58.4884543866
 20
-80.371812995
 30
0.0
 11
-58.4884543866
 21
-102.0718129198
 31
0.0
  0
TEXT
  5
44F
330
449
100
AcDbEntity
  8
寸法
  6
Continuous
 62
     7
100
AcDbText
 10
-59.1671381974
 20
-92.2841004284
 30
0.0
 40
2.7147352431
  1
9
 50
90.0
  7
SEACAD_Arial
 11
-61.8818734405
 21
-92.2841004284
 31
0.0
100
AcDbText
 73
     3
  0
ENDBLK
  5
451
330
449
100
AcDbEntity
  8
0
100
AcDbBlockEnd
  0
BLOCK
  5
45A
330
453
100
AcDbEntity
  8
0
100
AcDbBlockBegin
  2
DMBLK73
 70
     0
 10
0.0
 20
0.0
 30
0.0
  3
DMBLK73
  1

  0
HATCH
  5
454
330
453
100
AcDbEntity
  8
寸法
  6
Continuous
 62
     7
100
AcDbHatch
 10
0.0
 20
0.0
 30
0.0
210
0.0
220
0.0
230
1.0
  2
SOLID
 70
     1
 71
     0
 91
        1
 92
        1
 93
        3
 72
     1
 10
-57.95928879328563
 20
-70.54681295667336
 11
-59.0176221138288
 21
-70.54681295667336
 72
     1
 10
-59.0176221138288
 20
-70.54681295667336
 11
-58.48845545355721
 21
-73.72181291830287
 72
     1
 10
-58.48845545355721
 20
-73.72181291830287
 11
-57.95928879328563
 21
-70.54681295667336
 97
        0
 75
     0
 76
     1
 98
        0
  0
HATCH
  5
455
330
453
100
AcDbEntity
  8
寸法
  6
Continuous
 62
     7
100
AcDbHatch
 10
0.0
 20
0.0
 30
0.0
210
0.0
220
0.0
230
1.0
  2
SOLID
 70
     1
 71
     0
 91
        1
 92
        1
 93
        3
 72
     1
 10
-57.95928879328563
 20
-89.89681287993238
 11
-58.48845545355721
 21
-86.72181291830287
 72
     1
 10
-58.48845545355721
 20
-86.72181291830287
 11
-59.0176221138288
 21
-89.89681287993238
 72
     1
 10
-59.0176221138288
 20
-89.89681287993238
 11
-57.95928879328563
 21
-89.89681287993238
 97
        0
 75
     0
 76
     1
 98
        0
  0
LINE
  5
456
330
453
100
AcDbEntity
  8
寸法
  6
Continuous
 62
     7
100
AcDbLine
 10
-79.3906044836
 20
-73.7218129183
 30
0.0
 11
-57.1310878421
 21
-73.7218129183
 31
0.0
  0
LINE
  5
457
330
453
100
AcDbEntity
  8
寸法
  6
Continuous
 62
     7
100
AcDbLine
 10
-77.8031044836
 20
-86.7218129183
 30
0.0
 11
-57.1310878421
 21
-86.7218129183
 31
0.0
  0
LINE
  5
458
330
453
100
AcDbEntity
  8
寸法
  6
Continuous
 62
     7
100
AcDbLine
 10
-58.4884554536
 20
-67.371812995
 30
0.0
 11
-58.4884554536
 21
-93.0718126441
 31
0.0
  0
TEXT
  5
459
330
453
100
AcDbEntity
  8
寸法
  6
Continuous
 62
     7
100
AcDbText
 10
-59.1671392643
 20
-82.34638846
 30
0.0
 40
2.7147352431
  1
13
 50
90.0
  7
SEACAD_Arial
 11
-61.8818745074
 21
-82.34638846
 31
0.0
100
AcDbText
 73
     3
  0
ENDBLK
  5
45B
330
453
100
AcDbEntity
  8
0
100
AcDbBlockEnd
  0
BLOCK
  5
464
330
45C
100
AcDbEntity
  8
0
100
AcDbBlockBegin
  2
SE30
 70
     0
 10
0.0
 20
0.0
 30
0.0
  3
SE30
  1

  0
INSERT
  5
45F
330
45C
100
AcDbEntity
  8
0
100
AcDbBlockReference
  2
SE31
 10
0.0
 20
0.0
 30
0.0
  0
ENDBLK
  5
465
330
45C
100
AcDbEntity
  8
0
100
AcDbBlockEnd
  0
BLOCK
  5
462
330
45E
100
AcDbEntity
  8
0
100
AcDbBlockBegin
  2
SE31
 70
     0
 10
0.0
 20
0.0
 30
0.0
  3
SE31
  1

  0
MTEXT
  5
460
330
45E
100
AcDbEntity
  8
0
100
AcDbMText
 10
-175.5777980461
 20
8.395408085
 30
0.0
 40
2.7147352431
 41
19.6941802178
 46
3.5538452273
 71
     1
 72
     1
  1
{\fHGPｺﾞｼｯｸM|b0||i0||c0|p34;\C7;\H2.714735243;\W1.;指標マーカー}
 73
     1
 44
1.0
1001
ACAD
1000
ACAD_MTEXT_DEFINED_HEIGHT_BEGIN
1070
    46
1040
3.5538452273
1000
ACAD_MTEXT_DEFINED_HEIGHT_END
  0
MTEXT
  5
461
330
45E
100
AcDbEntity
  8
0
100
AcDbMText
 10
-175.5777980461
 20
4.8415728578
 30
0.0
 40
2.7147352431
 41
7.1076804545
 46
3.5538452273
 71
     1
 72
     1
  1
{\fHGPｺﾞｼｯｸM|b0||i0||c0|p34;\C7;\H2.714735243;\W1.;緑色}
 73
     1
 44
1.0
1001
ACAD
1000
ACAD_MTEXT_DEFINED_HEIGHT_BEGIN
1070
    46
1040
3.5538452273
1000
ACAD_MTEXT_DEFINED_HEIGHT_END
  0
ENDBLK
  5
463
330
45E
100
AcDbEntity
  8
0
100
AcDbBlockEnd
  0
BLOCK
  5
46C
330
466
100
AcDbEntity
  8
0
100
AcDbBlockBegin
  2
グループ-13
 70
     0
 10
0.0
 20
0.0
 30
0.0
  3
グループ-13
  1

  0
MTEXT
  5
467
330
466
100
AcDbEntity
  8
0
100
AcDbMText
 10
3.861076205
 20
7.4255234375
 30
0.0
 40
4.8865234375
 41
44.7783338636
 46
6.3969134091
 71
     1
 72
     1
  1
{\fHGPｺﾞｼｯｸM|b0||i0||c0|p34;\C7;\H4.886523438;\W1.;②開口部寸法図}
 73
     1
 44
1.0
1001
ACAD
1000
ACAD_MTEXT_DEFINED_HEIGHT_BEGIN
1070
    46
1040
6.3969134091
1000
ACAD_MTEXT_DEFINED_HEIGHT_END
  0
LINE
  5
468
330
466
100
AcDbEntity
  8
0
  6
Continuous
 62
     7
100
AcDbLine
 10
0.0
 20
10.0
 30
0.0
 11
51.3634561591
 21
10.0
 31
0.0
  0
LINE
  5
469
330
466
100
AcDbEntity
  8
0
  6
Continuous
 62
     7
100
AcDbLine
 10
51.3634561591
 20
10.0
 30
0.0
 11
51.3634561591
 21
0.0
 31
0.0
  0
LINE
  5
46A
330
466
100
AcDbEntity
  8
0
  6
Continuous
 62
     7
100
AcDbLine
 10
51.3634561591
 20
0.0
 30
0.0
 11
0.0
 21
0.0
 31
0.0
  0
LINE
  5
46B
330
466
100
AcDbEntity
  8
0
  6
Continuous
 62
     7
100
AcDbLine
 10
0.0
 20
0.0
 30
0.0
 11
0.0
 21
10.0
 31
0.0
  0
ENDBLK
  5
46D
330
466
100
AcDbEntity
  8
0
100
AcDbBlockEnd
  0
ENDSEC
  0
SECTION
  2
ENTITIES
  0
MTEXT
  5
6F
330
1F
100
AcDbEntity
  8
一般
100
AcDbMText
 10
-48.5462239815
 20
129.7030580559
 30
0.0
 40
7.9813216146
 41
100.7097772822
 46
10.4482855682
 71
     1
 72
     1
  1
{\fHGPｺﾞｼｯｸM|b0||i0||c0|p34;\C7;\H7.981321615;\W1.;LC-MS05AKL  仕様図}
 73
     1
 44
1.0
1001
ACAD
1000
ACAD_MTEXT_DEFINED_HEIGHT_BEGIN
1070
    46
1040
10.4482855682
1000
ACAD_MTEXT_DEFINED_HEIGHT_END
  0
MTEXT
  5
70
330
1F
100
AcDbEntity
  8
一般
100
AcDbMText
 10
-42.1805030978
 20
-121.8788638974
 30
0.0
 40
4.3435763889
 41
144.5226425758
 46
5.6861463636
 71
     1
 72
     1
  1
{\fHGPｺﾞｼｯｸM|b0||i0||c0|p34;\C7;\H4.343576389;\W1.;※　子機を連結する場合はLC-MS15AKLRを使用して下さい。}
 73
     1
 44
1.0
1001
ACAD
1000
ACAD_MTEXT_DEFINED_HEIGHT_BEGIN
1070
    46
1040
5.6861463636
1000
ACAD_MTEXT_DEFINED_HEIGHT_END
  0
CIRCLE
  5
71
330
1F
100
AcDbEntity
  8
一般
  6
Continuous
 62
     7
100
AcDbCircle
 10
-26.6423579051
 20
-9.2873903043
 30
0.0
 40
22.02271554554524
  0
LINE
  5
72
330
1F
100
AcDbEntity
  8
一般
  6
Continuous
 62
     7
100
AcDbLine
 10
-151.8354720951
 20
65.0260393766
 30
0.0
 11
-151.8354720951
 21
-34.9739606234
 31
0.0
  0
HATCH
  5
73
330
1F
100
AcDbEntity
  8
一般
  6
Continuous
 62
     7
100
AcDbHatch
 10
0.0
 20
0.0
 30
0.0
210
0.0
220
0.0
230
1.0
  2
SOLID
 70
     1
 71
     0
 91
        1
 92
        1
 93
        4
 72
     1
 10
-134.490262695537
 20
75.00717676105495
 11
-133.490262695537
 21
75.00717676105495
 72
     1
 10
-133.490262695537
 20
75.00717676105495
 11
-133.490262695537
 21
95.03819690516187
 72
     1
 10
-133.490262695537
 20
95.03819690516187
 11
-134.490262695537
 21
95.03819690516187
 72
     1
 10
-134.490262695537
 20
95.03819690516187
 11
-134.490262695537
 21
75.00717676105495
 97
        0
 75
     0
 76
     1
 98
        0
  0
LINE
  5
74
330
1F
100
AcDbEntity
  8
一般
  6
Continuous
 62
     7
100
AcDbLine
 10
-134.4902626955
 20
75.0071767611
 30
0.0
 11
-134.4902626955
 21
95.0381969052
 31
0.0
  0
LINE
  5
75
330
1F
100
AcDbEntity
  8
一般
  6
Continuous
 62
     7
100
AcDbLine
 10
-134.4902626955
 20
95.0381969052
 30
0.0
 11
-133.4902626955
 21
95.0381969052
 31
0.0
  0
LINE
  5
76
330
1F
100
AcDbEntity
  8
一般
  6
Continuous
 62
     7
100
AcDbLine
 10
-133.4902626955
 20
95.0381969052
 30
0.0
 11
-133.4902626955
 21
75.0071767611
 31
0.0
  0
LINE
  5
77
330
1F
100
AcDbEntity
  8
一般
  6
Continuous
 62
     7
100
AcDbLine
 10
-133.4902626955
 20
75.0071767611
 30
0.0
 11
-134.4902626955
 21
75.0071767611
 31
0.0
  0
HATCH
  5
78
330
1F
100
AcDbEntity
  8
一般
  6
Continuous
 62
     7
100
AcDbHatch
 10
0.0
 20
0.0
 30
0.0
210
0.0
220
0.0
230
1.0
  2
SOLID
 70
     1
 71
     0
 91
        1
 92
        1
 93
        4
 72
     1
 10
-136.6423930543878
 20
75.00717676105495
 11
-135.6423930543878
 21
75.00717676105495
 72
     1
 10
-135.6423930543878
 20
75.00717676105495
 11
-135.6423930543878
 21
95.03819690516187
 72
     1
 10
-135.6423930543878
 20
95.03819690516187
 11
-136.6423930543878
 21
95.03819690516187
 72
     1
 10
-136.6423930543878
 20
95.03819690516187
 11
-136.6423930543878
 21
75.00717676105495
 97
        0
 75
     0
 76
     1
 98
        0
  0
LINE
  5
79
330
1F
100
AcDbEntity
  8
一般
  6
Continuous
 62
     7
100
AcDbLine
 10
-136.6423930544
 20
75.0071767611
 30
0.0
 11
-136.6423930544
 21
95.0381969052
 31
0.0
  0
LINE
  5
7A
330
1F
100
AcDbEntity
  8
一般
  6
Continuous
 62
     7
100
AcDbLine
 10
-136.6423930544
 20
95.0381969052
 30
0.0
 11
-135.6423930544
 21
95.0381969052
 31
0.0
  0
LINE
  5
7B
330
1F
100
AcDbEntity
  8
一般
  6
Continuous
 62
     7
100
AcDbLine
 10
-135.6423930544
 20
95.0381969052
 30
0.0
 11
-135.6423930544
 21
75.0071767611
 31
0.0
  0
LINE
  5
7C
330
1F
100
AcDbEntity
  8
一般
  6
Continuous
 62
     7
100
AcDbLine
 10
-135.6423930544
 20
75.0071767611
 30
0.0
 11
-136.6423930544
 21
75.0071767611
 31
0.0
  0
CIRCLE
  5
7D
330
1F
100
AcDbEntity
  8
一般
  6
Continuous
 62
     7
100
AcDbCircle
 10
-132.7780908542
 20
-116.5369310967
 30
0.0
 40
11.50000000000001
  0
CIRCLE
  5
7E
330
1F
100
AcDbEntity
  8
一般
  6
Continuous
 62
     7
100
AcDbCircle
 10
-101.3019155715
 20
-116.5369310967
 30
0.0
 40
11.50000000000001
  0
CIRCLE
  5
80
330
1F
100
AcDbEntity
  8
_Translation
  6
Continuous
 62
     7
100
AcDbCircle
 10
-154.4884548134
 20
-43.9739606234
 30
0.0
 40
0.01
  0
CIRCLE
  5
81
330
1F
100
AcDbEntity
  8
_Translation
  6
Continuous
 62
     7
100
AcDbCircle
 10
-153.3363825291
 20
75.0260393766
 30
0.0
 40
0.01
  0
CIRCLE
  5
82
330
1F
100
AcDbEntity
  8
_Translation
  6
Continuous
 62
     7
100
AcDbCircle
 10
176.5115451866
 20
-37.7977588015
 30
0.0
 40
0.01
  0
CIRCLE
  5
83
330
1F
100
AcDbEntity
  8
_Translation
  6
Continuous
 62
     7
100
AcDbCircle
 10
176.5115451866
 20
60.2096964255
 30
0.0
 40
0.01
  0
CIRCLE
  5
84
330
1F
100
AcDbEntity
  8
_Translation
  6
Continuous
 62
     7
100
AcDbCircle
 10
-82.8354720951
 20
83.0
 30
0.0
 40
0.01
  0
CIRCLE
  5
85
330
1F
100
AcDbEntity
  8
_Translation
  6
Continuous
 62
     7
100
AcDbCircle
 10
-151.8354720951
 20
83.0
 30
0.0
 40
0.01
  0
LINE
  5
86
330
1F
100
AcDbEntity
  8
一般
  6
Continuous
 62
     7
100
AcDbLine
 10
-141.8354720951
 20
75.0260393766
 30
0.0
 11
-91.8354720951
 21
75.0260393766
 31
0.0
  0
CIRCLE
  5
87
330
1F
100
AcDbEntity
  8
_Translation
  6
Continuous
 62
     7
100
AcDbCircle
 10
-154.4884548134
 20
38.5260393766
 30
0.0
 40
0.01
  0
CIRCLE
  5
88
330
1F
100
AcDbEntity
  8
_Translation
  6
Continuous
 62
     7
100
AcDbCircle
 10
-153.3363825291
 20
75.0260393766
 30
0.0
 40
0.01
  0
MTEXT
  5
89
330
1F
100
AcDbEntity
  8
一般
100
AcDbMText
 10
-96.6735824628
 20
59.4916781705
 30
0.0
 40
3.2576822917
 41
4.9753793182
 46
4.2646122727
 71
     1
 72
     1
  1
{\fHGPｺﾞｼｯｸM|b0||i0||c0|p34;\C7;\H3.257682292;\W1.;23}
 73
     1
 44
1.0
1001
ACAD
1000
ACAD_MTEXT_DEFINED_HEIGHT_BEGIN
1070
    46
1040
4.2646122727
1000
ACAD_MTEXT_DEFINED_HEIGHT_END
  0
LINE
  5
8A
330
1F
100
AcDbEntity
  8
一般
  6
Continuous
 62
     7
100
AcDbLine
 10
-111.1791666667
 20
46.5260393766
 30
0.0
 11
-106.3755336681
 21
54.8461757909
 31
0.0
  0
LINE
  5
8B
330
1F
100
AcDbEntity
  8
一般
  6
Continuous
 62
     7
100
AcDbLine
 10
-106.3755336681
 20
54.8461757909
 30
0.0
 11
-86.1791666667
 21
54.8461757909
 31
0.0
  0
LINE
  5
8C
330
1F
100
AcDbEntity
  8
一般
  6
Continuous
 62
     7
100
AcDbLine
 10
38.6607781056
 20
62.0
 30
0.0
 11
38.7522415365
 21
-31.0
 31
0.0
  0
LINE
  5
8D
330
1F
100
AcDbEntity
  8
一般
  6
Continuous
 62
     7
100
AcDbLine
 10
38.7522415365
 20
-31.0
 30
0.0
 11
39.1573401825
 21
-31.0
 31
0.0
  0
LINE
  5
8E
330
1F
100
AcDbEntity
  8
一般
  6
Continuous
 62
     7
100
AcDbLine
 10
38.6607781056
 20
62.0
 30
0.0
 11
39.1607781056
 21
62.0
 31
0.0
  0
CIRCLE
  5
8F
330
1F
100
AcDbEntity
  8
_Translation
  6
Continuous
 62
     7
100
AcDbCircle
 10
-156.4884548134
 20
-8.964816218
 30
0.0
 40
0.01
  0
CIRCLE
  5
90
330
1F
100
AcDbEntity
  8
_Translation
  6
Continuous
 62
     7
100
AcDbCircle
 10
-156.4884548134
 20
-43.964816218
 30
0.0
 40
0.01
  0
CIRCLE
  5
91
330
1F
100
AcDbEntity
  8
_Translation
  6
Continuous
 62
     7
100
AcDbCircle
 10
-79.5904851271
 20
62.0
 30
0.0
 40
0.01
  0
CIRCLE
  5
92
330
1F
100
AcDbEntity
  8
_Translation
  6
Continuous
 62
     7
100
AcDbCircle
 10
-79.5904851271
 20
75.0260393766
 30
0.0
 40
0.01
  0
CIRCLE
  5
93
330
1F
100
AcDbEntity
  8
_Translation
  6
Continuous
 62
     7
100
AcDbCircle
 10
-79.5904851271
 20
-31.0
 30
0.0
 40
0.01
  0
CIRCLE
  5
94
330
1F
100
AcDbEntity
  8
_Translation
  6
Continuous
 62
     7
100
AcDbCircle
 10
-79.5904851271
 20
62.0
 30
0.0
 40
0.01
  0
CIRCLE
  5
95
330
1F
100
AcDbEntity
  8
_Translation
  6
Continuous
 62
     7
100
AcDbCircle
 10
-95.8354720951
 20
-54.3097817084
 30
0.0
 40
0.01
  0
CIRCLE
  5
96
330
1F
100
AcDbEntity
  8
_Translation
  6
Continuous
 62
     7
100
AcDbCircle
 10
-82.8354720951
 20
-50.1910317084
 30
0.0
 40
0.01
  0
CIRCLE
  5
97
330
1F
100
AcDbEntity
  8
_Translation
  6
Continuous
 62
     7
100
AcDbCircle
 10
-138.8311663853
 20
-50.0
 30
0.0
 40
0.01
  0
CIRCLE
  5
98
330
1F
100
AcDbEntity
  8
_Translation
  6
Continuous
 62
     7
100
AcDbCircle
 10
-95.8311663853
 20
-50.0
 30
0.0
 40
0.01
  0
CIRCLE
  5
99
330
1F
100
AcDbEntity
  8
_Translation
  6
Continuous
 62
     7
100
AcDbCircle
 10
-79.5904851271
 20
-31.0
 30
0.0
 40
0.01
  0
CIRCLE
  5
9A
330
1F
100
AcDbEntity
  8
_Translation
  6
Continuous
 62
     7
100
AcDbCircle
 10
-78.9009548134
 20
-16.0
 30
0.0
 40
0.01
  0
CIRCLE
  5
9B
330
1F
100
AcDbEntity
  8
_Translation
  6
Continuous
 62
     7
100
AcDbCircle
 10
-80.4884548134
 20
-3.0
 30
0.0
 40
0.01
  0
CIRCLE
  5
9C
330
1F
100
AcDbEntity
  8
_Translation
  6
Continuous
 62
     7
100
AcDbCircle
 10
-80.4884548134
 20
-16.0
 30
0.0
 40
0.01
  0
CIRCLE
  5
9D
330
1F
100
AcDbEntity
  8
_Translation
  6
Continuous
 62
     7
100
AcDbCircle
 10
-111.4735582933
 20
1.6027126342
 30
0.0
 40
0.01
  0
CIRCLE
  5
9E
330
1F
100
AcDbEntity
  8
_Translation
  6
Continuous
 62
     7
100
AcDbCircle
 10
-96.4735582933
 20
1.6027126342
 30
0.0
 40
0.01
  0
CIRCLE
  5
9F
330
1F
100
AcDbEntity
  8
_Translation
  6
Continuous
 62
     7
100
AcDbCircle
 10
-20.3601836417
 20
-6.7147817254
 30
0.0
 40
0.01
  0
CIRCLE
  5
A0
330
1F
100
AcDbEntity
  8
_Translation
  6
Continuous
 62
     7
100
AcDbCircle
 10
-33.3601836417
 20
-5.1272817254
 30
0.0
 40
0.01
  0
CIRCLE
  5
A1
330
1F
100
AcDbEntity
  8
_Translation
  6
Continuous
 62
     7
100
AcDbCircle
 10
-28.3601836417
 20
-4.7147817254
 30
0.0
 40
0.01
  0
CIRCLE
  5
A2
330
1F
100
AcDbEntity
  8
_Translation
  6
Continuous
 62
     7
100
AcDbCircle
 10
-33.3601836417
 20
-5.7147817254
 30
0.0
 40
0.01
  0
CIRCLE
  5
A3
330
1F
100
AcDbEntity
  8
_Translation
  6
Continuous
 62
     7
100
AcDbCircle
 10
-25.3834304204
 20
-5.1272817254
 30
0.0
 40
0.01
  0
CIRCLE
  5
A4
330
1F
100
AcDbEntity
  8
_Translation
  6
Continuous
 62
     7
100
AcDbCircle
 10
-28.3834304204
 20
-5.0188686198
 30
0.0
 40
0.01
  0
CIRCLE
  5
A5
330
1F
100
AcDbEntity
  8
_Translation
  6
Continuous
 62
     7
100
AcDbCircle
 10
-19.7726836417
 20
-8.7147817254
 30
0.0
 40
0.01
  0
CIRCLE
  5
A6
330
1F
100
AcDbEntity
  8
_Translation
  6
Continuous
 62
     7
100
AcDbCircle
 10
-21.3601836417
 20
-6.7147817254
 30
0.0
 40
0.01
  0
CIRCLE
  5
A7
330
1F
100
AcDbEntity
  8
_Translation
  6
Continuous
 62
     7
100
AcDbCircle
 10
-21.3601836417
 20
-10.7147817254
 30
0.0
 40
0.01
  0
CIRCLE
  5
A8
330
1F
100
AcDbEntity
  8
_Translation
  6
Continuous
 62
     7
100
AcDbCircle
 10
-21.3601836417
 20
-8.7147817254
 30
0.0
 40
0.01
  0
CIRCLE
  5
A9
330
1F
100
AcDbEntity
  8
_Translation
  6
Continuous
 62
     7
100
AcDbCircle
 10
-33.3601836417
 20
-19.7147817254
 30
0.0
 40
0.01
  0
CIRCLE
  5
AA
330
1F
100
AcDbEntity
  8
_Translation
  6
Continuous
 62
     7
100
AcDbCircle
 10
-33.3601836417
 20
-6.7147817254
 30
0.0
 40
0.01
  0
HATCH
  5
AB
330
1F
100
AcDbEntity
  8
一般
  6
Continuous
 62
     7
100
AcDbHatch
 10
0.0
 20
0.0
 30
0.0
210
0.0
220
0.0
230
1.0
  2
SOLID
 70
     1
 71
     0
 91
        1
 92
        1
 93
        4
 72
     1
 10
-28.36018364168729
 20
-8.714781725440162
 11
-28.36018364168729
 21
-10.71478172544016
 72
     1
 10
-28.36018364168729
 20
-10.71478172544016
 11
-25.36018364168728
 21
-10.71478172544016
 72
     1
 10
-25.36018364168729
 20
-10.71478172544016
 11
-25.36018364168729
 21
-8.714781725440162
 72
     1
 10
-25.36018364168729
 20
-8.714781725440162
 11
-28.36018364168729
 21
-8.714781725440162
 97
        0
 75
     0
 76
     1
 98
        0
  0
LINE
  5
AC
330
1F
100
AcDbEntity
  8
一般
  6
Continuous
 62
     7
100
AcDbLine
 10
-28.3601836417
 20
-8.7147817254
 30
0.0
 11
-25.3601836417
 21
-8.7147817254
 31
0.0
  0
LINE
  5
AD
330
1F
100
AcDbEntity
  8
一般
  6
Continuous
 62
     7
100
AcDbLine
 10
-25.3601836417
 20
-8.7147817254
 30
0.0
 11
-25.3601836417
 21
-10.7147817254
 31
0.0
  0
LINE
  5
AE
330
1F
100
AcDbEntity
  8
一般
  6
Continuous
 62
     7
100
AcDbLine
 10
-25.3601836417
 20
-10.7147817254
 30
0.0
 11
-28.3601836417
 21
-10.7147817254
 31
0.0
  0
LINE
  5
AF
330
1F
100
AcDbEntity
  8
一般
  6
Continuous
 62
     7
100
AcDbLine
 10
-28.3601836417
 20
-10.7147817254
 30
0.0
 11
-28.3601836417
 21
-8.7147817254
 31
0.0
  0
MTEXT
  5
B0
330
1F
100
AcDbEntity
  8
一般
100
AcDbMText
 10
-37.587185955
 20
-24.5898412197
 30
0.0
 40
2.4432617188
 41
23.721860142
 46
3.1984617045
 71
     1
 72
     1
  1
{\fHGPｺﾞｼｯｸM|b0||i0||c0|p34;\C7;\H2.443261719;\W1.;ホタ ルランプ詳細}
 73
     1
 44
1.0
1001
ACAD
1000
ACAD_MTEXT_DEFINED_HEIGHT_BEGIN
1070
    46
1040
3.1984617045
1000
ACAD_MTEXT_DEFINED_HEIGHT_END
  0
HATCH
  5
B1
330
1F
100
AcDbEntity
  8
一般
  6
Continuous
 62
     7
100
AcDbHatch
 10
0.0
 20
0.0
 30
0.0
210
0.0
220
0.0
230
1.0
  2
SOLID
 70
     1
 71
     0
 91
        1
 92
        1
 93
        4
 72
     1
 10
-99.54862397196064
 20
75.01955220509097
 11
-98.54862397196064
 21
75.01955220509097
 72
     1
 10
-98.54862397196064
 20
75.01955220509097
 11
-98.54862397196064
 21
95.05057234919789
 72
     1
 10
-98.54862397196064
 20
95.05057234919789
 11
-99.54862397196064
 21
95.05057234919789
 72
     1
 10
-99.54862397196064
 20
95.05057234919789
 11
-99.54862397196064
 21
75.01955220509097
 97
        0
 75
     0
 76
     1
 98
        0
  0
LINE
  5
B2
330
1F
100
AcDbEntity
  8
一般
  6
Continuous
 62
     7
100
AcDbLine
 10
-99.548623972
 20
75.0195522051
 30
0.0
 11
-99.548623972
 21
95.0505723492
 31
0.0
  0
LINE
  5
B3
330
1F
100
AcDbEntity
  8
一般
  6
Continuous
 62
     7
100
AcDbLine
 10
-99.548623972
 20
95.0505723492
 30
0.0
 11
-98.548623972
 21
95.0505723492
 31
0.0
  0
LINE
  5
B4
330
1F
100
AcDbEntity
  8
一般
  6
Continuous
 62
     7
100
AcDbLine
 10
-98.548623972
 20
95.0505723492
 30
0.0
 11
-98.548623972
 21
75.0195522051
 31
0.0
  0
LINE
  5
B5
330
1F
100
AcDbEntity
  8
一般
  6
Continuous
 62
     7
100
AcDbLine
 10
-98.548623972
 20
75.0195522051
 30
0.0
 11
-99.548623972
 21
75.0195522051
 31
0.0
  0
MTEXT
  5
B6
330
1F
100
AcDbEntity
  8
一般
100
AcDbMText
 10
-70.1877744225
 20
98.5331192697
 30
0.0
 40
4.8865234375
 41
6.3969134091
 46
6.3969134091
 71
     1
 72
     1
  1
{\fHGPｺﾞｼｯｸM|b0||i0||c0|p34;\C7;\H4.886523438;\W1.;①}
 73
     1
 44
1.0
1001
ACAD
1000
ACAD_MTEXT_DEFINED_HEIGHT_BEGIN
1070
    46
1040
6.3969134091
1000
ACAD_MTEXT_DEFINED_HEIGHT_END
  0
MTEXT
  5
B7
330
1F
100
AcDbEntity
  8
一般
100
AcDbMText
 10
96.294093469
 20
84.4032216957
 30
0.0
 40
4.8865234375
 41
6.3969134091
 46
6.3969134091
 71
     1
 72
     1
  1
{\fHGPｺﾞｼｯｸM|b0||i0||c0|p34;\C7;\H4.886523438;\W1.;②}
 73
     1
 44
1.0
1001
ACAD
1000
ACAD_MTEXT_DEFINED_HEIGHT_BEGIN
1070
    46
1040
6.3969134091
1000
ACAD_MTEXT_DEFINED_HEIGHT_END
  0
MTEXT
  5
B8
330
1F
100
AcDbEntity
  8
一般
100
AcDbMText
 10
-181.1877744225
 20
97.8124317744
 30
0.0
 40
4.8865234375
 41
6.3969134091
 46
6.3969134091
 71
     1
 72
     1
  1
{\fHGPｺﾞｼｯｸM|b0||i0||c0|p34;\C7;\H4.886523438;\W1.;③}
 73
     1
 44
1.0
1001
ACAD
1000
ACAD_MTEXT_DEFINED_HEIGHT_BEGIN
1070
    46
1040
6.3969134091
1000
ACAD_MTEXT_DEFINED_HEIGHT_END
  0
MTEXT
  5
B9
330
1F
100
AcDbEntity
  8
一般
100
AcDbMText
 10
-178.6859187272
 20
-64.3458536352
 30
0.0
 40
4.8865234375
 41
6.3969134091
 46
6.3969134091
 71
     1
 72
     1
  1
{\fHGPｺﾞｼｯｸM|b0||i0||c0|p34;\C7;\H4.886523438;\W1.;④}
 73
     1
 44
1.0
1001
ACAD
1000
ACAD_MTEXT_DEFINED_HEIGHT_BEGIN
1070
    46
1040
6.3969134091
1000
ACAD_MTEXT_DEFINED_HEIGHT_END
  0
MTEXT
  5
BA
330
1F
100
AcDbEntity
  8
一般
100
AcDbMText
 10
-72.4859428141
 20
111.0410949912
 30
0.0
 40
4.8865234375
 41
6.3969134091
 46
6.3969134091
 71
     1
 72
     1
  1
{\fHGPｺﾞｼｯｸM|b0||i0||c0|p34;\C7;\H4.886523438;\W1.;⑤}
 73
     1
 44
1.0
1001
ACAD
1000
ACAD_MTEXT_DEFINED_HEIGHT_BEGIN
1070
    46
1040
6.3969134091
1000
ACAD_MTEXT_DEFINED_HEIGHT_END
  0
MTEXT
  5
BB
330
1F
100
AcDbEntity
  8
一般
100
AcDbMText
 10
-84.1877744225
 20
112.8124317744
 30
0.0
 40
4.8865234375
 41
6.3969134091
 46
6.3969134091
 71
     1
 72
     1
  1
{\fHGPｺﾞｼｯｸM|b0||i0||c0|p34;\C7;\H4.886523438;\W1.;⑥}
 73
     1
 44
1.0
1001
ACAD
1000
ACAD_MTEXT_DEFINED_HEIGHT_BEGIN
1070
    46
1040
6.3969134091
1000
ACAD_MTEXT_DEFINED_HEIGHT_END
  0
MTEXT
  5
BC
330
1F
100
AcDbEntity
  8
一般
100
AcDbMText
 10
-156.3541666667
 20
114.6374317744
 30
0.0
 40
4.8865234375
 41
6.3969134091
 46
6.3969134091
 71
     1
 72
     1
  1
{\fHGPｺﾞｼｯｸM|b0||i0||c0|p34;\C7;\H4.886523438;\W1.;⑦}
 73
     1
 44
1.0
1001
ACAD
1000
ACAD_MTEXT_DEFINED_HEIGHT_BEGIN
1070
    46
1040
6.3969134091
1000
ACAD_MTEXT_DEFINED_HEIGHT_END
  0
MTEXT
  5
BD
330
1F
100
AcDbEntity
  8
一般
100
AcDbMText
 10
-169.1877744225
 20
110.9327063027
 30
0.0
 40
4.8865234375
 41
6.3969134091
 46
6.3969134091
 71
     1
 72
     1
  1
{\fHGPｺﾞｼｯｸM|b0||i0||c0|p34;\C7;\H4.886523438;\W1.;⑧}
 73
     1
 44
1.0
1001
ACAD
1000
ACAD_MTEXT_DEFINED_HEIGHT_BEGIN
1070
    46
1040
6.3969134091
1000
ACAD_MTEXT_DEFINED_HEIGHT_END
  0
LINE
  5
BE
330
1F
100
AcDbEntity
  8
一般
  6
Continuous
 62
     7
100
AcDbLine
 10
-95.0127744225
 20
68.2119083369
 30
0.0
 11
-69.0127744225
 21
94.2119083369
 31
0.0
  0
LINE
  5
BF
330
1F
100
AcDbEntity
  8
一般
  6
Continuous
 62
     7
100
AcDbLine
 10
73.287911694
 20
55.5253459801
 30
0.0
 11
97.287911694
 21
79.5253459801
 31
0.0
  0
LINE
  5
C0
330
1F
100
AcDbEntity
  8
一般
  6
Continuous
 62
     7
100
AcDbLine
 10
-122.0127744225
 20
39.2119083369
 30
0.0
 11
-176.0127744225
 21
93.2119083369
 31
0.0
  0
LINE
  5
C1
330
1F
100
AcDbEntity
  8
一般
  6
Continuous
 62
     7
100
AcDbLine
 10
-118.32931069
 20
-9.9463770727
 30
0.0
 11
-173.32931069
 21
-64.9463770727
 31
0.0
  0
LINE
  5
C2
330
1F
100
AcDbEntity
  8
一般
  6
Continuous
 62
     7
100
AcDbLine
 10
-102.0521565723
 20
89.2119083369
 30
0.0
 11
-83.0521565723
 21
108.2119083369
 31
0.0
  0
LINE
  5
C3
330
1F
100
AcDbEntity
  8
一般
  6
Continuous
 62
     7
100
AcDbLine
 10
-98.548623972
 20
79.0795905317
 30
0.0
 11
-71.4163061667
 21
106.2119083369
 31
0.0
  0
LINE
  5
C4
330
1F
100
AcDbEntity
  8
一般
  6
Continuous
 62
     7
100
AcDbLine
 10
-133.4902626955
 20
90.2119083369
 30
0.0
 11
-153.0127744225
 21
109.7344200639
 31
0.0
  0
LINE
  5
C5
330
1F
100
AcDbEntity
  8
一般
  6
Continuous
 62
     7
100
AcDbLine
 10
-136.6423930544
 20
79.2119083369
 30
0.0
 11
-164.0127744225
 21
106.582289705
 31
0.0
  0
HATCH
  5
C6
330
1F
100
AcDbEntity
  8
一般
  6
Continuous
 62
     7
100
AcDbHatch
 10
0.0
 20
0.0
 30
0.0
210
0.0
220
0.0
230
1.0
  2
SOLID
 70
     1
 71
     0
 91
        1
 92
        1
 93
        4
 72
     1
 10
-126.6661286782244
 20
30.88763921697511
 11
-126.3125752876311
 21
30.53408582638184
 72
     1
 10
-126.3125752876311
 20
30.53408582638184
 11
-124.1912549440715
 21
32.65540616994149
 72
     1
 10
-124.1912549440715
 20
32.65540616994149
 11
-124.5448083346648
 21
33.00895956053476
 72
     1
 10
-124.5448083346648
 20
33.00895956053476
 11
-126.6661286782244
 21
30.88763921697511
 97
        0
 75
     0
 76
     1
 98
        0
  0
LINE
  5
C7
330
1F
100
AcDbEntity
  8
一般
  6
Continuous
 62
     7
100
AcDbLine
 10
-126.6661286782
 20
30.887639217
 30
0.0
 11
-124.5448083347
 21
33.0089595605
 31
0.0
  0
LINE
  5
C8
330
1F
100
AcDbEntity
  8
一般
  6
Continuous
 62
     7
100
AcDbLine
 10
-124.5448083347
 20
33.0089595605
 30
0.0
 11
-124.1912549441
 21
32.6554061699
 31
0.0
  0
LINE
  5
C9
330
1F
100
AcDbEntity
  8
一般
  6
Continuous
 62
     7
100
AcDbLine
 10
-124.1912549441
 20
32.6554061699
 30
0.0
 11
-126.3125752876
 21
30.5340858264
 31
0.0
  0
LINE
  5
CA
330
1F
100
AcDbEntity
  8
一般
  6
Continuous
 62
     7
100
AcDbLine
 10
-126.3125752876
 20
30.5340858264
 30
0.0
 11
-126.6661286782
 21
30.887639217
 31
0.0
  0
LINE
  5
CB
330
1F
100
AcDbEntity
  8
0
  6
Continuous
 62
     7
100
AcDbLine
 10
136.5483706424
 20
61.7273111975
 30
0.0
 11
152.1248879359
 21
61.7273111975
 31
0.0
  0
LINE
  5
CC
330
1F
100
AcDbEntity
  8
0
  6
Continuous
 62
     7
100
AcDbLine
 10
172.8437927845
 20
42.7225201967
 30
0.0
 11
172.8437927845
 21
59.2266811975
 31
0.0
  0
LINE
  5
CD
330
1F
100
AcDbEntity
  8
0
  6
Continuous
 62
     7
100
AcDbLine
 10
115.8294217827
 20
-37.7977588015
 30
0.0
 11
115.8294217827
 21
59.2266811975
 31
0.0
  0
LINE
  5
CE
330
1F
100
AcDbEntity
  8
0
  6
Continuous
 62
     7
100
AcDbLine
 10
118.3300517827
 20
9.2140781967
 30
0.0
 11
118.3300517827
 21
10.7144561967
 31
0.0
  0
LINE
  5
CF
330
1F
100
AcDbEntity
  8
0
  6
Continuous
 62
     7
100
AcDbLine
 10
178.845302784
 20
35.7207561967
 30
0.0
 11
178.845302784
 21
41.7222681967
 31
0.0
  0
LINE
  5
D0
330
1F
100
AcDbEntity
  8
0
  6
Continuous
 62
     7
100
AcDbLine
 10
172.8437927845
 20
-37.7977588015
 30
0.0
 11
172.8437927845
 21
-21.2936008015
 31
0.0
  0
LINE
  5
D1
330
1F
100
AcDbEntity
  8
0
  6
Continuous
 62
     7
100
AcDbLine
 10
180.4457049837
 20
31.7197481967
 30
0.0
 11
180.4457049837
 21
35.7207561967
 31
0.0
  0
LINE
  5
D2
330
1F
100
AcDbEntity
  8
0
  6
Continuous
 62
     7
100
AcDbLine
 10
178.845302784
 20
8.7139521967
 30
0.0
 11
180.4457049837
 21
8.7139521967
 31
0.0
  0
LINE
  5
D3
330
1F
100
AcDbEntity
  8
0
  6
Continuous
 62
     7
100
AcDbLine
 10
178.845302784
 20
12.7149601967
 30
0.0
 11
180.4457049837
 21
12.7149601967
 31
0.0
  0
LINE
  5
D4
330
1F
100
AcDbEntity
  8
0
  6
Continuous
 62
     7
100
AcDbLine
 10
178.845302784
 20
-10.2908288015
 30
0.0
 11
178.845302784
 21
8.7139521967
 31
0.0
  0
LINE
  5
D5
330
1F
100
AcDbEntity
  8
0
  6
Continuous
 62
     7
100
AcDbLine
 10
178.845302784
 20
31.7197481967
 30
0.0
 11
180.4457049837
 21
31.7197481967
 31
0.0
  0
LINE
  5
D6
330
1F
100
AcDbEntity
  8
0
  6
Continuous
 62
     7
100
AcDbLine
 10
178.845302784
 20
35.7207561967
 30
0.0
 11
180.4457049837
 21
35.7207561967
 31
0.0
  0
LINE
  5
D7
330
1F
100
AcDbEntity
  8
0
  6
Continuous
 62
     7
100
AcDbLine
 10
180.4457049837
 20
8.7139521967
 30
0.0
 11
180.4457049837
 21
12.7149601967
 31
0.0
  0
LINE
  5
D8
330
1F
100
AcDbEntity
  8
0
  6
Continuous
 62
     7
100
AcDbLine
 10
178.845302784
 20
12.7149601967
 30
0.0
 11
178.845302784
 21
31.7197481967
 31
0.0
  0
LINE
  5
D9
330
1F
100
AcDbEntity
  8
0
  6
Continuous
 62
     7
100
AcDbLine
 10
180.4457049837
 20
-16.2923408015
 30
0.0
 11
180.4457049837
 21
-20.2933488015
 31
0.0
  0
LINE
  5
DA
330
1F
100
AcDbEntity
  8
0
  6
Continuous
 62
     7
100
AcDbLine
 10
178.845302784
 20
-10.2908288015
 30
0.0
 11
180.4457049837
 21
-10.2908288015
 31
0.0
  0
LINE
  5
DB
330
1F
100
AcDbEntity
  8
0
  6
Continuous
 62
     7
100
AcDbLine
 10
178.845302784
 20
-14.2918368015
 30
0.0
 11
180.4457049837
 21
-14.2918368015
 31
0.0
  0
LINE
  5
DC
330
1F
100
AcDbEntity
  8
0
  6
Continuous
 62
     7
100
AcDbLine
 10
178.845302784
 20
-20.2933488015
 30
0.0
 11
178.845302784
 21
-14.2918368015
 31
0.0
  0
LINE
  5
DD
330
1F
100
AcDbEntity
  8
0
  6
Continuous
 62
     7
100
AcDbLine
 10
178.845302784
 20
-16.2923408015
 30
0.0
 11
180.4457049837
 21
-16.2923408015
 31
0.0
  0
LINE
  5
DE
330
1F
100
AcDbEntity
  8
0
  6
Continuous
 62
     7
100
AcDbLine
 10
180.4457049837
 20
-10.2908288015
 30
0.0
 11
180.4457049837
 21
-14.2918368015
 31
0.0
  0
LINE
  5
DF
330
1F
100
AcDbEntity
  8
0
  6
Continuous
 62
     7
100
AcDbLine
 10
178.845302784
 20
37.7212601967
 30
0.0
 11
180.4457049837
 21
37.7212601967
 31
0.0
  0
LINE
  5
E0
330
1F
100
AcDbEntity
  8
0
  6
Continuous
 62
     7
100
AcDbLine
 10
180.4457049837
 20
37.7212601967
 30
0.0
 11
180.4457049837
 21
41.7222681967
 31
0.0
  0
LINE
  5
E1
330
1F
100
AcDbEntity
  8
0
  6
Continuous
 62
     7
100
AcDbLine
 10
142.3361057843
 20
-16.2923408015
 30
0.0
 11
146.3371137843
 21
-16.2923408015
 31
0.0
  0
LINE
  5
E2
330
1F
100
AcDbEntity
  8
0
  6
Continuous
 62
     7
100
AcDbLine
 10
142.3361057843
 20
-20.2933488015
 30
0.0
 11
146.3371137843
 21
-20.2933488015
 31
0.0
  0
ARC
  5
E3
330
1F
100
AcDbEntity
  8
0
  6
Continuous
 62
     7
100
AcDbCircle
 10
146.3371137843
 20
-18.2928448015
 30
0.0
 40
2.000504000000046
100
AcDbArc
 50
270.000015
 51
0.0
  0
ARC
  5
E4
330
1F
100
AcDbEntity
  8
0
  6
Continuous
 62
     7
100
AcDbCircle
 10
146.3371137843
 20
-18.2928448015
 30
0.0
 40
2.000503999999864
100
AcDbArc
 50
0.0
 51
90.0
  0
ARC
  5
E5
330
1F
100
AcDbEntity
  8
0
  6
Continuous
 62
     7
100
AcDbCircle
 10
142.3361057843
 20
-18.2928448015
 30
0.0
 40
2.000504000000092
100
AcDbArc
 50
180.0
 51
270.0
  0
ARC
  5
E6
330
1F
100
AcDbEntity
  8
0
  6
Continuous
 62
     7
100
AcDbCircle
 10
142.3361057843
 20
-18.2928448015
 30
0.0
 40
2.000504000000008
100
AcDbArc
 50
90.00001
 51
179.999992
  0
LINE
  5
E7
330
1F
100
AcDbEntity
  8
0
  6
Continuous
 62
     7
100
AcDbLine
 10
133.5839007843
 20
0.9118155536
 30
0.0
 11
133.5839007843
 21
20.5167297473
 31
0.0
  0
ARC
  5
E8
330
1F
100
AcDbEntity
  8
0
  6
Continuous
 62
     7
100
AcDbCircle
 10
144.3366097843
 20
-0.0382528033
 30
0.0
 40
10.75270900000027
100
AcDbArc
 50
187.752701
 51
352.247192
  0
ARC
  5
E9
330
1F
100
AcDbEntity
  8
0
  6
Continuous
 62
     7
100
AcDbCircle
 10
144.3366097843
 20
21.4671651967
 30
0.0
 40
10.75270899999991
100
AcDbArc
 50
7.750977
 51
172.248825
  0
LINE
  5
EA
330
1F
100
AcDbEntity
  8
0
  6
Continuous
 62
     7
100
AcDbLine
 10
146.3371137843
 20
37.7212601967
 30
0.0
 11
146.3371137843
 21
41.7222681967
 31
0.0
  0
LINE
  5
EB
330
1F
100
AcDbEntity
  8
0
  6
Continuous
 62
     7
100
AcDbLine
 10
142.3361057843
 20
37.7212601967
 30
0.0
 11
142.3361057843
 21
41.7222681967
 31
0.0
  0
ARC
  5
EC
330
1F
100
AcDbEntity
  8
0
  6
Continuous
 62
     7
100
AcDbCircle
 10
144.3366097843
 20
37.7212601967
 30
0.0
 40
2.000503999999978
100
AcDbArc
 50
180.0
 51
270.0
  0
ARC
  5
ED
330
1F
100
AcDbEntity
  8
0
  6
Continuous
 62
     7
100
AcDbCircle
 10
144.3366097843
 20
37.7212601967
 30
0.0
 40
2.000504000000046
100
AcDbArc
 50
270.000015
 51
0.0
  0
ARC
  5
EE
330
1F
100
AcDbEntity
  8
0
  6
Continuous
 62
     7
100
AcDbCircle
 10
144.3366097843
 20
41.7222681967
 30
0.0
 40
2.000503999999978
100
AcDbArc
 50
0.0
 51
90.0
  0
ARC
  5
EF
330
1F
100
AcDbEntity
  8
0
  6
Continuous
 62
     7
100
AcDbCircle
 10
144.3366097843
 20
41.7222681967
 30
0.0
 40
2.000504000000008
100
AcDbArc
 50
90.00001
 51
179.999992
  0
LINE
  5
F0
330
1F
100
AcDbEntity
  8
0
  6
Continuous
 62
     7
100
AcDbLine
 10
167.8425327845
 20
6.2133221967
 30
0.0
 11
167.8425327845
 21
10.7144561967
 31
0.0
  0
LINE
  5
F1
330
1F
100
AcDbEntity
  8
0
  6
Continuous
 62
     7
100
AcDbLine
 10
167.8425327845
 20
6.2133221967
 30
0.0
 11
170.3431627845
 21
6.2133221967
 31
0.0
  0
LINE
  5
F2
330
1F
100
AcDbEntity
  8
0
  6
Continuous
 62
     7
100
AcDbLine
 10
167.8425327845
 20
-18.7929708015
 30
0.0
 11
167.8425327845
 21
-9.7907028015
 31
0.0
  0
LINE
  5
F3
330
1F
100
AcDbEntity
  8
0
  6
Continuous
 62
     7
100
AcDbLine
 10
167.8425327845
 20
-18.7929708015
 30
0.0
 11
170.3431627845
 21
-18.7929708015
 31
0.0
  0
LINE
  5
F4
330
1F
100
AcDbEntity
  8
0
  6
Continuous
 62
     7
100
AcDbLine
 10
167.8425327845
 20
-9.7907028015
 30
0.0
 11
170.3431627845
 21
-9.7907028015
 31
0.0
  0
LINE
  5
F5
330
1F
100
AcDbEntity
  8
0
  6
Continuous
 62
     7
100
AcDbLine
 10
119.5303661858
 20
8.2138261967
 30
0.0
 11
119.5303661858
 21
10.7144561967
 31
0.0
  0
LINE
  5
F6
330
1F
100
AcDbEntity
  8
0
  6
Continuous
 62
     7
100
AcDbLine
 10
120.8306887845
 20
-18.7929708015
 30
0.0
 11
120.8306887845
 21
-9.7907028015
 31
0.0
  0
LINE
  5
F7
330
1F
100
AcDbEntity
  8
0
  6
Continuous
 62
     7
100
AcDbLine
 10
120.8306887845
 20
-18.7929708015
 30
0.0
 11
118.3300517827
 21
-18.7929708015
 31
0.0
  0
LINE
  5
F8
330
1F
100
AcDbEntity
  8
0
  6
Continuous
 62
     7
100
AcDbLine
 10
120.8306887845
 20
-9.7907028015
 30
0.0
 11
118.3300517827
 21
-9.7907028015
 31
0.0
  0
LINE
  5
F9
330
1F
100
AcDbEntity
  8
0
  6
Continuous
 62
     7
100
AcDbLine
 10
131.3333337843
 20
-3.2890718033
 30
0.0
 11
131.3333337843
 21
0.7119361967
 31
0.0
  0
LINE
  5
FA
330
1F
100
AcDbEntity
  8
0
  6
Continuous
 62
     7
100
AcDbLine
 10
127.3323257843
 20
-3.2890718033
 30
0.0
 11
127.3323257843
 21
0.7119361967
 31
0.0
  0
ARC
  5
FB
330
1F
100
AcDbEntity
  8
0
  6
Continuous
 62
     7
100
AcDbCircle
 10
129.3328297843
 20
-3.2890718033
 30
0.0
 40
2.000503999999978
100
AcDbArc
 50
180.0
 51
270.0
  0
ARC
  5
FC
330
1F
100
AcDbEntity
  8
0
  6
Continuous
 62
     7
100
AcDbCircle
 10
129.3328297843
 20
-3.2890718033
 30
0.0
 40
2.000504000000046
100
AcDbArc
 50
270.000015
 51
0.0
  0
ARC
  5
FD
330
1F
100
AcDbEntity
  8
0
  6
Continuous
 62
     7
100
AcDbCircle
 10
129.3328297843
 20
0.7119361967
 30
0.0
 40
2.000504000000008
100
AcDbArc
 50
90.00001
 51
179.999992
  0
ARC
  5
FE
330
1F
100
AcDbEntity
  8
0
  6
Continuous
 62
     7
100
AcDbCircle
 10
129.3328297843
 20
0.7119361967
 30
0.0
 40
2.000503999999978
100
AcDbArc
 50
0.0
 51
90.0
  0
LINE
  5
FF
330
1F
100
AcDbEntity
  8
0
  6
Continuous
 62
     7
100
AcDbLine
 10
157.3398867845
 20
-3.2890718033
 30
0.0
 11
157.3398867845
 21
0.7119361967
 31
0.0
  0
LINE
  5
100
330
1F
100
AcDbEntity
  8
0
  6
Continuous
 62
     7
100
AcDbLine
 10
161.3408947845
 20
-3.2890718033
 30
0.0
 11
161.3408947845
 21
0.7119361967
 31
0.0
  0
ARC
  5
101
330
1F
100
AcDbEntity
  8
0
  6
Continuous
 62
     7
100
AcDbCircle
 10
159.3403907845
 20
-3.2890718033
 30
0.0
 40
2.000504000000046
100
AcDbArc
 50
269.999985
 51
0.0
  0
ARC
  5
102
330
1F
100
AcDbEntity
  8
0
  6
Continuous
 62
     7
100
AcDbCircle
 10
159.3403907845
 20
-3.2890718033
 30
0.0
 40
2.000503999999978
100
AcDbArc
 50
180.0
 51
269.999985
  0
ARC
  5
103
330
1F
100
AcDbEntity
  8
0
  6
Continuous
 62
     7
100
AcDbCircle
 10
159.3403907845
 20
0.7119361967
 30
0.0
 40
2.000503999999978
100
AcDbArc
 50
0.0
 51
90.0
  0
ARC
  5
104
330
1F
100
AcDbEntity
  8
0
  6
Continuous
 62
     7
100
AcDbCircle
 10
159.3403907845
 20
0.7119361967
 30
0.0
 40
2.000503999999978
100
AcDbArc
 50
90.0
 51
180.0
  0
ARC
  5
105
330
1F
100
AcDbEntity
  8
0
  6
Continuous
 62
     7
100
AcDbCircle
 10
160.3406427845
 20
-25.2946088015
 30
0.0
 40
7.501890000000002
100
AcDbArc
 50
19.471222
 51
90.0
  0
ARC
  5
106
330
1F
100
AcDbEntity
  8
0
  6
Continuous
 62
     7
100
AcDbCircle
 10
160.3406427845
 20
-25.2946088015
 30
0.0
 40
7.501890000000572
100
AcDbArc
 50
90.00001
 51
160.528778
  0
LINE
  5
107
330
1F
100
AcDbEntity
  8
0
  6
Continuous
 62
     7
100
AcDbLine
 10
157.3398867845
 20
-13.2915848015
 30
0.0
 11
161.3408947845
 21
-13.2915848015
 31
0.0
  0
LINE
  5
108
330
1F
100
AcDbEntity
  8
0
  6
Continuous
 62
     7
100
AcDbLine
 10
157.3398867845
 20
-9.2905768015
 30
0.0
 11
161.3408947845
 21
-9.2905768015
 31
0.0
  0
ARC
  5
109
330
1F
100
AcDbEntity
  8
0
  6
Continuous
 62
     7
100
AcDbCircle
 10
161.3408947845
 20
-11.2910808015
 30
0.0
 40
2.000504000000046
100
AcDbArc
 50
270.000015
 51
0.0
  0
ARC
  5
10A
330
1F
100
AcDbEntity
  8
0
  6
Continuous
 62
     7
100
AcDbCircle
 10
161.3408947845
 20
-11.2910808015
 30
0.0
 40
2.000503999999864
100
AcDbArc
 50
0.0
 51
90.00001
  0
ARC
  5
10B
330
1F
100
AcDbEntity
  8
0
  6
Continuous
 62
     7
100
AcDbCircle
 10
157.3398867845
 20
-11.2910808015
 30
0.0
 40
2.000503999999864
100
AcDbArc
 50
180.0
 51
270.0
  0
ARC
  5
10C
330
1F
100
AcDbEntity
  8
0
  6
Continuous
 62
     7
100
AcDbCircle
 10
157.3398867845
 20
-11.2910808015
 30
0.0
 40
2.000504000000008
100
AcDbArc
 50
90.00001
 51
179.999992
  0
LINE
  5
10D
330
1F
100
AcDbEntity
  8
0
  6
Continuous
 62
     7
100
AcDbLine
 10
131.3333337843
 20
-13.2915848015
 30
0.0
 11
127.3323257843
 21
-13.2915848015
 31
0.0
  0
LINE
  5
10E
330
1F
100
AcDbEntity
  8
0
  6
Continuous
 62
     7
100
AcDbLine
 10
131.3333337843
 20
-9.2905768015
 30
0.0
 11
127.3323257843
 21
-9.2905768015
 31
0.0
  0
ARC
  5
10F
330
1F
100
AcDbEntity
  8
0
  6
Continuous
 62
     7
100
AcDbCircle
 10
127.3323257843
 20
-11.2910808015
 30
0.0
 40
2.000504000000205
100
AcDbArc
 50
180.0
 51
269.999985
  0
ARC
  5
110
330
1F
100
AcDbEntity
  8
0
  6
Continuous
 62
     7
100
AcDbCircle
 10
127.3323257843
 20
-11.2910808015
 30
0.0
 40
2.000503999999978
100
AcDbArc
 50
90.0
 51
180.0
  0
ARC
  5
111
330
1F
100
AcDbEntity
  8
0
  6
Continuous
 62
     7
100
AcDbCircle
 10
131.3333337843
 20
-11.2910808015
 30
0.0
 40
2.000504000000046
100
AcDbArc
 50
269.999985
 51
0.0
  0
ARC
  5
112
330
1F
100
AcDbEntity
  8
0
  6
Continuous
 62
     7
100
AcDbCircle
 10
131.3333337843
 20
-11.2910808015
 30
0.0
 40
2.000504000000092
100
AcDbArc
 50
0.0
 51
90.0
  0
ARC
  5
113
330
1F
100
AcDbEntity
  8
0
  6
Continuous
 62
     7
100
AcDbCircle
 10
144.3366097843
 20
-0.0382528033
 30
0.0
 40
9.752457000000254
100
AcDbArc
 50
187.522079
 51
352.477814
  0
LINE
  5
114
330
1F
100
AcDbEntity
  8
0
  6
Continuous
 62
     7
100
AcDbLine
 10
134.5841527843
 20
0.7354401182
 30
0.0
 11
134.5841527843
 21
8.9640151967
 31
0.0
  0
LINE
  5
115
330
1F
100
AcDbEntity
  8
0
  6
Continuous
 62
     7
100
AcDbLine
 10
154.0890667843
 20
0.7354401182
 30
0.0
 11
154.0890667843
 21
8.9640151967
 31
0.0
  0
ARC
  5
116
330
1F
100
AcDbEntity
  8
0
  6
Continuous
 62
     7
100
AcDbCircle
 10
149.0878067843
 20
10.7144561967
 30
0.0
 40
4.501134000000247
100
AcDbArc
 50
270.000015
 51
337.114624
  0
ARC
  5
117
330
1F
100
AcDbEntity
  8
0
  6
Continuous
 62
     7
100
AcDbCircle
 10
139.5854127843
 20
10.7144561967
 30
0.0
 40
4.501134000000132
100
AcDbArc
 50
202.885376
 51
269.999985
  0
LINE
  5
118
330
1F
100
AcDbEntity
  8
0
  6
Continuous
 62
     7
100
AcDbLine
 10
118.3300517827
 20
12.2148341967
 30
0.0
 11
118.3300517827
 21
10.7144561967
 31
0.0
  0
LINE
  5
119
330
1F
100
AcDbEntity
  8
0
  6
Continuous
 62
     7
100
AcDbLine
 10
167.8425327845
 20
15.2155901967
 30
0.0
 11
167.8425327845
 21
10.7144561967
 31
0.0
  0
LINE
  5
11A
330
1F
100
AcDbEntity
  8
0
  6
Continuous
 62
     7
100
AcDbLine
 10
167.8425327845
 20
15.2155901967
 30
0.0
 11
170.3431627845
 21
15.2155901967
 31
0.0
  0
LINE
  5
11B
330
1F
100
AcDbEntity
  8
0
  6
Continuous
 62
     7
100
AcDbLine
 10
167.8425327845
 20
40.2218901967
 30
0.0
 11
167.8425327845
 21
31.2196221967
 31
0.0
  0
LINE
  5
11C
330
1F
100
AcDbEntity
  8
0
  6
Continuous
 62
     7
100
AcDbLine
 10
167.8425327845
 20
40.2218901967
 30
0.0
 11
170.3431627845
 21
40.2218901967
 31
0.0
  0
LINE
  5
11D
330
1F
100
AcDbEntity
  8
0
  6
Continuous
 62
     7
100
AcDbLine
 10
167.8425327845
 20
31.2196221967
 30
0.0
 11
170.3431627845
 21
31.2196221967
 31
0.0
  0
LINE
  5
11E
330
1F
100
AcDbEntity
  8
0
  6
Continuous
 62
     7
100
AcDbLine
 10
119.5303661858
 20
14.2153381967
 30
0.0
 11
119.5303661858
 21
10.7144561967
 31
0.0
  0
LINE
  5
11F
330
1F
100
AcDbEntity
  8
0
  6
Continuous
 62
     7
100
AcDbLine
 10
118.3300517827
 20
14.2153381967
 30
0.0
 11
119.5303661858
 21
14.2153381967
 31
0.0
  0
LINE
  5
120
330
1F
100
AcDbEntity
  8
0
  6
Continuous
 62
     7
100
AcDbLine
 10
120.8306887845
 20
40.2218901967
 30
0.0
 11
120.8306887845
 21
31.2196221967
 31
0.0
  0
LINE
  5
121
330
1F
100
AcDbEntity
  8
0
  6
Continuous
 62
     7
100
AcDbLine
 10
120.8306887845
 20
40.2218901967
 30
0.0
 11
118.3300517827
 21
40.2218901967
 31
0.0
  0
LINE
  5
122
330
1F
100
AcDbEntity
  8
0
  6
Continuous
 62
     7
100
AcDbLine
 10
120.8306887845
 20
31.2196221967
 30
0.0
 11
118.3300517827
 21
31.2196221967
 31
0.0
  0
LINE
  5
123
330
1F
100
AcDbEntity
  8
0
  6
Continuous
 62
     7
100
AcDbLine
 10
131.3333337843
 20
24.7179841967
 30
0.0
 11
131.3333337843
 21
20.7169761967
 31
0.0
  0
LINE
  5
124
330
1F
100
AcDbEntity
  8
0
  6
Continuous
 62
     7
100
AcDbLine
 10
127.3323257843
 20
24.7179841967
 30
0.0
 11
127.3323257843
 21
20.7169761967
 31
0.0
  0
ARC
  5
125
330
1F
100
AcDbEntity
  8
0
  6
Continuous
 62
     7
100
AcDbCircle
 10
129.3328297843
 20
24.7179841967
 30
0.0
 40
2.000503999999921
100
AcDbArc
 50
90.0
 51
179.999992
  0
ARC
  5
126
330
1F
100
AcDbEntity
  8
0
  6
Continuous
 62
     7
100
AcDbCircle
 10
129.3328297843
 20
24.7179841967
 30
0.0
 40
2.000503999999978
100
AcDbArc
 50
0.0
 51
90.0
  0
ARC
  5
127
330
1F
100
AcDbEntity
  8
0
  6
Continuous
 62
     7
100
AcDbCircle
 10
129.3328297843
 20
20.7169761967
 30
0.0
 40
2.000503999999998
100
AcDbArc
 50
180.000008
 51
269.999985
  0
ARC
  5
128
330
1F
100
AcDbEntity
  8
0
  6
Continuous
 62
     7
100
AcDbCircle
 10
129.3328297843
 20
20.7169761967
 30
0.0
 40
2.000504000000046
100
AcDbArc
 50
270.000015
 51
0.0
  0
LINE
  5
129
330
1F
100
AcDbEntity
  8
0
  6
Continuous
 62
     7
100
AcDbLine
 10
157.3398867845
 20
24.7179841967
 30
0.0
 11
157.3398867845
 21
20.7169761967
 31
0.0
  0
LINE
  5
12A
330
1F
100
AcDbEntity
  8
0
  6
Continuous
 62
     7
100
AcDbLine
 10
161.3408947845
 20
24.7179841967
 30
0.0
 11
161.3408947845
 21
20.7169761967
 31
0.0
  0
ARC
  5
12B
330
1F
100
AcDbEntity
  8
0
  6
Continuous
 62
     7
100
AcDbCircle
 10
159.3403907845
 20
24.7179841967
 30
0.0
 40
2.000503999999978
100
AcDbArc
 50
0.0
 51
90.000009
  0
ARC
  5
12C
330
1F
100
AcDbEntity
  8
0
  6
Continuous
 62
     7
100
AcDbCircle
 10
159.3403907845
 20
24.7179841967
 30
0.0
 40
2.000503999999946
100
AcDbArc
 50
90.000009
 51
179.999992
  0
ARC
  5
12D
330
1F
100
AcDbEntity
  8
0
  6
Continuous
 62
     7
100
AcDbCircle
 10
159.3403907845
 20
20.7169761967
 30
0.0
 40
2.000504000000046
100
AcDbArc
 50
270.000015
 51
0.0
  0
ARC
  5
12E
330
1F
100
AcDbEntity
  8
0
  6
Continuous
 62
     7
100
AcDbCircle
 10
159.3403907845
 20
20.7169761967
 30
0.0
 40
2.000503999999998
100
AcDbArc
 50
179.999992
 51
270.0
  0
ARC
  5
12F
330
1F
100
AcDbEntity
  8
0
  6
Continuous
 62
     7
100
AcDbCircle
 10
160.3406427845
 20
46.7235281967
 30
0.0
 40
7.501889999999976
100
AcDbArc
 50
270.000015
 51
340.528778
  0
ARC
  5
130
330
1F
100
AcDbEntity
  8
0
  6
Continuous
 62
     7
100
AcDbCircle
 10
160.3406427845
 20
46.7235281967
 30
0.0
 40
7.501890000000002
100
AcDbArc
 50
199.471222
 51
269.999985
  0
LINE
  5
131
330
1F
100
AcDbEntity
  8
0
  6
Continuous
 62
     7
100
AcDbLine
 10
157.3398867845
 20
34.7205041967
 30
0.0
 11
161.3408947845
 21
34.7205041967
 31
0.0
  0
LINE
  5
132
330
1F
100
AcDbEntity
  8
0
  6
Continuous
 62
     7
100
AcDbLine
 10
157.3398867845
 20
30.7194961967
 30
0.0
 11
161.3408947845
 21
30.7194961967
 31
0.0
  0
ARC
  5
133
330
1F
100
AcDbEntity
  8
0
  6
Continuous
 62
     7
100
AcDbCircle
 10
161.3408947845
 20
32.7200001967
 30
0.0
 40
2.000503999999864
100
AcDbArc
 50
0.0
 51
90.0
  0
ARC
  5
134
330
1F
100
AcDbEntity
  8
0
  6
Continuous
 62
     7
100
AcDbCircle
 10
161.3408947845
 20
32.7200001967
 30
0.0
 40
2.000504000000046
100
AcDbArc
 50
269.999985
 51
0.0
  0
ARC
  5
135
330
1F
100
AcDbEntity
  8
0
  6
Continuous
 62
     7
100
AcDbCircle
 10
157.3398867845
 20
32.7200001967
 30
0.0
 40
2.000503999999978
100
AcDbArc
 50
90.0
 51
179.999992
  0
ARC
  5
136
330
1F
100
AcDbEntity
  8
0
  6
Continuous
 62
     7
100
AcDbCircle
 10
157.3398867845
 20
32.7200001967
 30
0.0
 40
2.000503999999884
100
AcDbArc
 50
180.000008
 51
269.999985
  0
LINE
  5
137
330
1F
100
AcDbEntity
  8
0
  6
Continuous
 62
     7
100
AcDbLine
 10
131.3333337843
 20
34.7205041967
 30
0.0
 11
127.3323257843
 21
34.7205041967
 31
0.0
  0
LINE
  5
138
330
1F
100
AcDbEntity
  8
0
  6
Continuous
 62
     7
100
AcDbLine
 10
131.3333337843
 20
30.7194961967
 30
0.0
 11
127.3323257843
 21
30.7194961967
 31
0.0
  0
ARC
  5
139
330
1F
100
AcDbEntity
  8
0
  6
Continuous
 62
     7
100
AcDbCircle
 10
127.3323257843
 20
32.7200001967
 30
0.0
 40
2.000504000000003
100
AcDbArc
 50
90.000009
 51
179.999992
  0
ARC
  5
13A
330
1F
100
AcDbEntity
  8
0
  6
Continuous
 62
     7
100
AcDbCircle
 10
127.3323257843
 20
32.7200001967
 30
0.0
 40
2.000504000000111
100
AcDbArc
 50
179.999992
 51
270.0
  0
ARC
  5
13B
330
1F
100
AcDbEntity
  8
0
  6
Continuous
 62
     7
100
AcDbCircle
 10
131.3333337843
 20
32.7200001967
 30
0.0
 40
2.000504000000092
100
AcDbArc
 50
0.0
 51
90.000009
  0
ARC
  5
13C
330
1F
100
AcDbEntity
  8
0
  6
Continuous
 62
     7
100
AcDbCircle
 10
131.3333337843
 20
32.7200001967
 30
0.0
 40
2.000504000000046
100
AcDbArc
 50
270.000015
 51
0.0
  0
ARC
  5
13D
330
1F
100
AcDbEntity
  8
0
  6
Continuous
 62
     7
100
AcDbCircle
 10
144.3366097843
 20
21.4671651967
 30
0.0
 40
9.752456999999886
100
AcDbArc
 50
7.520142
 51
172.479607
  0
LINE
  5
13E
330
1F
100
AcDbEntity
  8
0
  6
Continuous
 62
     7
100
AcDbLine
 10
134.5841527843
 20
20.6931051827
 30
0.0
 11
134.5841527843
 21
12.4648971967
 31
0.0
  0
LINE
  5
13F
330
1F
100
AcDbEntity
  8
0
  6
Continuous
 62
     7
100
AcDbLine
 10
154.0890667843
 20
20.6931661981
 30
0.0
 11
154.0890667843
 21
12.4648971967
 31
0.0
  0
LINE
  5
140
330
1F
100
AcDbEntity
  8
0
  6
Continuous
 62
     7
100
AcDbLine
 10
139.5854127843
 20
15.2155901967
 30
0.0
 11
149.0878067843
 21
15.2155901967
 31
0.0
  0
LINE
  5
141
330
1F
100
AcDbEntity
  8
0
  6
Continuous
 62
     7
100
AcDbLine
 10
118.3459097779
 20
9.7142041967
 30
0.0
 11
119.3303107845
 21
9.7142041967
 31
0.0
  0
LINE
  5
142
330
1F
100
AcDbEntity
  8
0
  6
Continuous
 62
     7
100
AcDbLine
 10
119.3303107845
 20
9.2140781967
 30
0.0
 11
119.3303107845
 21
9.7142041967
 31
0.0
  0
LINE
  5
143
330
1F
100
AcDbEntity
  8
0
  6
Continuous
 62
     7
100
AcDbLine
 10
119.3302387664
 20
9.2124067756
 30
0.0
 11
118.3299637606
 21
8.2121317698
 31
0.0
  0
LINE
  5
144
330
1F
100
AcDbEntity
  8
0
  6
Continuous
 62
     7
100
AcDbLine
 10
118.3300517827
 20
11.7147081967
 30
0.0
 11
119.3303107845
 21
11.7147081967
 31
0.0
  0
LINE
  5
145
330
1F
100
AcDbEntity
  8
0
  6
Continuous
 62
     7
100
AcDbLine
 10
119.3303107845
 20
12.2148341967
 30
0.0
 11
119.3303107845
 21
11.7147081967
 31
0.0
  0
LINE
  5
146
330
1F
100
AcDbEntity
  8
0
  6
Continuous
 62
     7
100
AcDbLine
 10
119.3300057076
 20
12.2131017603
 30
0.0
 11
118.3297307018
 21
13.2133767661
 31
0.0
  0
LINE
  5
147
330
1F
100
AcDbEntity
  8
0
  6
Continuous
 62
     7
100
AcDbLine
 10
118.3300517827
 20
44.2228981967
 30
0.0
 11
118.3300517827
 21
-22.7939788015
 31
0.0
  0
LINE
  5
148
330
1F
100
AcDbEntity
  8
0
  6
Continuous
 62
     7
100
AcDbLine
 10
163.0913357845
 20
8.2138261967
 30
0.0
 11
165.0918397845
 21
8.2138261967
 31
0.0
  0
ARC
  5
149
330
1F
100
AcDbEntity
  8
0
  6
Continuous
 62
     7
100
AcDbCircle
 10
163.0913357845
 20
8.9640151967
 30
0.0
 40
0.7501889999995228
100
AcDbArc
 50
90.0
 51
270.0
  0
ARC
  5
14A
330
1F
100
AcDbEntity
  8
0
  6
Continuous
 62
     7
100
AcDbCircle
 10
165.0918397845
 20
8.9640151967
 30
0.0
 40
0.7501889999998639
100
AcDbArc
 50
0.0
 51
90.0
  0
ARC
  5
14B
330
1F
100
AcDbEntity
  8
0
  6
Continuous
 62
     7
100
AcDbCircle
 10
165.0918397845
 20
8.9640151967
 30
0.0
 40
0.7501890000002874
100
AcDbArc
 50
270.000015
 51
0.0
  0
LINE
  5
14C
330
1F
100
AcDbEntity
  8
0
  6
Continuous
 62
     7
100
AcDbLine
 10
118.3300517827
 20
7.2135741967
 30
0.0
 11
119.5303661858
 21
7.2135741967
 31
0.0
  0
LINE
  5
14D
330
1F
100
AcDbEntity
  8
0
  6
Continuous
 62
     7
100
AcDbLine
 10
118.3300517827
 20
-21.7937268015
 30
0.0
 11
121.0807517845
 21
-21.7937268015
 31
0.0
  0
ARC
  5
14E
330
1F
100
AcDbEntity
  8
0
  6
Continuous
 62
     7
100
AcDbCircle
 10
121.0807517845
 20
-21.0435378015
 30
0.0
 40
0.7501890000002874
100
AcDbArc
 50
270.000015
 51
302.230927
  0
ARC
  5
14F
330
1F
100
AcDbEntity
  8
0
  6
Continuous
 62
     7
100
AcDbCircle
 10
121.0807517845
 20
-21.0435378015
 30
0.0
 40
0.7501889999994453
100
AcDbArc
 50
57.769073
 51
90.0
  0
LINE
  5
150
330
1F
100
AcDbEntity
  8
0
  6
Continuous
 62
     7
100
AcDbLine
 10
125.4818615848
 20
-20.2933488015
 30
0.0
 11
126.1320193832
 21
-20.2933488015
 31
0.0
  0
LINE
  5
151
330
1F
100
AcDbEntity
  8
0
  6
Continuous
 62
     7
100
AcDbLine
 10
178.845302784
 20
31.7197481967
 30
0.0
 11
180.4457049837
 21
31.7197481967
 31
0.0
  0
LINE
  5
152
330
1F
100
AcDbEntity
  8
0
  6
Continuous
 62
     7
100
AcDbLine
 10
144.8367357843
 20
23.7177321967
 30
0.0
 11
144.8367357843
 21
31.2067399512
 31
0.0
  0
LINE
  5
153
330
1F
100
AcDbEntity
  8
0
  6
Continuous
 62
     7
100
AcDbLine
 10
143.8364837843
 20
23.7177321967
 30
0.0
 11
143.8364837843
 21
31.2067399512
 31
0.0
  0
LINE
  5
154
330
1F
100
AcDbEntity
  8
0
  6
Continuous
 62
     7
100
AcDbLine
 10
144.8367357843
 20
-9.7778815714
 30
0.0
 11
144.8367357843
 21
-2.2888198033
 31
0.0
  0
LINE
  5
155
330
1F
100
AcDbEntity
  8
0
  6
Continuous
 62
     7
100
AcDbLine
 10
143.8364837843
 20
-9.7778815714
 30
0.0
 11
143.8364837843
 21
-2.2888198033
 31
0.0
  0
LINE
  5
156
330
1F
100
AcDbEntity
  8
0
  6
Continuous
 62
     7
100
AcDbLine
 10
144.8367357843
 20
-0.2883158033
 30
0.0
 11
144.8367357843
 21
6.2133221967
 31
0.0
  0
LINE
  5
157
330
1F
100
AcDbEntity
  8
0
  6
Continuous
 62
     7
100
AcDbLine
 10
143.8364837843
 20
-0.2883158033
 30
0.0
 11
143.8364837843
 21
6.2133221967
 31
0.0
  0
LINE
  5
158
330
1F
100
AcDbEntity
  8
0
  6
Continuous
 62
     7
100
AcDbLine
 10
143.8364837843
 20
15.2155901967
 30
0.0
 11
143.8364837843
 21
21.7172281967
 31
0.0
  0
LINE
  5
159
330
1F
100
AcDbEntity
  8
0
  6
Continuous
 62
     7
100
AcDbLine
 10
144.8367357843
 20
15.2155901967
 30
0.0
 11
144.8367357843
 21
21.7172281967
 31
0.0
  0
LINE
  5
15A
330
1F
100
AcDbEntity
  8
0
  6
Continuous
 62
     7
100
AcDbLine
 10
139.5854127843
 20
6.2133221967
 30
0.0
 11
149.0878067843
 21
6.2133221967
 31
0.0
  0
LINE
  5
15B
330
1F
100
AcDbEntity
  8
0
  6
Continuous
 62
     7
100
AcDbLine
 10
177.8450207764
 20
9.2140781967
 30
0.0
 11
177.8450207764
 21
12.2148341967
 31
0.0
  0
LINE
  5
15C
330
1F
100
AcDbEntity
  8
0
  6
Continuous
 62
     7
100
AcDbLine
 10
177.844673689
 20
9.215222485
 30
0.0
 11
180.3459938629
 21
10.7155624754
 31
0.0
  0
LINE
  5
15D
330
1F
100
AcDbEntity
  8
0
  6
Continuous
 62
     7
100
AcDbLine
 10
180.3459938629
 20
10.7155624754
 30
0.0
 11
177.8453758659
 21
12.2159404754
 31
0.0
  0
LINE
  5
15E
330
1F
100
AcDbEntity
  8
0
  6
Continuous
 62
     7
100
AcDbLine
 10
118.3307649624
 20
9.2152534928
 30
0.0
 11
115.8290876986
 21
10.7153414197
 31
0.0
  0
LINE
  5
15F
330
1F
100
AcDbEntity
  8
0
  6
Continuous
 62
     7
100
AcDbLine
 10
115.8290876986
 20
10.7153414197
 30
0.0
 11
118.3296566832
 21
12.2156804099
 31
0.0
  0
LINE
  5
160
330
1F
100
AcDbEntity
  8
0
  6
Continuous
 62
     7
100
AcDbLine
 10
144.3360096331
 20
-40.2971674938
 30
0.0
 11
142.8356676421
 21
-37.7965985092
 31
0.0
  0
LINE
  5
161
330
1F
100
AcDbEntity
  8
0
  6
Continuous
 62
     7
100
AcDbLine
 10
144.3372509458
 20
-40.2971824976
 30
0.0
 11
145.8376239445
 21
-37.7965685016
 31
0.0
  0
LINE
  5
162
330
1F
100
AcDbEntity
  8
0
  6
Continuous
 62
     7
100
AcDbLine
 10
144.3362416915
 20
61.7280483832
 30
0.0
 11
145.8366146903
 21
59.227425385
 31
0.0
  0
LINE
  5
163
330
1F
100
AcDbEntity
  8
0
  6
Continuous
 62
     7
100
AcDbLine
 10
144.3370688999
 20
61.7280823918
 30
0.0
 11
142.8366959012
 21
59.2274603938
 31
0.0
  0
LINE
  5
164
330
1F
100
AcDbEntity
  8
0
  6
Continuous
 62
     7
100
AcDbLine
 10
154.0891988175
 20
0.7355241394
 30
0.0
 11
155.0894358137
 21
0.9118995748
 31
0.0
  0
LINE
  5
165
330
1F
100
AcDbEntity
  8
0
  6
Continuous
 62
     7
100
AcDbLine
 10
154.9909700066
 20
-1.4887302315
 30
0.0
 11
154.0050716228
 21
-1.3148884344
 31
0.0
  0
LINE
  5
166
330
1F
100
AcDbEntity
  8
0
  6
Continuous
 62
     7
100
AcDbLine
 10
134.5840927691
 20
0.7354941318
 30
0.0
 11
133.5838407691
 21
0.911868567
 31
0.0
  0
LINE
  5
167
330
1F
100
AcDbEntity
  8
0
  6
Continuous
 62
     7
100
AcDbLine
 10
133.682305576
 20
-1.4886992237
 30
0.0
 11
134.6681879558
 21
-1.3148584268
 31
0.0
  0
LINE
  5
168
330
1F
100
AcDbEntity
  8
0
  6
Continuous
 62
     7
100
AcDbLine
 10
154.991158054
 20
22.9174665806
 30
0.0
 11
154.0052616707
 21
22.7436327855
 31
0.0
  0
LINE
  5
169
330
1F
100
AcDbEntity
  8
0
  6
Continuous
 62
     7
100
AcDbLine
 10
154.0889977669
 20
20.6932882289
 30
0.0
 11
155.0892417648
 21
20.5169127934
 31
0.0
  0
LINE
  5
16A
330
1F
100
AcDbEntity
  8
0
  6
Continuous
 62
     7
100
AcDbLine
 10
133.6821415347
 20
22.9175045902
 30
0.0
 11
134.6680349172
 21
22.7436627931
 31
0.0
  0
LINE
  5
16B
330
1F
100
AcDbEntity
  8
0
  6
Continuous
 62
     7
100
AcDbLine
 10
134.5842888185
 20
20.6932502193
 30
0.0
 11
133.5840368185
 21
20.5168747839
 31
0.0
  0
LINE
  5
16C
330
1F
100
AcDbEntity
  8
0
  6
Continuous
 62
     7
100
AcDbLine
 10
141.3358537843
 20
-37.7977588015
 30
0.0
 11
137.5857409939
 21
-37.7977588015
 31
0.0
  0
LINE
  5
16D
330
1F
100
AcDbEntity
  8
0
  6
Continuous
 62
     7
100
AcDbLine
 10
151.0874835758
 20
-37.7977588015
 30
0.0
 11
141.0498667337
 21
-37.7977588015
 31
0.0
  0
LINE
  5
16E
330
1F
100
AcDbEntity
  8
0
  6
Continuous
 62
     7
100
AcDbLine
 10
136.5499420383
 20
-40.2983888015
 30
0.0
 11
152.1232785304
 21
-40.2983888015
 31
0.0
  0
LINE
  5
16F
330
1F
100
AcDbEntity
  8
0
  6
Continuous
 62
     7
100
AcDbLine
 10
154.6249357892
 20
-37.7965985092
 30
0.0
 11
152.1242547764
 21
-40.2972745208
 31
0.0
  0
LINE
  5
170
330
1F
100
AcDbEntity
  8
0
  6
Continuous
 62
     7
100
AcDbLine
 10
134.0483187881
 20
-37.7967665515
 30
0.0
 11
136.5489817964
 21
-40.2974265591
 31
0.0
  0
LINE
  5
171
330
1F
100
AcDbEntity
  8
0
  6
Continuous
 62
     7
100
AcDbLine
 10
134.0485058352
 20
59.2274523918
 30
0.0
 11
136.549166843
 21
61.7281164003
 31
0.0
  0
LINE
  5
172
330
1F
100
AcDbEntity
  8
0
  6
Continuous
 62
     7
100
AcDbLine
 10
154.624835764
 20
59.227429386
 30
0.0
 11
152.1241727557
 21
61.7280933945
 31
0.0
  0
ARC
  5
173
330
1F
100
AcDbEntity
  8
0
  6
Continuous
 62
     7
100
AcDbCircle
 10
160.3406427845
 20
-25.2946088015
 30
0.0
 40
8.502142000000179
100
AcDbArc
 50
90.00001
 51
162.895363
  0
ARC
  5
174
330
1F
100
AcDbEntity
  8
0
  6
Continuous
 62
     7
100
AcDbCircle
 10
160.3406427845
 20
-25.2946088015
 30
0.0
 40
8.50214200000024
100
AcDbArc
 50
17.104645
 51
90.0
  0
ARC
  5
175
330
1F
100
AcDbEntity
  8
0
  6
Continuous
 62
     7
100
AcDbCircle
 10
160.3406427845
 20
46.7235281967
 30
0.0
 40
8.502142000000084
100
AcDbArc
 50
197.104637
 51
269.999985
  0
ARC
  5
176
330
1F
100
AcDbEntity
  8
0
  6
Continuous
 62
     7
100
AcDbCircle
 10
160.3406427845
 20
46.7235281967
 30
0.0
 40
8.50214200000034
100
AcDbArc
 50
270.000015
 51
342.89537
  0
LINE
  5
177
330
1F
100
AcDbEntity
  8
0
  6
Continuous
 62
     7
100
AcDbLine
 10
127.1322713832
 20
-22.7939788015
 30
0.0
 11
127.1322713832
 21
-21.2936008015
 31
0.0
  0
ARC
  5
178
330
1F
100
AcDbEntity
  8
0
  6
Continuous
 62
     7
100
AcDbCircle
 10
126.1320193832
 20
-21.2936008015
 30
0.0
 40
1.000252000000046
100
AcDbArc
 50
0.0
 51
90.0
  0
LINE
  5
179
330
1F
100
AcDbEntity
  8
0
  6
Continuous
 62
     7
100
AcDbLine
 10
173.844042784
 20
-20.2933488015
 30
0.0
 11
180.4457049837
 21
-20.2933488015
 31
0.0
  0
LINE
  5
17A
330
1F
100
AcDbEntity
  8
0
  6
Continuous
 62
     7
100
AcDbLine
 10
173.844042784
 20
41.7222681967
 30
0.0
 11
180.4457049837
 21
41.7222681967
 31
0.0
  0
LINE
  5
17B
330
1F
100
AcDbEntity
  8
0
  6
Continuous
 62
     7
100
AcDbLine
 10
172.8437927845
 20
-22.7939788015
 30
0.0
 11
115.8294217827
 21
-22.7939788015
 31
0.0
  0
LINE
  5
17C
330
1F
100
AcDbEntity
  8
0
  6
Continuous
 62
     7
100
AcDbLine
 10
172.8437927845
 20
-37.7977588015
 30
0.0
 11
115.8294217827
 21
-37.7977588015
 31
0.0
  0
LINE
  5
17D
330
1F
100
AcDbEntity
  8
0
  6
Continuous
 62
     7
100
AcDbLine
 10
115.8294217827
 20
44.2228981967
 30
0.0
 11
172.8437927845
 21
44.2228981967
 31
0.0
  0
LINE
  5
17E
330
1F
100
AcDbEntity
  8
0
  6
Continuous
 62
     7
100
AcDbLine
 10
172.8437927845
 20
59.2266811975
 30
0.0
 11
115.8294217827
 21
59.2266811975
 31
0.0
  0
LINE
  5
17F
330
1F
100
AcDbEntity
  8
0
  6
Continuous
 62
     7
100
AcDbLine
 10
121.480854585
 20
6.0132587934
 30
0.0
 11
121.480854585
 21
-22.7939788015
 31
0.0
  0
LINE
  5
180
330
1F
100
AcDbEntity
  8
0
  6
Continuous
 62
     7
100
AcDbLine
 10
121.8309487865
 20
6.0132587934
 30
0.0
 11
121.8309487865
 21
-22.7939788015
 31
0.0
  0
LINE
  5
181
330
1F
100
AcDbEntity
  8
0
  6
Continuous
 62
     7
100
AcDbLine
 10
125.1317673832
 20
6.0132587934
 30
0.0
 11
125.1317673832
 21
-22.7939788015
 31
0.0
  0
LINE
  5
182
330
1F
100
AcDbEntity
  8
0
  6
Continuous
 62
     7
100
AcDbLine
 10
125.4818615848
 20
6.0132587934
 30
0.0
 11
125.4818615848
 21
-22.7939788015
 31
0.0
  0
LINE
  5
183
330
1F
100
AcDbEntity
  8
0
  6
Continuous
 62
     7
100
AcDbLine
 10
121.480854585
 20
6.0132587934
 30
0.0
 11
125.4818615848
 21
6.0132587934
 31
0.0
  0
LINE
  5
184
330
1F
100
AcDbEntity
  8
0
  6
Continuous
 62
     7
100
AcDbLine
 10
127.6824840019
 20
8.2140012408
 30
0.0
 11
125.4819326026
 21
6.0134498416
 31
0.0
  0
LINE
  5
185
330
1F
100
AcDbEntity
  8
0
  6
Continuous
 62
     7
100
AcDbLine
 10
119.280288182
 20
8.2138261967
 30
0.0
 11
127.6824279878
 21
8.2138261967
 31
0.0
  0
LINE
  5
186
330
1F
100
AcDbEntity
  8
0
  6
Continuous
 62
     7
100
AcDbLine
 10
119.2803491974
 20
8.2140162446
 30
0.0
 11
121.4809216019
 21
6.0134428398
 31
0.0
  0
LINE
  5
187
330
1F
100
AcDbEntity
  8
0
  6
Continuous
 62
     7
100
AcDbLine
 10
118.3300517827
 20
-20.2933488015
 30
0.0
 11
121.0807517845
 21
-20.2933488015
 31
0.0
  0
LINE
  5
188
330
1F
100
AcDbEntity
  8
0
  6
Continuous
 62
     7
100
AcDbLine
 10
119.5303661858
 20
7.2135741967
 30
0.0
 11
119.5303661858
 21
7.9637631967
 31
0.0
  0
LINE
  5
189
330
1F
100
AcDbEntity
  8
0
  6
Continuous
 62
     7
100
AcDbLine
 10
118.3300517827
 20
43.2226461967
 30
0.0
 11
121.0807517845
 21
43.2226461967
 31
0.0
  0
ARC
  5
18A
330
1F
100
AcDbEntity
  8
0
  6
Continuous
 62
     7
100
AcDbCircle
 10
121.0807517845
 20
42.4724571967
 30
0.0
 40
0.7501890000000222
100
AcDbArc
 50
57.769073
 51
90.0
  0
ARC
  5
18B
330
1F
100
AcDbEntity
  8
0
  6
Continuous
 62
     7
100
AcDbCircle
 10
121.0807517845
 20
42.4724571967
 30
0.0
 40
0.7501890000002874
100
AcDbArc
 50
270.000015
 51
302.230927
  0
LINE
  5
18C
330
1F
100
AcDbEntity
  8
0
  6
Continuous
 62
     7
100
AcDbLine
 10
125.4818615848
 20
41.7222681967
 30
0.0
 11
126.1320193832
 21
41.7222681967
 31
0.0
  0
LINE
  5
18D
330
1F
100
AcDbEntity
  8
0
  6
Continuous
 62
     7
100
AcDbLine
 10
127.1322713832
 20
44.2228981967
 30
0.0
 11
127.1322713832
 21
42.7225201967
 31
0.0
  0
ARC
  5
18E
330
1F
100
AcDbEntity
  8
0
  6
Continuous
 62
     7
100
AcDbCircle
 10
126.1320193832
 20
42.7225201967
 30
0.0
 40
1.000252000000364
100
AcDbArc
 50
270.000015
 51
0.0
  0
LINE
  5
18F
330
1F
100
AcDbEntity
  8
0
  6
Continuous
 62
     7
100
AcDbLine
 10
121.480854585
 20
15.4156525997
 30
0.0
 11
121.480854585
 21
44.2228981967
 31
0.0
  0
LINE
  5
190
330
1F
100
AcDbEntity
  8
0
  6
Continuous
 62
     7
100
AcDbLine
 10
121.8309487865
 20
15.4156525997
 30
0.0
 11
121.8309487865
 21
44.2228981967
 31
0.0
  0
LINE
  5
191
330
1F
100
AcDbEntity
  8
0
  6
Continuous
 62
     7
100
AcDbLine
 10
125.1317673832
 20
15.4156525997
 30
0.0
 11
125.1317673832
 21
44.2228981967
 31
0.0
  0
LINE
  5
192
330
1F
100
AcDbEntity
  8
0
  6
Continuous
 62
     7
100
AcDbLine
 10
125.4818615848
 20
15.4156525997
 30
0.0
 11
125.4818615848
 21
44.2228981967
 31
0.0
  0
LINE
  5
193
330
1F
100
AcDbEntity
  8
0
  6
Continuous
 62
     7
100
AcDbLine
 10
118.3300517827
 20
41.7222681967
 30
0.0
 11
121.0807517845
 21
41.7222681967
 31
0.0
  0
LINE
  5
194
330
1F
100
AcDbEntity
  8
0
  6
Continuous
 62
     7
100
AcDbLine
 10
121.480854585
 20
15.4156525997
 30
0.0
 11
125.4818615848
 21
15.4156525997
 31
0.0
  0
LINE
  5
195
330
1F
100
AcDbEntity
  8
0
  6
Continuous
 62
     7
100
AcDbLine
 10
127.6824649971
 20
13.2151772197
 30
0.0
 11
125.4819125976
 21
15.4157286189
 31
0.0
  0
LINE
  5
196
330
1F
100
AcDbEntity
  8
0
  6
Continuous
 62
     7
100
AcDbLine
 10
119.280288182
 20
13.2150861967
 30
0.0
 11
127.6824279878
 21
13.2150861967
 31
0.0
  0
LINE
  5
197
330
1F
100
AcDbEntity
  8
0
  6
Continuous
 62
     7
100
AcDbLine
 10
119.2803491974
 20
13.2151772197
 30
0.0
 11
121.4809005966
 21
15.4157286189
 31
0.0
  0
ARC
  5
198
330
1F
100
AcDbEntity
  8
0
  6
Continuous
 62
     7
100
AcDbCircle
 10
149.0377951845
 20
-1.9887572066
 30
0.0
 40
0.3000756000002514
100
AcDbArc
 50
270.000015
 51
0.0
  0
LINE
  5
199
330
1F
100
AcDbEntity
  8
0
  6
Continuous
 62
     7
100
AcDbLine
 10
149.3378697843
 20
-1.9887572066
 30
0.0
 11
149.3378697843
 21
-0.5883794003
 31
0.0
  0
ARC
  5
19A
330
1F
100
AcDbEntity
  8
0
  6
Continuous
 62
     7
100
AcDbCircle
 10
149.0377951845
 20
-0.5883794003
 30
0.0
 40
0.3000756000000138
100
AcDbArc
 50
0.0
 51
90.0
  0
LINE
  5
19B
330
1F
100
AcDbEntity
  8
0
  6
Continuous
 62
     7
100
AcDbLine
 10
139.6354253843
 20
-0.2883158033
 30
0.0
 11
149.0377951845
 21
-0.2883158033
 31
0.0
  0
LINE
  5
19C
330
1F
100
AcDbEntity
  8
0
  6
Continuous
 62
     7
100
AcDbLine
 10
139.6354253843
 20
-2.2888198033
 30
0.0
 11
149.0377951845
 21
-2.2888198033
 31
0.0
  0
ARC
  5
19D
330
1F
100
AcDbEntity
  8
0
  6
Continuous
 62
     7
100
AcDbCircle
 10
139.6354253843
 20
-1.9887572066
 30
0.0
 40
0.3000756000000138
100
AcDbArc
 50
180.0
 51
269.999985
  0
LINE
  5
19E
330
1F
100
AcDbEntity
  8
0
  6
Continuous
 62
     7
100
AcDbLine
 10
139.3353497843
 20
-1.9887572066
 30
0.0
 11
139.3353497843
 21
-0.5883794003
 31
0.0
  0
ARC
  5
19F
330
1F
100
AcDbEntity
  8
0
  6
Continuous
 62
     7
100
AcDbCircle
 10
139.6354253843
 20
-0.5883794003
 30
0.0
 40
0.3000755999995022
100
AcDbArc
 50
90.0
 51
180.0
  0
LINE
  5
1A0
330
1F
100
AcDbEntity
  8
0
  6
Continuous
 62
     7
100
AcDbLine
 10
139.6354253843
 20
21.7172281967
 30
0.0
 11
149.0377951845
 21
21.7172281967
 31
0.0
  0
ARC
  5
1A1
330
1F
100
AcDbEntity
  8
0
  6
Continuous
 62
     7
100
AcDbCircle
 10
139.6354253843
 20
22.0172907934
 30
0.0
 40
0.3000756000000167
100
AcDbArc
 50
179.9999919999
 51
270.0
  0
LINE
  5
1A2
330
1F
100
AcDbEntity
  8
0
  6
Continuous
 62
     7
100
AcDbLine
 10
139.3353497843
 20
23.4176685997
 30
0.0
 11
139.3353497843
 21
22.0172907934
 31
0.0
  0
ARC
  5
1A3
330
1F
100
AcDbEntity
  8
0
  6
Continuous
 62
     7
100
AcDbCircle
 10
139.6354253843
 20
23.4176685997
 30
0.0
 40
0.3000756000002448
100
AcDbArc
 50
90.000009
 51
179.9999920001
  0
LINE
  5
1A4
330
1F
100
AcDbEntity
  8
0
  6
Continuous
 62
     7
100
AcDbLine
 10
139.6354253843
 20
23.7177321967
 30
0.0
 11
149.0377951845
 21
23.7177321967
 31
0.0
  0
ARC
  5
1A5
330
1F
100
AcDbEntity
  8
0
  6
Continuous
 62
     7
100
AcDbCircle
 10
149.0377951845
 20
23.4176685997
 30
0.0
 40
0.3000756000000138
100
AcDbArc
 50
0.0
 51
90.0
  0
LINE
  5
1A6
330
1F
100
AcDbEntity
  8
0
  6
Continuous
 62
     7
100
AcDbLine
 10
149.3378697843
 20
23.4176685997
 30
0.0
 11
149.3378697843
 21
22.0172907934
 31
0.0
  0
ARC
  5
1A7
330
1F
100
AcDbEntity
  8
0
  6
Continuous
 62
     7
100
AcDbCircle
 10
149.0377951845
 20
22.0172907934
 30
0.0
 40
0.3000755999995692
100
AcDbArc
 50
270.000015
 51
0.0
  0
ARC
  5
1A8
330
1F
100
AcDbEntity
  8
0
  6
Continuous
 62
     7
100
AcDbCircle
 10
173.844042784
 20
-21.2936008015
 30
0.0
 40
1.000251999999606
100
AcDbArc
 50
90.00001
 51
179.999992
  0
ARC
  5
1A9
330
1F
100
AcDbEntity
  8
0
  6
Continuous
 62
     7
100
AcDbCircle
 10
173.844042784
 20
42.7225201967
 30
0.0
 40
1.000252000000046
100
AcDbArc
 50
180.0
 51
270.0
  0
CIRCLE
  5
1AA
330
1F
100
AcDbEntity
  8
0
  6
Continuous
 62
     7
100
AcDbCircle
 10
144.3366097843
 20
-31.0460578015
 30
0.0
 40
1.00025200000033
  0
CIRCLE
  5
1AB
330
1F
100
AcDbEntity
  8
0
  6
Continuous
 62
     7
100
AcDbCircle
 10
144.3366097843
 20
52.4749771967
 30
0.0
 40
1.000251999999648
  0
LINE
  5
1AC
330
1F
100
AcDbEntity
  8
0
  6
Continuous
 62
     7
100
AcDbLine
 10
153.2346345216
 20
8.9640151967
 30
0.0
 11
154.0890667843
 21
8.9640151967
 31
0.0
  0
LINE
  5
1AD
330
1F
100
AcDbEntity
  8
0
  6
Continuous
 62
     7
100
AcDbLine
 10
135.4385860472
 20
8.9640151967
 30
0.0
 11
134.5841527843
 21
8.9640151967
 31
0.0
  0
LINE
  5
1AE
330
1F
100
AcDbEntity
  8
0
  6
Continuous
 62
     7
100
AcDbLine
 10
153.2346345216
 20
12.4648971967
 30
0.0
 11
154.0890667843
 21
12.4648971967
 31
0.0
  0
ARC
  5
1AF
330
1F
100
AcDbEntity
  8
0
  6
Continuous
 62
     7
100
AcDbCircle
 10
149.0878067843
 20
10.7144561967
 30
0.0
 40
4.501133999999867
100
AcDbArc
 50
22.885376
 51
90.0
  0
ARC
  5
1B0
330
1F
100
AcDbEntity
  8
0
  6
Continuous
 62
     7
100
AcDbCircle
 10
139.5854127843
 20
10.7144561967
 30
0.0
 40
4.501134000000205
100
AcDbArc
 50
90.000009
 51
157.114624
  0
LINE
  5
1B1
330
1F
100
AcDbEntity
  8
0
  6
Continuous
 62
     7
100
AcDbLine
 10
135.4385860472
 20
12.4648971967
 30
0.0
 11
134.5841527843
 21
12.4648971967
 31
0.0
  0
LINE
  5
1B2
330
1F
100
AcDbEntity
  8
0
  6
Continuous
 62
     7
100
AcDbLine
 10
170.3431627845
 20
44.2228981967
 30
0.0
 11
170.3431627845
 21
-22.7939788015
 31
0.0
  0
LINE
  5
1B3
330
1F
100
AcDbEntity
  8
0
  6
Continuous
 62
     7
100
AcDbLine
 10
155.0893187843
 20
20.5167907627
 30
0.0
 11
155.0893187843
 21
0.9118155536
 31
0.0
  0
LINE
  5
1B4
330
1F
100
AcDbEntity
  8
0
  6
Continuous
 62
     7
100
AcDbLine
 10
163.0913357845
 20
9.7142041967
 30
0.0
 11
165.0918397845
 21
9.7142041967
 31
0.0
  0
LINE
  5
1B5
330
1F
100
AcDbEntity
  8
0
  6
Continuous
 62
     7
100
AcDbLine
 10
163.0913357845
 20
13.2150861967
 30
0.0
 11
165.0918397845
 21
13.2150861967
 31
0.0
  0
ARC
  5
1B6
330
1F
100
AcDbEntity
  8
0
  6
Continuous
 62
     7
100
AcDbCircle
 10
163.0913357845
 20
12.4648971967
 30
0.0
 40
0.7501890000002618
100
AcDbArc
 50
90.0
 51
270.0
  0
ARC
  5
1B7
330
1F
100
AcDbEntity
  8
0
  6
Continuous
 62
     7
100
AcDbCircle
 10
165.0918397845
 20
12.4648971967
 30
0.0
 40
0.7501890000002618
100
AcDbArc
 50
270.0
 51
0.0
  0
ARC
  5
1B8
330
1F
100
AcDbEntity
  8
0
  6
Continuous
 62
     7
100
AcDbCircle
 10
165.0918397845
 20
12.4648971967
 30
0.0
 40
0.7501889999998639
100
AcDbArc
 50
0.0
 51
90.0
  0
LINE
  5
1B9
330
1F
100
AcDbEntity
  8
0
  6
Continuous
 62
     7
100
AcDbLine
 10
163.0913357845
 20
11.7147081967
 30
0.0
 11
165.0918397845
 21
11.7147081967
 31
0.0
  0
CIRCLE
  5
1BA
330
1F
100
AcDbEntity
  8
_Translation
  6
Continuous
 62
     7
100
AcDbCircle
 10
160.5115451866
 20
-40.2983888015
 30
0.0
 40
0.01
  0
CIRCLE
  5
1BB
330
1F
100
AcDbEntity
  8
_Translation
  6
Continuous
 62
     7
100
AcDbCircle
 10
156.5115451866
 20
61.7273111975
 30
0.0
 40
0.01
  0
CIRCLE
  5
1BC
330
1F
100
AcDbEntity
  8
_Translation
  6
Continuous
 62
     7
100
AcDbCircle
 10
115.8294217827
 20
-47.0
 30
0.0
 40
0.01
  0
CIRCLE
  5
1BD
330
1F
100
AcDbEntity
  8
_Translation
  6
Continuous
 62
     7
100
AcDbCircle
 10
180.4457049837
 20
-45.0
 30
0.0
 40
0.01
  0
MTEXT
  5
1BE
330
1F
100
AcDbEntity
  8
0
100
AcDbMText
 10
144.7475708494
 20
-55.9725677083
 30
0.0
 40
3.2576822917
 41
4.9753793182
 46
4.2646122727
 71
     1
 72
     1
  1
{\fHGPｺﾞｼｯｸM|b0||i0||c0|p34;\C7;\H3.257682292;\W1.;65}
 73
     1
 44
1.0
1001
ACAD
1000
ACAD_MTEXT_DEFINED_HEIGHT_BEGIN
1070
    46
1040
4.2646122727
1000
ACAD_MTEXT_DEFINED_HEIGHT_END
  0
CIRCLE
  5
1BF
330
1F
100
AcDbEntity
  8
_Translation
  6
Continuous
 62
     7
100
AcDbCircle
 10
-79.4884548134
 20
-95.7218129183
 30
0.0
 40
0.01
  0
CIRCLE
  5
1C0
330
1F
100
AcDbEntity
  8
_Translation
  6
Continuous
 62
     7
100
AcDbCircle
 10
-79.4884548134
 20
-140.7713237567
 30
0.0
 40
0.01
  0
CIRCLE
  5
1C1
330
1F
100
AcDbEntity
  8
_Translation
  6
Continuous
 62
     7
100
AcDbCircle
 10
-79.1604720951
 20
-86.7218129183
 30
0.0
 40
0.01
  0
CIRCLE
  5
1C2
330
1F
100
AcDbEntity
  8
_Translation
  6
Continuous
 62
     7
100
AcDbCircle
 10
-79.4884548134
 20
-95.7218129183
 30
0.0
 40
0.01
  0
CIRCLE
  5
1C3
330
1F
100
AcDbEntity
  8
_Translation
  6
Continuous
 62
     7
100
AcDbCircle
 10
-80.7479720951
 20
-73.7218129183
 30
0.0
 40
0.01
  0
CIRCLE
  5
1C4
330
1F
100
AcDbEntity
  8
_Translation
  6
Continuous
 62
     7
100
AcDbCircle
 10
-79.1604720951
 20
-86.7218129183
 30
0.0
 40
0.01
  0
LINE
  5
1C5
330
1F
100
AcDbEntity
  8
0
  6
Continuous
 62
     7
100
AcDbLine
 10
-125.8177706634
 20
31.0288904506
 30
0.0
 11
-155.846661114
 21
1.0
 31
0.0
  0
LINE
  5
1C6
330
1F
100
AcDbEntity
  8
0
  6
Continuous
 62
     7
100
AcDbLine
 10
-155.846661114
 20
1.0
 30
0.0
 11
-176.0
 21
1.0
 31
0.0
  0
LINE
  5
1C7
330
1F
100
AcDbEntity
  8
一般
  6
Continuous
 62
     7
100
AcDbLine
 10
-117.1202030438
 20
-140.1538242091
 30
0.0
 11
-117.1202030438
 21
82.3353882088
 31
0.0
  0
INSERT
  5
1C9
330
1F
100
AcDbEntity
  8
0
100
AcDbBlockReference
  2
SE
 10
0.0
 20
0.0
 30
0.0
  0
INSERT
  5
1D5
330
1F
100
AcDbEntity
  8
0
100
AcDbBlockReference
  2
SE2
 10
0.0
 20
0.0
 30
0.0
  0
INSERT
  5
1E1
330
1F
100
AcDbEntity
  8
0
100
AcDbBlockReference
  2
SE4
 10
0.0
 20
0.0
 30
0.0
  0
INSERT
  5
1ED
330
1F
100
AcDbEntity
  8
0
100
AcDbBlockReference
  2
SE6
 10
0.0
 20
0.0
 30
0.0
  0
INSERT
  5
1F9
330
1F
100
AcDbEntity
  8
0
100
AcDbBlockReference
  2
SE8
 10
0.0
 20
0.0
 30
0.0
  0
INSERT
  5
218
330
1F
100
AcDbEntity
  8
一般
 62
     7
100
AcDbBlockReference
  2
グループ
 10
26.3012895366
 20
23.3856618445
 30
0.0
  0
INSERT
  5
220
330
1F
100
AcDbEntity
  8
一般
 62
     7
100
AcDbBlockReference
  2
グループ-1
 10
51.2715026358
 20
13.0260393766
 30
0.0
  0
INSERT
  5
228
330
1F
100
AcDbEntity
  8
一般
 62
     7
100
AcDbBlockReference
  2
グループ-2
 10
51.2715026358
 20
38.0879545641
 30
0.0
  0
INSERT
  5
230
330
1F
100
AcDbEntity
  8
一般
 62
     7
100
AcDbBlockReference
  2
グループ-3
 10
51.2715026358
 20
-11.9120454359
 30
0.0
  0
INSERT
  5
232
330
1F
100
AcDbEntity
  8
0
100
AcDbBlockReference
  2
SE10
 10
0.0
 20
0.0
 30
0.0
  0
INSERT
  5
259
330
1F
100
AcDbEntity
  8
一般
 62
     7
100
AcDbBlockReference
  2
グループ-5
 10
-128.0759133404
 20
-87.6854954133
 30
0.0
  0
INSERT
  5
25B
330
1F
100
AcDbEntity
  8
0
100
AcDbBlockReference
  2
SE12
 10
0.0
 20
0.0
 30
0.0
  0
DIMENSION
  5
278
330
1F
100
AcDbEntity
  8
寸法
  6
Continuous
 62
     7
100
AcDbDimension
  2
DMBLK51
 10
-182.1791671759
 20
75.0260393766
 30
0.0
 11
-182.1791671759
 21
15.5260407475
 31
0.0
 70
   160
  1
\A1;<>
 71
     5
 42
-1.0
 73
     0
 74
     0
 75
     0
  3
Arch
100
AcDbAlignedDimension
 13
-154.4884548134
 23
-43.9739606234
 33
0.0
 14
-153.3363825291
 24
75.0260393766
 34
0.0
 50
90.0
100
AcDbRotatedDimension
  0
DIMENSION
  5
282
330
1F
100
AcDbEntity
  8
寸法
  6
Continuous
 62
     7
100
AcDbDimension
  2
DMBLK52
 10
189.5115454548
 20
-37.7977588015
 30
0.0
 11
189.5115454548
 21
11.2059689326
 31
0.0
 70
   161
  1
\A1;<>
 71
     5
 42
-1.0
 73
     0
 74
     0
 75
     0
  3
Arch
100
AcDbAlignedDimension
 13
176.5115451866
 23
-37.7977588015
 33
0.0
 14
176.5115451866
 24
60.2096964255
 34
0.0
  0
DIMENSION
  5
28C
330
1F
100
AcDbEntity
  8
寸法
  6
Continuous
 62
     7
100
AcDbDimension
  2
DMBLK53
 10
-151.8354720951
 20
99.8461762369
 30
0.0
 11
-117.3354712308
 21
99.8461762369
 31
0.0
 70
   160
  1
\A1;<>
 71
     5
 42
-1.0
 73
     0
 74
     0
 75
     0
  3
Arch
100
AcDbAlignedDimension
 13
-82.8354720951
 23
83.0
 33
0.0
 14
-151.8354720951
 24
83.0
 34
0.0
100
AcDbRotatedDimension
  0
INSERT
  5
297
330
1F
100
AcDbEntity
  8
0
100
AcDbBlockReference
  2
SE14
 10
0.0
 20
0.0
 30
0.0
  0
INSERT
  5
2A7
330
1F
100
AcDbEntity
  8
一般
 62
     7
100
AcDbBlockReference
  2
グループ-6
 10
-129.0863825291
 20
25.9611371173
 30
0.0
  0
DIMENSION
  5
2A8
330
1F
100
AcDbEntity
  8
寸法
  6
Continuous
 62
     7
100
AcDbDimension
  2
DMBLK54
 10
-168.1791667438
 20
75.0260393766
 30
0.0
 11
-168.1791667438
 21
56.7760391083
 31
0.0
 70
   160
  1
\A1;<>
 71
     5
 42
-1.0
 73
     0
 74
     0
 75
     0
  3
Arch
100
AcDbAlignedDimension
 13
-154.4884548134
 23
38.5260393766
 33
0.0
 14
-153.3363825291
 24
75.0260393766
 34
0.0
 50
90.0
100
AcDbRotatedDimension
  0
INSERT
  5
2B7
330
1F
100
AcDbEntity
  8
一般
 62
     7
100
AcDbBlockReference
  2
グループ-7
 10
-103.1376840779
 20
55.2342053888
 30
0.0
  0
INSERT
  5
2C3
330
1F
100
AcDbEntity
  8
一般
 62
     7
100
AcDbBlockReference
  2
グループ-8
 10
39.1573401825
 20
-44.0886785472
 30
0.0
  0
INSERT
  5
2C5
330
1F
100
AcDbEntity
  8
0
100
AcDbBlockReference
  2
SE16
 10
0.0
 20
0.0
 30
0.0
  0
INSERT
  5
2DB
330
1F
100
AcDbEntity
  8
一般
 62
     7
100
AcDbBlockReference
  2
グループ-9
 10
-151.3354720951
 20
-95.7218129183
 30
0.0
  0
DIMENSION
  5
2DC
330
1F
100
AcDbEntity
  8
寸法
  6
Continuous
 62
     7
100
AcDbDimension
  2
DMBLK55
 10
-168.1791664159
 20
-8.964816218
 30
0.0
 11
-168.1791664159
 21
-26.4648162925
 31
0.0
 70
   161
  1
\A1;<>
 71
     5
 42
-1.0
 73
     0
 74
     0
 75
     0
  3
Arch
100
AcDbAlignedDimension
 13
-156.4884548134
 23
-8.964816218
 33
0.0
 14
-156.4884548134
 24
-43.964816218
 34
0.0
  0
DIMENSION
  5
2E6
330
1F
100
AcDbEntity
  8
寸法
  6
Continuous
 62
     7
100
AcDbDimension
  2
DMBLK56
 10
-59.6423583789
 20
62.0
 30
0.0
 11
-59.6423583789
 21
68.513019558
 31
0.0
 70
   161
  1
\A1;<>
 71
     5
 42
-1.0
 73
     0
 74
     0
 75
     0
  3
Arch
100
AcDbAlignedDimension
 13
-79.5904851271
 23
62.0
 33
0.0
 14
-79.5904851271
 24
75.0260393766
 34
0.0
  0
DIMENSION
  5
2F0
330
1F
100
AcDbEntity
  8
寸法
  6
Continuous
 62
     7
100
AcDbDimension
  2
DMBLK57
 10
-59.6423583789
 20
-31.0
 30
0.0
 11
-59.6423583789
 21
15.5000011027
 31
0.0
 70
   161
  1
\A1;<>
 71
     5
 42
-1.0
 73
     0
 74
     0
 75
     0
  3
Arch
100
AcDbAlignedDimension
 13
-79.5904851271
 23
-31.0
 33
0.0
 14
-79.5904851271
 24
62.0
 34
0.0
  0
DIMENSION
  5
2FA
330
1F
100
AcDbEntity
  8
寸法
  6
Continuous
 62
     7
100
AcDbDimension
  2
DMBLK58
 10
-82.8354720951
 20
-64.3097814849
 30
0.0
 11
-89.3354719609
 21
-64.3097814849
 31
0.0
 70
   160
  1
\A1;<>
 71
     5
 42
-1.0
 73
     0
 74
     0
 75
     0
  3
Arch
100
AcDbAlignedDimension
 13
-95.8354720951
 23
-54.3097817084
 33
0.0
 14
-82.8354720951
 24
-50.1910317084
 34
0.0
100
AcDbRotatedDimension
  0
DIMENSION
  5
304
330
1F
100
AcDbEntity
  8
寸法
  6
Continuous
 62
     7
100
AcDbDimension
  2
DMBLK59
 10
-138.8311663853
 20
-64.3097816035
 30
0.0
 11
-117.3311656551
 21
-64.3097816035
 31
0.0
 70
   161
  1
\A1;<>
 71
     5
 42
-1.0
 73
     0
 74
     0
 75
     0
  3
Arch
100
AcDbAlignedDimension
 13
-138.8311663853
 23
-50.0
 33
0.0
 14
-95.8311663853
 24
-50.0
 34
0.0
  0
DIMENSION
  5
30E
330
1F
100
AcDbEntity
  8
寸法
  6
Continuous
 62
     7
100
AcDbDimension
  2
DMBLK60
 10
-67.4884549095
 20
-16.0
 30
0.0
 11
-67.4884549095
 21
-23.5000001676
 31
0.0
 70
   160
  1
\A1;<>
 71
     5
 42
-1.0
 73
     0
 74
     0
 75
     0
  3
Arch
100
AcDbAlignedDimension
 13
-79.5904851271
 23
-31.0
 33
0.0
 14
-78.9009548134
 24
-16.0
 34
0.0
 50
90.0
100
AcDbRotatedDimension
1001
ACAD
1000
DSTYLE
1002
{
1070
   141
1041
1.9003146701
1070
    44
1041
1.9003146701
1070
    42
1041
1.9003146701
1070
   147
1041
0.9501573351
1070
   140
1041
3.8006293403
1070
     0
1002
}
  0
INSERT
  5
319
330
1F
100
AcDbEntity
  8
0
100
AcDbBlockReference
  2
SE18
 10
0.0
 20
0.0
 30
0.0
  0
DIMENSION
  5
324
330
1F
100
AcDbEntity
  8
寸法
  6
Continuous
 62
     7
100
AcDbDimension
  2
DMBLK61
 10
-67.4884545452
 20
-3.0
 30
0.0
 11
-67.4884545452
 21
-9.5000001341
 31
0.0
 70
   161
  1
\A1;<>
 71
     5
 42
-1.0
 73
     0
 74
     0
 75
     0
  3
Arch
100
AcDbAlignedDimension
 13
-80.4884548134
 23
-3.0
 33
0.0
 14
-80.4884548134
 24
-16.0
 34
0.0
1001
ACAD
1000
DSTYLE
1002
{
1070
   141
1041
1.9003146701
1070
    44
1041
1.9003146701
1070
    42
1041
1.9003146701
1070
   147
1041
0.9501573351
1070
   140
1041
3.8006293403
1070
     0
1002
}
  0
DIMENSION
  5
32E
330
1F
100
AcDbEntity
  8
寸法
  6
Continuous
 62
     7
100
AcDbDimension
  2
DMBLK62
 10
-111.4735582933
 20
8.6027128502
 30
0.0
 11
-103.9735584609
 21
8.6027128502
 31
0.0
 70
   161
  1
\A1;<>
 71
     5
 42
-1.0
 73
     0
 74
     0
 75
     0
  3
Arch
100
AcDbAlignedDimension
 13
-111.4735582933
 23
1.6027126342
 33
0.0
 14
-96.4735582933
 24
1.6027126342
 34
0.0
1001
ACAD
1000
DSTYLE
1002
{
1070
   141
1041
1.9003146701
1070
    44
1041
1.9003146701
1070
    42
1041
1.9003146701
1070
   147
1041
0.9501573351
1070
   140
1041
3.8006293403
1070
     0
1002
}
  0
INSERT
  5
343
330
1F
100
AcDbEntity
  8
一般
 62
     7
100
AcDbBlockReference
  2
グループ-10
 10
-123.8311663853
 20
-16.0
 30
0.0
  0
DIMENSION
  5
344
330
1F
100
AcDbEntity
  8
寸法
  6
Continuous
 62
     7
100
AcDbDimension
  2
DMBLK63
 10
-33.3601836417
 20
3.8727186829
 30
0.0
 11
-26.8601837758
 21
3.8727186829
 31
0.0
 70
   160
  1
\A1;<>
 71
     5
 42
-1.0
 73
     0
 74
     0
 75
     0
  3
Arch
100
AcDbAlignedDimension
 13
-20.3601836417
 23
-6.7147817254
 33
0.0
 14
-33.3601836417
 24
-5.1272817254
 34
0.0
100
AcDbRotatedDimension
1001
ACAD
1000
DSTYLE
1002
{
1070
   141
1041
1.2216308594
1070
    44
1041
1.2216308594
1070
    42
1041
1.2216308594
1070
   147
1041
0.6108154297
1070
   140
1041
2.4432617188
1070
     0
1002
}
  0
DIMENSION
  5
34E
330
1F
100
AcDbEntity
  8
寸法
  6
Continuous
 62
     7
100
AcDbDimension
  2
DMBLK64
 10
-33.3601836417
 20
-2.7147816304
 30
0.0
 11
-30.8601835858
 21
-2.7147816304
 31
0.0
 70
   160
  1
\A1;<>
 71
     5
 42
-1.0
 73
     0
 74
     0
 75
     0
  3
Arch
100
AcDbAlignedDimension
 13
-28.3601836417
 23
-4.7147817254
 33
0.0
 14
-33.3601836417
 24
-5.7147817254
 34
0.0
100
AcDbRotatedDimension
1001
ACAD
1000
DSTYLE
1002
{
1070
   141
1041
1.2216308594
1070
    44
1041
1.2216308594
1070
    42
1041
1.2216308594
1070
   147
1041
0.6108154297
1070
   140
1041
2.4432617188
1070
     0
1002
}
  0
DIMENSION
  5
358
330
1F
100
AcDbEntity
  8
寸法
  6
Continuous
 62
     7
100
AcDbDimension
  2
DMBLK65
 10
-28.3834304204
 20
-2.7147816327
 30
0.0
 11
-26.8834304334
 21
-2.7147816327
 31
0.0
 70
   160
  1
\A1;<>
 71
     5
 42
-1.0
 73
     0
 74
     0
 75
     0
  3
Arch
100
AcDbAlignedDimension
 13
-25.3834304204
 23
-5.1272817254
 33
0.0
 14
-28.3834304204
 24
-5.0188686198
 34
0.0
100
AcDbRotatedDimension
1001
ACAD
1000
DSTYLE
1002
{
1070
   141
1041
1.2216308594
1070
    44
1041
1.2216308594
1070
    42
1041
1.2216308594
1070
   147
1041
0.6108154297
1070
   140
1041
2.4432617188
1070
     0
1002
}
  0
DIMENSION
  5
362
330
1F
100
AcDbEntity
  8
寸法
  6
Continuous
 62
     7
100
AcDbDimension
  2
DMBLK66
 10
-12.3601834279
 20
-6.7147817254
 30
0.0
 11
-12.3601834279
 21
-7.7147816779
 31
0.0
 70
   160
  1
\A1;<>
 71
     5
 42
-1.0
 73
     0
 74
     0
 75
     0
  3
Arch
100
AcDbAlignedDimension
 13
-19.7726836417
 23
-8.7147817254
 33
0.0
 14
-21.3601836417
 24
-6.7147817254
 34
0.0
 50
90.0
100
AcDbRotatedDimension
1001
ACAD
1000
DSTYLE
1002
{
1070
   141
1041
1.2216308594
1070
    44
1041
1.2216308594
1070
    42
1041
1.2216308594
1070
   147
1041
0.6108154297
1070
   140
1041
2.4432617188
1070
     0
1002
}
  0
DIMENSION
  5
36C
330
1F
100
AcDbEntity
  8
寸法
  6
Continuous
 62
     7
100
AcDbDimension
  2
DMBLK67
 10
-12.3601840291
 20
-10.7147817254
 30
0.0
 11
-12.3601840291
 21
-9.7147816779
 31
0.0
 70
   161
  1
\A1;<>
 71
     5
 42
-1.0
 73
     0
 74
     0
 75
     0
  3
Arch
100
AcDbAlignedDimension
 13
-21.3601836417
 23
-10.7147817254
 33
0.0
 14
-21.3601836417
 24
-8.7147817254
 34
0.0
1001
ACAD
1000
DSTYLE
1002
{
1070
   141
1041
1.2216308594
1070
    44
1041
1.2216308594
1070
    42
1041
1.2216308594
1070
   147
1041
0.6108154297
1070
   140
1041
2.4432617188
1070
     0
1002
}
  0
DIMENSION
  5
376
330
1F
100
AcDbEntity
  8
寸法
  6
Continuous
 62
     7
100
AcDbDimension
  2
DMBLK68
 10
-39.3601836938
 20
-19.7147817254
 30
0.0
 11
-39.3601836938
 21
-13.2147815913
 31
0.0
 70
   161
  1
\A1;<>
 71
     5
 42
-1.0
 73
     0
 74
     0
 75
     0
  3
Arch
100
AcDbAlignedDimension
 13
-33.3601836417
 23
-19.7147817254
 33
0.0
 14
-33.3601836417
 24
-6.7147817254
 34
0.0
1001
ACAD
1000
DSTYLE
1002
{
1070
   141
1041
1.2216308594
1070
    44
1041
1.2216308594
1070
    42
1041
1.2216308594
1070
   147
1041
0.6108154297
1070
   140
1041
2.4432617188
1070
     0
1002
}
  0
INSERT
  5
381
330
1F
100
AcDbEntity
  8
0
100
AcDbBlockReference
  2
SE20
 10
0.0
 20
0.0
 30
0.0
  0
INSERT
  5
38D
330
1F
100
AcDbEntity
  8
0
100
AcDbBlockReference
  2
SE22
 10
0.0
 20
0.0
 30
0.0
  0
INSERT
  5
399
330
1F
100
AcDbEntity
  8
0
100
AcDbBlockReference
  2
SE24
 10
0.0
 20
0.0
 30
0.0
  0
INSERT
  5
3C2
330
1F
100
AcDbEntity
  8
一般
 62
     7
100
AcDbBlockReference
  2
グループ-11
 10
55.679750636
 20
59.3884509127
 30
0.0
  0
INSERT
  5
3C4
330
1F
100
AcDbEntity
  8
0
100
AcDbBlockReference
  2
SE26
 10
0.0
 20
0.0
 30
0.0
  0
INSERT
  5
41D
330
1F
100
AcDbEntity
  8
0
 62
     7
100
AcDbBlockReference
  2
グループ-12
 10
48.5194762083
 20
-40.2716986055
 30
0.0
  0
DIMENSION
  5
41E
330
1F
100
AcDbEntity
  8
寸法
  6
Continuous
 62
     7
100
AcDbDimension
  2
DMBLK69
 10
201.5115463191
 20
61.7273111975
 30
0.0
 11
201.5115463191
 21
10.7144624963
 31
0.0
 70
   160
  1
\A1;<>
 71
     5
 42
-1.0
 73
     0
 74
     0
 75
     0
  3
Arch
100
AcDbAlignedDimension
 13
160.5115451866
 23
-40.2983888015
 33
0.0
 14
156.5115451866
 24
61.7273111975
 34
0.0
 50
90.0
100
AcDbRotatedDimension
  0
DIMENSION
  5
428
330
1F
100
AcDbEntity
  8
寸法
  6
Continuous
 62
     7
100
AcDbDimension
  2
DMBLK70
 10
180.4457049837
 20
-61.9999996647
 30
0.0
 11
148.137564415
 21
-61.9999996647
 31
0.0
 70
   160
  1
\A1;<>
 71
     5
 42
-1.0
 73
     0
 74
     0
 75
     0
  3
Arch
100
AcDbAlignedDimension
 13
115.8294217827
 23
-47.0
 33
0.0
 14
180.4457049837
 24
-45.0
 34
0.0
100
AcDbRotatedDimension
  0
INSERT
  5
433
330
1F
100
AcDbEntity
  8
0
100
AcDbBlockReference
  2
SE28
 10
0.0
 20
0.0
 30
0.0
  0
DIMENSION
  5
43E
330
1F
100
AcDbEntity
  8
寸法
  6
Continuous
 62
     7
100
AcDbDimension
  2
DMBLK71
 10
-58.4884550965
 20
-95.7218129183
 30
0.0
 11
-58.4884550965
 21
-118.2465683664
 31
0.0
 70
   161
  1
\A1;<>
 71
     5
 42
-1.0
 73
     0
 74
     0
 75
     0
  3
Arch
100
AcDbAlignedDimension
 13
-79.4884548134
 23
-95.7218129183
 33
0.0
 14
-79.4884548134
 24
-140.7713237567
 34
0.0
1001
ACAD
1000
DSTYLE
1002
{
1070
    41
1041
3.175
1070
   141
1041
1.3573676215
1070
    44
1041
1.3573676215
1070
    42
1041
1.3573676215
1070
   147
1041
0.6786838108
1070
   140
1041
2.7147352431
1070
     0
1002
}
  0
DIMENSION
  5
448
330
1F
100
AcDbEntity
  8
寸法
  6
Continuous
 62
     7
100
AcDbDimension
  2
DMBLK72
 10
-58.4884543866
 20
-95.7218129183
 30
0.0
 11
-58.4884543866
 21
-91.2218127246
 31
0.0
 70
   160
  1
\A1;<>
 71
     5
 42
-1.0
 73
     0
 74
     0
 75
     0
  3
Arch
100
AcDbAlignedDimension
 13
-79.1604720951
 23
-86.7218129183
 33
0.0
 14
-79.4884548134
 24
-95.7218129183
 34
0.0
 50
90.0
100
AcDbRotatedDimension
1001
ACAD
1000
DSTYLE
1002
{
1070
    41
1041
3.175
1070
   141
1041
1.3573676215
1070
    44
1041
1.3573676215
1070
    42
1041
1.3573676215
1070
   147
1041
0.6786838108
1070
   140
1041
2.7147352431
1070
     0
1002
}
  0
DIMENSION
  5
452
330
1F
100
AcDbEntity
  8
寸法
  6
Continuous
 62
     7
100
AcDbDimension
  2
DMBLK73
 10
-58.4884554536
 20
-86.7218129183
 30
0.0
 11
-58.4884554536
 21
-80.2218130524
 31
0.0
 70
   160
  1
\A1;<>
 71
     5
 42
-1.0
 73
     0
 74
     0
 75
     0
  3
Arch
100
AcDbAlignedDimension
 13
-80.7479720951
 23
-73.7218129183
 33
0.0
 14
-79.1604720951
 24
-86.7218129183
 34
0.0
 50
90.0
100
AcDbRotatedDimension
1001
ACAD
1000
DSTYLE
1002
{
1070
    41
1041
3.175
1070
   141
1041
1.3573676215
1070
    44
1041
1.3573676215
1070
    42
1041
1.3573676215
1070
   147
1041
0.6786838108
1070
   140
1041
2.7147352431
1070
     0
1002
}
  0
INSERT
  5
45D
330
1F
100
AcDbEntity
  8
0
100
AcDbBlockReference
  2
SE30
 10
0.0
 20
0.0
 30
0.0
  0
INSERT
  5
46E
330
1F
100
AcDbEntity
  8
0
 62
     7
100
AcDbBlockReference
  2
グループ-13
 10
128.5045034046
 20
-79.65
 30
0.0
  0
ENDSEC
  0
SECTION
  2
OBJECTS
  0
DICTIONARY
  5
C
330
0
100
AcDbDictionary
281
     1
  3
ACAD_DETAILVIEWSTYLE
350
4AA
  3
ACAD_GROUP
350
D
  3
ACAD_LAYOUT
350
1A
  3
ACAD_MATERIAL
350
43
  3
ACAD_MLEADERSTYLE
350
6B
  3
ACAD_MLINESTYLE
350
17
  3
ACAD_PLOTSETTINGS
350
19
  3
ACAD_PLOTSTYLENAME
350
E
  3
ACAD_SCALELIST
350
47
  3
ACAD_SECTIONVIEWSTYLE
350
4AB
  3
ACAD_TABLESTYLE
350
69
  3
ACAD_VISUALSTYLE
350
2A
  3
ACDB_RECOMPOSE_DATA
350
4A7
  3
AcDbVariableDictionary
350
46F
  0
SUN
  5
6D
330
29
100
AcDbSun
 90
        1
290
     0
 63
     7
421
 16777215
 40
1.0
291
     1
 91
  2455826
 92
 54000000
292
     0
 70
     2
 71
   256
280
     1
  0
DICTIONARY
  5
4AA
102
{ACAD_REACTORS
330
C
102
}
330
C
100
AcDbDictionary
281
     1
  0
DICTIONARY
  5
D
102
{ACAD_REACTORS
330
C
102
}
330
C
100
AcDbDictionary
281
     1
  0
DICTIONARY
  5
1A
102
{ACAD_REACTORS
330
C
102
}
330
C
100
AcDbDictionary
281
     1
  3
Layout1
350
1E
  3
Model
350
22
  0
DICTIONARY
  5
43
102
{ACAD_REACTORS
330
C
102
}
330
C
100
AcDbDictionary
281
     1
  3
ByBlock
350
45
  3
ByLayer
350
44
  3
Global
350
46
  0
DICTIONARY
  5
6B
102
{ACAD_REACTORS
330
C
102
}
330
C
100
AcDbDictionary
281
     1
  3
Standard
350
6C
  0
DICTIONARY
  5
17
102
{ACAD_REACTORS
330
C
102
}
330
C
100
AcDbDictionary
281
     1
  3
Standard
350
18
  0
DICTIONARY
  5
19
102
{ACAD_REACTORS
330
C
102
}
330
C
100
AcDbDictionary
281
     1
  0
ACDBDICTIONARYWDFLT
  5
E
102
{ACAD_REACTORS
330
C
102
}
330
C
100
AcDbDictionary
281
     1
  3
Normal
350
F
100
AcDbDictionaryWithDefault
340
F
  0
DICTIONARY
  5
47
102
{ACAD_REACTORS
330
C
102
}
330
C
100
AcDbDictionary
281
     1
  3
A0
350
48
  3
A1
350
49
  3
A2
350
4A
  3
A3
350
4B
  3
A4
350
4C
  3
A5
350
4D
  3
A6
350
4E
  3
A7
350
4F
  3
A8
350
50
  3
A9
350
51
  3
B0
350
52
  3
B1
350
53
  3
B2
350
54
  3
B3
350
55
  3
B4
350
56
  3
B5
350
57
  3
B6
350
58
  3
B7
350
59
  3
B8
350
5A
  3
B9
350
5B
  3
C0
350
5C
  3
C1
350
5D
  3
C2
350
5E
  3
C3
350
5F
  3
C4
350
60
  3
C5
350
61
  3
C6
350
62
  3
C7
350
63
  3
C8
350
64
  3
C9
350
65
  3
D0
350
66
  3
D1
350
67
  3
D2
350
68
  0
DICTIONARY
  5
4AB
102
{ACAD_REACTORS
330
C
102
}
330
C
100
AcDbDictionary
281
     1
  0
DICTIONARY
  5
69
102
{ACAD_REACTORS
330
C
102
}
330
C
100
AcDbDictionary
281
     1
  3
Standard
350
6A
  0
DICTIONARY
  5
2A
102
{ACAD_REACTORS
330
C
102
}
330
C
100
AcDbDictionary
281
     1
  3
2dWireframe
350
2F
  3
Basic
350
32
  3
Brighten
350
36
  3
ColorChange
350
3A
  3
Conceptual
350
34
  3
Dim
350
35
  3
EdgeColorOff
350
3D
  3
Facepattern
350
39
  3
Flat
350
2B
  3
FlatWithEdges
350
2C
  3
Gouraud
350
2D
  3
GouraudWithEdges
350
2E
  3
Hidden
350
31
  3
JitterOff
350
3B
  3
Linepattern
350
38
  3
OverhangOff
350
3C
  3
Realistic
350
33
  3
Shaded
350
42
  3
Shaded with edges
350
41
  3
Shades of Gray
350
3E
  3
Sketchy
350
3F
  3
Thicken
350
37
  3
Wireframe
350
30
  3
X-Ray
350
40
  0
XRECORD
  5
4A7
102
{ACAD_REACTORS
330
C
102
}
330
C
100
AcDbXrecord
280
     1
 90
        1
330
6A
  0
DICTIONARY
  5
46F
102
{ACAD_REACTORS
330
C
102
}
330
C
100
AcDbDictionary
281
     1
  3
CANNOSCALE
350
470
  3
CENTEREXE
350
4AC
  3
CENTERLTYPEFILE
350
4AD
  3
CMLEADERSTYLE
350
4A9
  3
CTABLESTYLE
350
4A8
  3
XCLIPFRAME
350
471
  0
LAYOUT
  5
1E
102
{ACAD_REACTORS
330
1A
102
}
330
1A
100
AcDbPlotSettings
  1

  2
none_device
  4

  6

 40
0.0
 41
0.0
 42
0.0
 43
0.0
 44
0.0
 45
0.0
 46
0.0
 47
0.0
 48
0.0
 49
0.0
140
0.0
141
0.0
142
1.0
143
1.0
 70
   688
 72
     1
 73
     0
 74
     5
  7

 75
    16
 76
     0
 77
     2
 78
   300
147
1.0
148
0.0
149
0.0
100
AcDbLayout
  1
Layout1
 70
     1
 71
     1
 10
0.0
 20
0.0
 11
594.0
 21
420.0
 12
0.0
 22
0.0
 32
0.0
 14
0.0
 24
0.0
 34
0.0
 15
594.0
 25
420.0
 35
0.0
146
0.0
 13
0.0
 23
0.0
 33
0.0
 16
1.0
 26
0.0
 36
0.0
 17
0.0
 27
1.0
 37
0.0
 76
     0
330
1B
  0
LAYOUT
  5
22
102
{ACAD_REACTORS
330
1A
102
}
330
1A
100
AcDbPlotSettings
  1

  2
none_device
  4
Letter_(8.50_x_11.00_Inches)
  6

 40
6.35
 41
6.35
 42
6.35000508
 43
6.35000508
 44
215.9
 45
279.4
 46
0.0
 47
0.0
 48
0.0
 49
0.0
140
0.0
141
0.0
142
1.0
143
1.0
 70
  1712
 72
     1
 73
     0
 74
     0
  7

 75
     0
 76
     0
 77
     2
 78
   300
147
1.0
148
0.0
149
0.0
100
AcDbLayout
  1
Model
 70
     1
 71
     0
 10
0.0
 20
0.0
 11
594.0
 21
420.0
 12
0.0
 22
0.0
 32
0.0
 14
0.0
 24
0.0
 34
0.0
 15
594.0
 25
420.0
 35
0.0
146
0.0
 13
0.0
 23
0.0
 33
0.0
 16
1.0
 26
0.0
 36
0.0
 17
0.0
 27
1.0
 37
0.0
 76
     0
330
1F
331
29
  0
MATERIAL
  5
45
102
{ACAD_REACTORS
330
43
102
}
330
43
100
AcDbMaterial
  1
ByBlock
 72
     1
 94
      127
  0
MATERIAL
  5
44
102
{ACAD_REACTORS
330
43
102
}
330
43
100
AcDbMaterial
  1
ByLayer
 72
     1
 94
      127
  0
MATERIAL
  5
46
102
{ACAD_REACTORS
330
43
102
}
330
43
100
AcDbMaterial
  1
Global
 72
     1
 94
      127
  0
MLEADERSTYLE
  5
6C
102
{ACAD_REACTORS
330
6B
102
}
102
{ACAD_XDICTIONARY
360
4A5
102
}
330
6B
100
AcDbMLeaderStyle
170
     2
171
     1
172
     0
 90
        2
 40
0.0
 41
0.0
173
     1
 91
-1056964608
340
14
 92
       -2
290
     1
 42
2.0
291
     1
 43
8.0
  3
Standard
341
0
 44
4.0
300

342
11
174
     1
178
     6
175
     1
176
     0
 93
-1056964608
 45
4.0
292
     0
297
     0
 46
4.0
343
0
 94
-1056964608
 47
1.0
 49
1.0
140
1.0
293
     1
141
0.0
294
     1
177
     0
142
1.0
295
     0
296
     0
143
3.75
1001
ACAD_MLEADERVER
1070
     2
  0
MLINESTYLE
  5
18
102
{ACAD_REACTORS
330
17
102
}
330
17
100
AcDbMlineStyle
  2
Standard
 70
     0
  3

 62
   256
 51
90.0
 52
90.0
 71
     2
 49
0.5
 62
   256
  6
BYLAYER
 49
-0.5
 62
   256
  6
BYLAYER
  0
ACDBPLACEHOLDER
  5
F
102
{ACAD_REACTORS
330
E
102
}
330
E
  0
SCALE
  5
48
102
{ACAD_REACTORS
330
47
102
}
330
47
100
AcDbScale
 70
     0
300
1:1
140
1.0
141
1.0
290
     1
  0
SCALE
  5
49
102
{ACAD_REACTORS
330
47
102
}
330
47
100
AcDbScale
 70
     0
300
1:2
140
1.0
141
2.0
290
     0
  0
SCALE
  5
4A
102
{ACAD_REACTORS
330
47
102
}
330
47
100
AcDbScale
 70
     0
300
1:4
140
1.0
141
4.0
290
     0
  0
SCALE
  5
4B
102
{ACAD_REACTORS
330
47
102
}
330
47
100
AcDbScale
 70
     0
300
1:5
140
1.0
141
5.0
290
     0
  0
SCALE
  5
4C
102
{ACAD_REACTORS
330
47
102
}
330
47
100
AcDbScale
 70
     0
300
1:8
140
1.0
141
8.0
290
     0
  0
SCALE
  5
4D
102
{ACAD_REACTORS
330
47
102
}
330
47
100
AcDbScale
 70
     0
300
1:10
140
1.0
141
10.0
290
     0
  0
SCALE
  5
4E
102
{ACAD_REACTORS
330
47
102
}
330
47
100
AcDbScale
 70
     0
300
1:16
140
1.0
141
16.0
290
     0
  0
SCALE
  5
4F
102
{ACAD_REACTORS
330
47
102
}
330
47
100
AcDbScale
 70
     0
300
1:20
140
1.0
141
20.0
290
     0
  0
SCALE
  5
50
102
{ACAD_REACTORS
330
47
102
}
330
47
100
AcDbScale
 70
     0
300
1:30
140
1.0
141
30.0
290
     0
  0
SCALE
  5
51
102
{ACAD_REACTORS
330
47
102
}
330
47
100
AcDbScale
 70
     0
300
1:40
140
1.0
141
40.0
290
     0
  0
SCALE
  5
52
102
{ACAD_REACTORS
330
47
102
}
330
47
100
AcDbScale
 70
     0
300
1:50
140
1.0
141
50.0
290
     0
  0
SCALE
  5
53
102
{ACAD_REACTORS
330
47
102
}
330
47
100
AcDbScale
 70
     0
300
1:100
140
1.0
141
100.0
290
     0
  0
SCALE
  5
54
102
{ACAD_REACTORS
330
47
102
}
330
47
100
AcDbScale
 70
     0
300
2:1
140
2.0
141
1.0
290
     0
  0
SCALE
  5
55
102
{ACAD_REACTORS
330
47
102
}
330
47
100
AcDbScale
 70
     0
300
4:1
140
4.0
141
1.0
290
     0
  0
SCALE
  5
56
102
{ACAD_REACTORS
330
47
102
}
330
47
100
AcDbScale
 70
     0
300
8:1
140
8.0
141
1.0
290
     0
  0
SCALE
  5
57
102
{ACAD_REACTORS
330
47
102
}
330
47
100
AcDbScale
 70
     0
300
10:1
140
10.0
141
1.0
290
     0
  0
SCALE
  5
58
102
{ACAD_REACTORS
330
47
102
}
330
47
100
AcDbScale
 70
     0
300
100:1
140
100.0
141
1.0
290
     0
  0
SCALE
  5
59
102
{ACAD_REACTORS
330
47
102
}
330
47
100
AcDbScale
 70
     0
300
1/128" = 1'-0"
140
0.0078125
141
12.0
290
     0
  0
SCALE
  5
5A
102
{ACAD_REACTORS
330
47
102
}
330
47
100
AcDbScale
 70
     0
300
1/64" = 1'-0"
140
0.015625
141
12.0
290
     0
  0
SCALE
  5
5B
102
{ACAD_REACTORS
330
47
102
}
330
47
100
AcDbScale
 70
     0
300
1/32" = 1'-0"
140
0.03125
141
12.0
290
     0
  0
SCALE
  5
5C
102
{ACAD_REACTORS
330
47
102
}
330
47
100
AcDbScale
 70
     0
300
1/16" = 1'-0"
140
0.0625
141
12.0
290
     0
  0
SCALE
  5
5D
102
{ACAD_REACTORS
330
47
102
}
330
47
100
AcDbScale
 70
     0
300
3/32" = 1'-0"
140
0.09375
141
12.0
290
     0
  0
SCALE
  5
5E
102
{ACAD_REACTORS
330
47
102
}
330
47
100
AcDbScale
 70
     0
300
1/8" = 1'-0"
140
0.125
141
12.0
290
     0
  0
SCALE
  5
5F
102
{ACAD_REACTORS
330
47
102
}
330
47
100
AcDbScale
 70
     0
300
3/16" = 1'-0"
140
0.1875
141
12.0
290
     0
  0
SCALE
  5
60
102
{ACAD_REACTORS
330
47
102
}
330
47
100
AcDbScale
 70
     0
300
1/4" = 1'-0"
140
0.25
141
12.0
290
     0
  0
SCALE
  5
61
102
{ACAD_REACTORS
330
47
102
}
330
47
100
AcDbScale
 70
     0
300
3/8" = 1'-0"
140
0.375
141
12.0
290
     0
  0
SCALE
  5
62
102
{ACAD_REACTORS
330
47
102
}
330
47
100
AcDbScale
 70
     0
300
1/2" = 1'-0"
140
0.5
141
12.0
290
     0
  0
SCALE
  5
63
102
{ACAD_REACTORS
330
47
102
}
330
47
100
AcDbScale
 70
     0
300
3/4" = 1'-0"
140
0.75
141
12.0
290
     0
  0
SCALE
  5
64
102
{ACAD_REACTORS
330
47
102
}
330
47
100
AcDbScale
 70
     0
300
1" = 1'-0"
140
1.0
141
12.0
290
     0
  0
SCALE
  5
65
102
{ACAD_REACTORS
330
47
102
}
330
47
100
AcDbScale
 70
     0
300
1-1/2" = 1'-0"
140
1.5
141
12.0
290
     0
  0
SCALE
  5
66
102
{ACAD_REACTORS
330
47
102
}
330
47
100
AcDbScale
 70
     0
300
3" = 1'-0"
140
3.0
141
12.0
290
     0
  0
SCALE
  5
67
102
{ACAD_REACTORS
330
47
102
}
330
47
100
AcDbScale
 70
     0
300
6" = 1'-0"
140
6.0
141
12.0
290
     0
  0
SCALE
  5
68
102
{ACAD_REACTORS
330
47
102
}
330
47
100
AcDbScale
 70
     0
300
1'-0" = 1'-0"
140
12.0
141
12.0
290
     0
  0
TABLESTYLE
  5
6A
102
{ACAD_REACTORS
330
69
102
}
102
{ACAD_XDICTIONARY
360
4A2
102
}
330
69
100
AcDbTableStyle
  3
Standard
 70
     0
 71
     0
 40
0.06
 41
0.06
280
     0
281
     0
  7
Standard
140
4.5
170
     2
 62
     0
 63
   257
283
     0
 90
        4
 91
        0
  1

274
    -2
284
     1
 64
     0
275
    -2
285
     1
 65
     0
276
    -2
286
     1
 66
     0
277
    -2
287
     1
 67
     0
278
    -2
288
     1
 68
     0
279
    -2
289
     1
 69
     0
  7
Standard
140
6.0
170
     5
 62
     0
 63
   257
283
     0
 90
        4
 91
        0
  1

274
    -2
284
     1
 64
     0
275
    -2
285
     1
 65
     0
276
    -2
286
     1
 66
     0
277
    -2
287
     1
 67
     0
278
    -2
288
     1
 68
     0
279
    -2
289
     1
 69
     0
  7
Standard
140
4.5
170
     5
 62
     0
 63
   257
283
     0
 90
        4
 91
        0
  1

274
    -2
284
     1
 64
     0
275
    -2
285
     1
 65
     0
276
    -2
286
     1
 66
     0
277
    -2
287
     1
 67
     0
278
    -2
288
     1
 68
     0
279
    -2
289
     1
 69
     0
  0
VISUALSTYLE
  5
2F
102
{ACAD_REACTORS
330
2A
102
}
102
{ACAD_XDICTIONARY
360
47A
102
}
330
2A
100
AcDbVisualStyle
  2
2dWireframe
 70
     4
 71
     0
 72
     2
 73
     0
 90
        0
 40
0.6
 41
30.0
 62
     5
 63
     7
421
 16777215
 74
     1
 91
        4
 64
     7
 65
   257
 75
     1
175
     1
 42
1.0
 92
        0
 66
   257
 43
1.0
 76
     1
 77
     6
 78
     2
 67
     7
 79
     5
170
     0
171
     0
290
     0
174
     0
 93
        1
 44
0.0
173
     0
291
     0
 45
0.0
  0
VISUALSTYLE
  5
32
102
{ACAD_REACTORS
330
2A
102
}
102
{ACAD_XDICTIONARY
360
480
102
}
330
2A
100
AcDbVisualStyle
  2
Basic
 70
     7
 71
     1
 72
     0
 73
     1
 90
        0
 40
0.6
 41
30.0
 62
     5
 63
     7
421
 16777215
 74
     0
 91
        4
 64
     7
 65
   257
 75
     1
175
     1
 42
1.0
 92
        8
 66
     7
 43
1.0
 76
     1
 77
     6
 78
     2
 67
     7
 79
     5
170
     0
171
     0
290
     0
174
     0
 93
        1
 44
0.0
173
     0
291
     1
 45
0.0
  0
VISUALSTYLE
  5
36
102
{ACAD_REACTORS
330
2A
102
}
102
{ACAD_XDICTIONARY
360
488
102
}
330
2A
100
AcDbVisualStyle
  2
Brighten
 70
    12
 71
     2
 72
     2
 73
     0
 90
        0
 40
0.6
 41
30.0
 62
     5
 63
     7
421
 16777215
 74
     1
 91
        4
 64
     7
 65
   257
 75
     1
175
     1
 42
1.0
 92
        8
 66
     7
 43
1.0
 76
     1
 77
     6
 78
     2
 67
     7
 79
     5
170
     0
171
     0
290
     0
174
     0
 93
        1
 44
50.0
173
     0
291
     1
 45
0.0
  0
VISUALSTYLE
  5
3A
102
{ACAD_REACTORS
330
2A
102
}
102
{ACAD_XDICTIONARY
360
490
102
}
330
2A
100
AcDbVisualStyle
  2
ColorChange
 70
    16
 71
     2
 72
     2
 73
     3
 90
        0
 40
0.6
 41
30.0
 62
     5
 63
     8
421
  8421504
 74
     1
 91
        4
 64
     7
 65
   257
 75
     1
175
     1
 42
1.0
 92
        8
 66
     8
424
  8421504
 43
1.0
 76
     1
 77
     6
 78
     2
 67
     7
 79
     5
170
     0
171
     0
290
     0
174
     0
 93
        1
 44
0.0
173
     0
291
     1
 45
0.0
  0
VISUALSTYLE
  5
34
102
{ACAD_REACTORS
330
2A
102
}
102
{ACAD_XDICTIONARY
360
484
102
}
330
2A
100
AcDbVisualStyle
  2
Conceptual
 70
     9
 71
     3
 72
     2
 73
     0
 90
        0
 40
0.6
 41
30.0
 62
     5
 63
     7
421
 16777215
 74
     2
 91
        2
 64
     7
 65
   257
 75
     1
175
     1
 42
179.0
 92
        8
 66
     7
 43
1.0
 76
     1
 77
     6
 78
     2
 67
     7
 79
     3
170
     0
171
     0
290
     0
174
     0
 93
        1
 44
0.0
173
     0
291
     0
 45
0.0
  0
VISUALSTYLE
  5
35
102
{ACAD_REACTORS
330
2A
102
}
102
{ACAD_XDICTIONARY
360
486
102
}
330
2A
100
AcDbVisualStyle
  2
Dim
 70
    11
 71
     2
 72
     2
 73
     0
 90
        0
 40
0.6
 41
30.0
 62
     5
 63
     7
421
 16777215
 74
     1
 91
        4
 64
     7
 65
   257
 75
     1
175
     1
 42
1.0
 92
        8
 66
     7
 43
1.0
 76
     1
 77
     6
 78
     2
 67
     7
 79
     5
170
     0
171
     0
290
     0
174
     0
 93
        1
 44
-50.0
173
     0
291
     1
 45
0.0
  0
VISUALSTYLE
  5
3D
102
{ACAD_REACTORS
330
2A
102
}
102
{ACAD_XDICTIONARY
360
496
102
}
330
2A
100
AcDbVisualStyle
  2
EdgeColorOff
 70
    22
 71
     2
 72
     2
 73
     0
 90
        0
 40
0.6
 41
30.0
 62
     5
 63
     7
421
 16777215
 74
     1
 91
        4
 64
     7
 65
   257
 75
     1
175
     1
 42
1.0
 92
        8
 66
     7
 43
1.0
 76
     1
 77
     6
 78
     2
 67
     7
 79
     5
170
     0
171
     0
290
     0
174
     0
 93
        1
 44
0.0
173
     0
291
     1
 45
0.0
  0
VISUALSTYLE
  5
39
102
{ACAD_REACTORS
330
2A
102
}
102
{ACAD_XDICTIONARY
360
48E
102
}
330
2A
100
AcDbVisualStyle
  2
Facepattern
 70
    15
 71
     2
 72
     2
 73
     0
 90
        0
 40
0.6
 41
30.0
 62
     5
 63
     7
421
 16777215
 74
     1
 91
        4
 64
     7
 65
   257
 75
     1
175
     1
 42
1.0
 92
        8
 66
     7
 43
1.0
 76
     1
 77
     6
 78
     2
 67
     7
 79
     5
170
     0
171
     0
290
     0
174
     0
 93
        1
 44
0.0
173
     0
291
     1
 45
0.0
  0
VISUALSTYLE
  5
2B
102
{ACAD_REACTORS
330
2A
102
}
102
{ACAD_XDICTIONARY
360
472
102
}
330
2A
100
AcDbVisualStyle
  2
Flat
 70
     0
 71
     2
 72
     1
 73
     1
 90
        2
 40
0.6
 41
30.0
 62
     5
 63
     7
421
 16777215
 74
     0
 91
        0
 64
     7
 65
   257
 75
     1
175
     1
 42
1.0
 92
        8
 66
     7
 43
1.0
 76
     1
 77
     6
 78
     2
 67
     7
 79
     5
170
     0
171
     0
290
     0
174
     0
 93
       13
 44
0.0
173
     0
291
     1
 45
0.0
  0
VISUALSTYLE
  5
2C
102
{ACAD_REACTORS
330
2A
102
}
102
{ACAD_XDICTIONARY
360
474
102
}
330
2A
100
AcDbVisualStyle
  2
FlatWithEdges
 70
     1
 71
     2
 72
     1
 73
     1
 90
        2
 40
0.6
 41
30.0
 62
     5
 63
     7
421
 16777215
 74
     1
 91
        0
 64
     7
 65
   257
 75
     1
175
     1
 42
1.0
 92
        0
 66
   257
 43
1.0
 76
     1
 77
     6
 78
     2
 67
     7
 79
     5
170
     0
171
     0
290
     0
174
     0
 93
       13
 44
0.0
173
     0
291
     1
 45
0.0
  0
VISUALSTYLE
  5
2D
102
{ACAD_REACTORS
330
2A
102
}
102
{ACAD_XDICTIONARY
360
476
102
}
330
2A
100
AcDbVisualStyle
  2
Gouraud
 70
     2
 71
     2
 72
     2
 73
     1
 90
        2
 40
0.6
 41
30.0
 62
     5
 63
     7
421
 16777215
 74
     0
 91
        0
 64
     7
 65
   257
 75
     1
175
     1
 42
1.0
 92
        0
 66
     7
 43
1.0
 76
     1
 77
     6
 78
     2
 67
     7
 79
     5
170
     0
171
     0
290
     0
174
     0
 93
       13
 44
0.0
173
     0
291
     1
 45
0.0
  0
VISUALSTYLE
  5
2E
102
{ACAD_REACTORS
330
2A
102
}
102
{ACAD_XDICTIONARY
360
478
102
}
330
2A
100
AcDbVisualStyle
  2
GouraudWithEdges
 70
     3
 71
     2
 72
     2
 73
     1
 90
        2
 40
0.6
 41
30.0
 62
     5
 63
     7
421
 16777215
 74
     1
 91
        0
 64
     7
 65
   257
 75
     1
175
     1
 42
1.0
 92
        0
 66
   257
 43
1.0
 76
     1
 77
     6
 78
     2
 67
     7
 79
     5
170
     0
171
     0
290
     0
174
     0
 93
       13
 44
0.0
173
     0
291
     1
 45
0.0
  0
VISUALSTYLE
  5
31
102
{ACAD_REACTORS
330
2A
102
}
102
{ACAD_XDICTIONARY
360
47E
102
}
330
2A
100
AcDbVisualStyle
  2
Hidden
 70
     6
 71
     1
 72
     2
 73
     2
 90
        0
 40
0.6
 41
30.0
 62
     5
 63
     7
421
 16777215
 74
     2
 91
        2
 64
     7
 65
   257
 75
     2
175
     1
 42
40.0
 92
        0
 66
   257
 43
1.0
 76
     1
 77
     6
 78
     2
 67
     7
 79
     3
170
     0
171
     0
290
     0
174
     0
 93
        1
 44
0.0
173
     0
291
     0
 45
0.0
  0
VISUALSTYLE
  5
3B
102
{ACAD_REACTORS
330
2A
102
}
102
{ACAD_XDICTIONARY
360
492
102
}
330
2A
100
AcDbVisualStyle
  2
JitterOff
 70
    20
 71
     2
 72
     2
 73
     0
 90
        0
 40
0.6
 41
30.0
 62
     5
 63
     7
421
 16777215
 74
     1
 91
        4
 64
     7
 65
   257
 75
     1
175
     1
 42
1.0
 92
       10
 66
     7
 43
1.0
 76
     1
 77
     6
 78
     2
 67
     7
 79
     5
170
     0
171
     0
290
     0
174
     0
 93
        1
 44
0.0
173
     0
291
     1
 45
0.0
  0
VISUALSTYLE
  5
38
102
{ACAD_REACTORS
330
2A
102
}
102
{ACAD_XDICTIONARY
360
48C
102
}
330
2A
100
AcDbVisualStyle
  2
Linepattern
 70
    14
 71
     2
 72
     2
 73
     0
 90
        0
 40
0.6
 41
30.0
 62
     5
 63
     7
421
 16777215
 74
     1
 91
        4
 64
     7
 65
   257
 75
     7
175
     7
 42
1.0
 92
        8
 66
     7
 43
1.0
 76
     1
 77
     6
 78
     2
 67
     7
 79
     5
170
     0
171
     0
290
     0
174
     0
 93
        1
 44
0.0
173
     0
291
     1
 45
0.0
  0
VISUALSTYLE
  5
3C
102
{ACAD_REACTORS
330
2A
102
}
102
{ACAD_XDICTIONARY
360
494
102
}
330
2A
100
AcDbVisualStyle
  2
OverhangOff
 70
    21
 71
     2
 72
     2
 73
     0
 90
        0
 40
0.6
 41
30.0
 62
     5
 63
     7
421
 16777215
 74
     1
 91
        4
 64
     7
 65
   257
 75
     1
175
     1
 42
1.0
 92
        9
 66
     7
 43
1.0
 76
     1
 77
     6
 78
     2
 67
     7
 79
     5
170
     0
171
     0
290
     0
174
     0
 93
        1
 44
0.0
173
     0
291
     1
 45
0.0
  0
VISUALSTYLE
  5
33
102
{ACAD_REACTORS
330
2A
102
}
102
{ACAD_XDICTIONARY
360
482
102
}
330
2A
100
AcDbVisualStyle
  2
Realistic
 70
     8
 71
     2
 72
     3
 73
     0
 90
        2
 40
0.6
 41
30.0
 62
     5
 63
     7
421
 16777215
 74
     0
 91
        0
 64
     7
 65
   257
 75
     1
175
     1
 42
1.0
 92
        8
 66
   257
 43
1.0
 76
     1
 77
     6
 78
     2
 67
     7
 79
     3
170
     0
171
     0
290
     0
174
     0
 93
       13
 44
0.0
173
     0
291
     0
 45
0.0
  0
VISUALSTYLE
  5
42
102
{ACAD_REACTORS
330
2A
102
}
102
{ACAD_XDICTIONARY
360
4A0
102
}
330
2A
100
AcDbVisualStyle
  2
Shaded
 70
    27
 71
     2
 72
     2
 73
     1
 90
        2
 40
0.6
 41
30.0
 62
     5
 63
     7
421
 16777215
 74
     0
 91
        4
 64
     7
 65
   257
 75
     1
175
     1
 42
1.0
 92
        8
 66
   257
 43
1.0
 76
     1
 77
     6
 78
     2
 67
     8
425
  7895160
 79
     3
170
     0
171
     0
290
     0
174
     0
 93
        5
 44
0.0
173
     0
291
     0
 45
0.0
  0
VISUALSTYLE
  5
41
102
{ACAD_REACTORS
330
2A
102
}
102
{ACAD_XDICTIONARY
360
49E
102
}
330
2A
100
AcDbVisualStyle
  2
Shaded with edges
 70
    26
 71
     2
 72
     2
 73
     1
 90
        2
 40
0.6
 41
30.0
 62
     5
 63
     7
421
 16777215
 74
     1
 91
       10
 64
     7
 65
   257
 75
     2
175
     1
 42
1.0
 92
        8
 66
   257
 43
1.0
 76
     1
 77
     6
 78
     2
 67
     7
 79
     3
170
     0
171
     0
290
     0
174
     0
 93
        5
 44
0.0
173
     0
291
     0
 45
0.0
  0
VISUALSTYLE
  5
3E
102
{ACAD_REACTORS
330
2A
102
}
102
{ACAD_XDICTIONARY
360
498
102
}
330
2A
100
AcDbVisualStyle
  2
Shades of Gray
 70
    23
 71
     2
 72
     2
 73
     3
 90
        0
 40
0.6
 41
30.0
 62
     5
 63
     7
421
 16777215
 74
     2
 91
        2
 64
     7
 65
     7
 75
     1
175
     1
 42
40.0
 92
        8
 66
     7
 43
1.0
 76
     1
 77
     6
 78
     2
 67
     7
 79
     3
170
     0
171
     0
290
     0
174
     0
 93
        1
 44
0.0
173
     0
291
     0
 45
0.0
  0
VISUALSTYLE
  5
3F
102
{ACAD_REACTORS
330
2A
102
}
102
{ACAD_XDICTIONARY
360
49A
102
}
330
2A
100
AcDbVisualStyle
  2
Sketchy
 70
    24
 71
     1
 72
     2
 73
     2
 90
        0
 40
0.6
 41
30.0
 62
     5
 63
     7
421
 16777215
 74
     2
 91
        2
 64
     7
 65
     7
 75
     1
175
     1
 42
40.0
 92
       11
 66
     7
 43
1.0
 76
     1
 77
     6
 78
     2
 67
     7
 79
     6
170
     0
171
     0
290
     0
174
     0
 93
        1
 44
0.0
173
     0
291
     0
 45
0.0
  0
VISUALSTYLE
  5
37
102
{ACAD_REACTORS
330
2A
102
}
102
{ACAD_XDICTIONARY
360
48A
102
}
330
2A
100
AcDbVisualStyle
  2
Thicken
 70
    13
 71
     2
 72
     2
 73
     0
 90
        0
 40
0.6
 41
30.0
 62
     5
 63
     7
421
 16777215
 74
     1
 91
        4
 64
     7
 65
   257
 75
     1
175
     1
 42
1.0
 92
       12
 66
     7
 43
1.0
 76
     1
 77
     6
 78
     2
 67
     7
 79
     5
170
     0
171
     0
290
     0
174
     0
 93
        1
 44
0.0
173
     0
291
     1
 45
0.0
  0
VISUALSTYLE
  5
30
102
{ACAD_REACTORS
330
2A
102
}
102
{ACAD_XDICTIONARY
360
47C
102
}
330
2A
100
AcDbVisualStyle
  2
Wireframe
 70
     5
 71
     0
 72
     2
 73
     0
 90
        0
 40
0.6
 41
30.0
 62
     5
 63
     7
421
 16777215
 74
     1
 91
        4
 64
     7
 65
   257
 75
     1
175
     1
 42
1.0
 92
        0
 66
   257
 43
1.0
 76
     1
 77
     6
 78
     2
 67
     7
 79
     3
170
     0
171
     0
290
     0
174
     0
 93
        1
 44
0.0
173
     0
291
     0
 45
0.0
  0
VISUALSTYLE
  5
40
102
{ACAD_REACTORS
330
2A
102
}
102
{ACAD_XDICTIONARY
360
49C
102
}
330
2A
100
AcDbVisualStyle
  2
X-Ray
 70
    25
 71
     2
 72
     2
 73
     1
 90
        1
 40
0.5
 41
30.0
 62
     5
 63
     7
421
 16777215
 74
     1
 91
        0
 64
     7
 65
   257
 75
     1
175
     1
 42
1.0
 92
        8
 66
     7
 43
1.0
 76
     1
 77
     6
 78
     2
 67
     7
 79
     3
170
     0
171
     0
290
     0
174
     0
 93
       13
 44
0.0
173
     0
291
     0
 45
0.0
  0
DICTIONARYVAR
  5
470
102
{ACAD_REACTORS
330
46F
102
}
330
46F
100
DictionaryVariables
280
     0
  1
1:1
  0
DICTIONARYVAR
  5
4AC
102
{ACAD_REACTORS
330
46F
102
}
330
46F
100
DictionaryVariables
280
     0
  1
3.500000
  0
DICTIONARYVAR
  5
4AD
102
{ACAD_REACTORS
330
46F
102
}
330
46F
100
DictionaryVariables
280
     0
  1
acadiso.lin
  0
DICTIONARYVAR
  5
4A9
102
{ACAD_REACTORS
330
46F
102
}
330
46F
100
DictionaryVariables
280
     0
  1
Standard
  0
DICTIONARYVAR
  5
4A8
102
{ACAD_REACTORS
330
46F
102
}
330
46F
100
DictionaryVariables
280
     0
  1
Standard
  0
DICTIONARYVAR
  5
471
102
{ACAD_REACTORS
330
46F
102
}
330
46F
100
DictionaryVariables
280
     0
  1
2
  0
DICTIONARY
  5
4A5
330
6C
100
AcDbDictionary
280
     1
281
     1
  3
ACAD_XREC_ROUNDTRIP
360
4A6
  0
DICTIONARY
  5
4A2
330
6A
100
AcDbDictionary
280
     1
281
     1
  3
ACAD_ROUNDTRIP_2008_TABLESTYLE_CELLSTYLEMAP
360
4A3
  0
DICTIONARY
  5
47A
330
2F
100
AcDbDictionary
280
     1
281
     1
  3
ACAD_XREC_ROUNDTRIP
360
47B
  0
DICTIONARY
  5
480
330
32
100
AcDbDictionary
280
     1
281
     1
  3
ACAD_XREC_ROUNDTRIP
360
481
  0
DICTIONARY
  5
488
330
36
100
AcDbDictionary
280
     1
281
     1
  3
ACAD_XREC_ROUNDTRIP
360
489
  0
DICTIONARY
  5
490
330
3A
100
AcDbDictionary
280
     1
281
     1
  3
ACAD_XREC_ROUNDTRIP
360
491
  0
DICTIONARY
  5
484
330
34
100
AcDbDictionary
280
     1
281
     1
  3
ACAD_XREC_ROUNDTRIP
360
485
  0
DICTIONARY
  5
486
330
35
100
AcDbDictionary
280
     1
281
     1
  3
ACAD_XREC_ROUNDTRIP
360
487
  0
DICTIONARY
  5
496
330
3D
100
AcDbDictionary
280
     1
281
     1
  3
ACAD_XREC_ROUNDTRIP
360
497
  0
DICTIONARY
  5
48E
330
39
100
AcDbDictionary
280
     1
281
     1
  3
ACAD_XREC_ROUNDTRIP
360
48F
  0
DICTIONARY
  5
472
330
2B
100
AcDbDictionary
280
     1
281
     1
  3
ACAD_XREC_ROUNDTRIP
360
473
  0
DICTIONARY
  5
474
330
2C
100
AcDbDictionary
280
     1
281
     1
  3
ACAD_XREC_ROUNDTRIP
360
475
  0
DICTIONARY
  5
476
330
2D
100
AcDbDictionary
280
     1
281
     1
  3
ACAD_XREC_ROUNDTRIP
360
477
  0
DICTIONARY
  5
478
330
2E
100
AcDbDictionary
280
     1
281
     1
  3
ACAD_XREC_ROUNDTRIP
360
479
  0
DICTIONARY
  5
47E
330
31
100
AcDbDictionary
280
     1
281
     1
  3
ACAD_XREC_ROUNDTRIP
360
47F
  0
DICTIONARY
  5
492
330
3B
100
AcDbDictionary
280
     1
281
     1
  3
ACAD_XREC_ROUNDTRIP
360
493
  0
DICTIONARY
  5
48C
330
38
100
AcDbDictionary
280
     1
281
     1
  3
ACAD_XREC_ROUNDTRIP
360
48D
  0
DICTIONARY
  5
494
330
3C
100
AcDbDictionary
280
     1
281
     1
  3
ACAD_XREC_ROUNDTRIP
360
495
  0
DICTIONARY
  5
482
330
33
100
AcDbDictionary
280
     1
281
     1
  3
ACAD_XREC_ROUNDTRIP
360
483
  0
DICTIONARY
  5
4A0
330
42
100
AcDbDictionary
280
     1
281
     1
  3
ACAD_XREC_ROUNDTRIP
360
4A1
  0
DICTIONARY
  5
49E
330
41
100
AcDbDictionary
280
     1
281
     1
  3
ACAD_XREC_ROUNDTRIP
360
49F
  0
DICTIONARY
  5
498
330
3E
100
AcDbDictionary
280
     1
281
     1
  3
ACAD_XREC_ROUNDTRIP
360
499
  0
DICTIONARY
  5
49A
330
3F
100
AcDbDictionary
280
     1
281
     1
  3
ACAD_XREC_ROUNDTRIP
360
49B
  0
DICTIONARY
  5
48A
330
37
100
AcDbDictionary
280
     1
281
     1
  3
ACAD_XREC_ROUNDTRIP
360
48B
  0
DICTIONARY
  5
47C
330
30
100
AcDbDictionary
280
     1
281
     1
  3
ACAD_XREC_ROUNDTRIP
360
47D
  0
DICTIONARY
  5
49C
330
40
100
AcDbDictionary
280
     1
281
     1
  3
ACAD_XREC_ROUNDTRIP
360
49D
  0
XRECORD
  5
4A6
102
{ACAD_REACTORS
330
4A5
102
}
330
4A5
100
AcDbXrecord
280
     1
102
ACAD_ROUNDTRIP_2010_MLEADER_STYLE
  0
CELLSTYLEMAP
  5
4A3
102
{ACAD_REACTORS
330
4A2
102
}
330
4A2
100
AcDbCellStyleMap
 90
        3
300
CELLSTYLE
  1
TABLEFORMAT_BEGIN
 90
        5
170
     1
 91
        0
 92
    32768
 62
   257
 93
        1
300
CONTENTFORMAT
  1
CONTENTFORMAT_BEGIN
 90
        0
 91
        0
 92
        4
 93
        0
300

 40
0.0
140
1.0
 94
        5
 62
     0
340
11
144
6.0
309
CONTENTFORMAT_END
171
     1
301
MARGIN
  1
CELLMARGIN_BEGIN
 40
1.5
 40
1.5
 40
1.5
 40
1.5
 40
1.5
 40
1.5
309
CELLMARGIN_END
 94
        6
 95
        1
302
GRIDFORMAT
  1
GRIDFORMAT_BEGIN
 90
        0
 91
        1
 62
     0
 92
       -2
340
14
 93
        0
 40
0.045
309
GRIDFORMAT_END
 95
        2
302
GRIDFORMAT
  1
GRIDFORMAT_BEGIN
 90
        0
 91
        1
 62
     0
 92
       -2
340
14
 93
        0
 40
0.045
309
GRIDFORMAT_END
 95
        4
302
GRIDFORMAT
  1
GRIDFORMAT_BEGIN
 90
        0
 91
        1
 62
     0
 92
       -2
340
14
 93
        0
 40
0.045
309
GRIDFORMAT_END
 95
        8
302
GRIDFORMAT
  1
GRIDFORMAT_BEGIN
 90
        0
 91
        1
 62
     0
 92
       -2
340
14
 93
        0
 40
0.045
309
GRIDFORMAT_END
 95
       16
302
GRIDFORMAT
  1
GRIDFORMAT_BEGIN
 90
        0
 91
        1
 62
     0
 92
       -2
340
14
 93
        0
 40
0.045
309
GRIDFORMAT_END
 95
       32
302
GRIDFORMAT
  1
GRIDFORMAT_BEGIN
 90
        0
 91
        1
 62
     0
 92
       -2
340
14
 93
        0
 40
0.045
309
GRIDFORMAT_END
309
TABLEFORMAT_END
  1
CELLSTYLE_BEGIN
 90
        1
 91
        1
300
_TITLE
309
CELLSTYLE_END
300
CELLSTYLE
  1
TABLEFORMAT_BEGIN
 90
        5
170
     1
 91
        0
 92
        0
 62
   257
 93
        1
300
CONTENTFORMAT
  1
CONTENTFORMAT_BEGIN
 90
        0
 91
        0
 92
        4
 93
        0
300

 40
0.0
140
1.0
 94
        5
 62
     0
340
11
144
4.5
309
CONTENTFORMAT_END
171
     1
301
MARGIN
  1
CELLMARGIN_BEGIN
 40
1.5
 40
1.5
 40
1.5
 40
1.5
 40
1.5
 40
1.5
309
CELLMARGIN_END
 94
        6
 95
        1
302
GRIDFORMAT
  1
GRIDFORMAT_BEGIN
 90
        0
 91
        1
 62
     0
 92
       -2
340
14
 93
        0
 40
0.045
309
GRIDFORMAT_END
 95
        2
302
GRIDFORMAT
  1
GRIDFORMAT_BEGIN
 90
        0
 91
        1
 62
     0
 92
       -2
340
14
 93
        0
 40
0.045
309
GRIDFORMAT_END
 95
        4
302
GRIDFORMAT
  1
GRIDFORMAT_BEGIN
 90
        0
 91
        1
 62
     0
 92
       -2
340
14
 93
        0
 40
0.045
309
GRIDFORMAT_END
 95
        8
302
GRIDFORMAT
  1
GRIDFORMAT_BEGIN
 90
        0
 91
        1
 62
     0
 92
       -2
340
14
 93
        0
 40
0.045
309
GRIDFORMAT_END
 95
       16
302
GRIDFORMAT
  1
GRIDFORMAT_BEGIN
 90
        0
 91
        1
 62
     0
 92
       -2
340
14
 93
        0
 40
0.045
309
GRIDFORMAT_END
 95
       32
302
GRIDFORMAT
  1
GRIDFORMAT_BEGIN
 90
        0
 91
        1
 62
     0
 92
       -2
340
14
 93
        0
 40
0.045
309
GRIDFORMAT_END
309
TABLEFORMAT_END
  1
CELLSTYLE_BEGIN
 90
        2
 91
        1
300
_HEADER
309
CELLSTYLE_END
300
CELLSTYLE
  1
TABLEFORMAT_BEGIN
 90
        5
170
     1
 91
        0
 92
        0
 62
   257
 93
        1
300
CONTENTFORMAT
  1
CONTENTFORMAT_BEGIN
 90
        0
 91
        0
 92
        4
 93
        0
300

 40
0.0
140
1.0
 94
        2
 62
     0
340
11
144
4.5
309
CONTENTFORMAT_END
171
     1
301
MARGIN
  1
CELLMARGIN_BEGIN
 40
1.5
 40
1.5
 40
1.5
 40
1.5
 40
1.5
 40
1.5
309
CELLMARGIN_END
 94
        6
 95
        1
302
GRIDFORMAT
  1
GRIDFORMAT_BEGIN
 90
        0
 91
        1
 62
     0
 92
       -2
340
14
 93
        0
 40
0.045
309
GRIDFORMAT_END
 95
        2
302
GRIDFORMAT
  1
GRIDFORMAT_BEGIN
 90
        0
 91
        1
 62
     0
 92
       -2
340
14
 93
        0
 40
0.045
309
GRIDFORMAT_END
 95
        4
302
GRIDFORMAT
  1
GRIDFORMAT_BEGIN
 90
        0
 91
        1
 62
     0
 92
       -2
340
14
 93
        0
 40
0.045
309
GRIDFORMAT_END
 95
        8
302
GRIDFORMAT
  1
GRIDFORMAT_BEGIN
 90
        0
 91
        1
 62
     0
 92
       -2
340
14
 93
        0
 40
0.045
309
GRIDFORMAT_END
 95
       16
302
GRIDFORMAT
  1
GRIDFORMAT_BEGIN
 90
        0
 91
        1
 62
     0
 92
       -2
340
14
 93
        0
 40
0.045
309
GRIDFORMAT_END
 95
       32
302
GRIDFORMAT
  1
GRIDFORMAT_BEGIN
 90
        0
 91
        1
 62
     0
 92
       -2
340
14
 93
        0
 40
0.045
309
GRIDFORMAT_END
309
TABLEFORMAT_END
  1
CELLSTYLE_BEGIN
 90
        3
 91
        2
300
_DATA
309
CELLSTYLE_END
  0
XRECORD
  5
47B
102
{ACAD_REACTORS
330
47A
102
}
330
47A
100
AcDbXrecord
280
     1
102
RTVSPropertyOp0
 70
     1
102
RTVSPropertyOp1
 70
     1
102
RTVSPropertyOp2
 70
     1
102
RTVSPropertyOp3
 70
     1
102
RTVSPropertyOp4
 70
     1
102
RTVSPropertyOp5
 70
     1
102
RTVSPropertyOp6
 70
     1
102
RTVSPropertyOp7
 70
     1
102
RTVSPropertyOp8
 70
     1
102
RTVSPropertyOp9
 70
     1
102
RTVSPropertyOp10
 70
     1
102
RTVSPropertyOp11
 70
     1
102
RTVSPropertyOp12
 70
     1
102
RTVSPropertyOp13
 70
     1
102
RTVSPropertyOp14
 70
     1
102
RTVSPropertyOp15
 70
     1
102
RTVSPropertyOp16
 70
     1
102
RTVSPropertyOp17
 70
     1
102
RTVSPropertyOp18
 70
     1
102
RTVSPropertyOp19
 70
     1
102
RTVSPropertyOp20
 70
     1
102
RTVSPropertyOp21
 70
     1
102
RTVSPropertyOp22
 70
     1
102
RTVSPropertyOp23
 70
     1
102
RTVSPropertyOp24
 70
     1
102
RTVSPropertyOp25
 70
     1
102
RTVSPropertyOp26
 70
     1
102
RTVSPropertyOp27
 70
     1
102
RTVSPropertyOp28
 70
     1
102
RTVSPropertyOp29
 70
     1
102
RTVSPropertyOp30
 70
     1
102
RTVSPropertyOp31
 70
     1
102
RTVSPropertyOp32
 70
     1
102
RTVSPropertyOp33
 70
     1
102
RTVSPropertyOp34
 70
     1
102
RTVSPropertyOp35
 70
     1
102
RTVSPropertyOp36
 70
     1
102
RTVSPropertyOp37
 70
     1
102
RTVSPropertyOp38
 70
     1
102
RTVSPropertyOp39
 70
     1
102
RTVSPropertyOp40
 70
     1
102
RTVSPropertyOp41
 70
     1
102
RTVSPropertyOp42
 70
     1
102
RTVSPropertyOp43
 70
     1
102
RTVSPropertyOp44
 70
     1
102
RTVSPropertyOp45
 70
     1
102
RTVSPropertyOp46
 70
     1
102
RTVSPropertyOp47
 70
     1
102
RTVSPropertyOp48
 70
     1
102
RTVSPropertyOp49
 70
     1
102
RTVSPropertyOp50
 70
     1
102
RTVSPropertyOp51
 70
     0
102
RTVSPropertyOp52
 70
     0
102
RTVSPropertyOp53
 70
     1
102
RTVSPropertyOp54
 70
     1
102
RTVSPropertyOp55
 70
     1
102
RTVSPropertyOp56
 70
     1
102
RTVSPropertyOp57
 70
     1
102
RTVSPost2010Prop28
280
     1
102
RTVSPost2010PropOp28
 70
     1
102
RTVSPost2010Prop29
280
     1
102
RTVSPost2010PropOp29
 70
     1
102
RTVSPost2010Prop30
280
     0
102
RTVSPost2010PropOp30
 70
     1
102
RTVSPost2010Prop31
280
     0
102
RTVSPost2010PropOp31
 70
     1
102
RTVSPost2010Prop32
280
     0
102
RTVSPost2010PropOp32
 70
     1
102
RTVSPost2010Prop33
280
     0
102
RTVSPost2010PropOp33
 70
     1
102
RTVSPost2010Prop34
280
     0
102
RTVSPost2010PropOp34
 70
     1
102
RTVSPost2010Prop35
280
     0
102
RTVSPost2010PropOp35
 70
     1
102
RTVSPost2010Prop36
280
     0
102
RTVSPost2010PropOp36
 70
     1
102
RTVSPost2010Prop37
 90
       50
102
RTVSPost2010PropOp37
 70
     1
102
RTVSPost2010Prop38
140
0.0
102
RTVSPost2010PropOp38
 70
     1
102
RTVSPost2010Prop39
140
1.0
102
RTVSPost2010PropOp39
 70
     1
102
RTVSPost2010Prop40
 90
        0
102
RTVSPost2010PropOp40
 70
     1
102
RTVSPost2010Prop41ColorIndex
 90
       18
102
RTVSPost2010Prop41ColorRGB
 90
        0
102
RTVSPost2010PropOp41
 70
     1
102
RTVSPost2010Prop42
 90
       50
102
RTVSPost2010PropOp42
 70
     1
102
RTVSPost2010Prop43
 90
        3
102
RTVSPost2010PropOp43
 70
     1
102
RTVSPost2010Prop44ColorIndex
 90
        5
102
RTVSPost2010Prop44ColorRGB
 90
      255
102
RTVSPost2010PropOp44
 70
     1
102
RTVSPost2010Prop45
280
     0
102
RTVSPost2010PropOp45
 70
     1
102
RTVSPost2010Prop46
 90
       50
102
RTVSPost2010PropOp46
 70
     1
102
RTVSPost2010Prop47
 90
       50
102
RTVSPost2010PropOp47
 70
     1
102
RTVSPost2010Prop48
 90
       50
102
RTVSPost2010PropOp48
 70
     1
102
RTVSPost2010Prop49
280
     0
102
RTVSPost2010PropOp49
 70
     1
102
RTVSPost2010Prop50
 90
       50
102
RTVSPost2010PropOp50
 70
     1
102
RTVSPost2010Prop51ColorIndex
 90
      256
102
RTVSPost2010Prop51ColorRGB
 90
-16777216
102
RTVSPost2010PropOp51
 70
     0
102
RTVSPost2010Prop52
140
1.0
102
RTVSPost2010PropOp52
 70
     0
102
RTVSPost2010Prop53
 90
        2
102
RTVSPost2010PropOp53
 70
     1
102
RTVSPost2010Prop54
  1
strokes_ogs.tif
102
RTVSPost2010PropOp54
 70
     1
102
RTVSPost2010Prop55
280
     0
102
RTVSPost2010PropOp55
 70
     1
102
RTVSPost2010Prop56
140
1.0
102
RTVSPost2010PropOp56
 70
     1
102
RTVSPost2010Prop57
140
1.0
102
RTVSPost2010PropOp57
 70
     1
  0
XRECORD
  5
481
102
{ACAD_REACTORS
330
480
102
}
330
480
100
AcDbXrecord
280
     1
102
RTVSPropertyOp0
 70
     1
102
RTVSPropertyOp1
 70
     1
102
RTVSPropertyOp2
 70
     1
102
RTVSPropertyOp3
 70
     1
102
RTVSPropertyOp4
 70
     1
102
RTVSPropertyOp5
 70
     1
102
RTVSPropertyOp6
 70
     1
102
RTVSPropertyOp7
 70
     1
102
RTVSPropertyOp8
 70
     1
102
RTVSPropertyOp9
 70
     1
102
RTVSPropertyOp10
 70
     1
102
RTVSPropertyOp11
 70
     1
102
RTVSPropertyOp12
 70
     1
102
RTVSPropertyOp13
 70
     1
102
RTVSPropertyOp14
 70
     1
102
RTVSPropertyOp15
 70
     1
102
RTVSPropertyOp16
 70
     1
102
RTVSPropertyOp17
 70
     1
102
RTVSPropertyOp18
 70
     1
102
RTVSPropertyOp19
 70
     1
102
RTVSPropertyOp20
 70
     1
102
RTVSPropertyOp21
 70
     1
102
RTVSPropertyOp22
 70
     1
102
RTVSPropertyOp23
 70
     1
102
RTVSPropertyOp24
 70
     1
102
RTVSPropertyOp25
 70
     1
102
RTVSPropertyOp26
 70
     1
102
RTVSPropertyOp27
 70
     1
102
RTVSPropertyOp28
 70
     1
102
RTVSPropertyOp29
 70
     1
102
RTVSPropertyOp30
 70
     1
102
RTVSPropertyOp31
 70
     1
102
RTVSPropertyOp32
 70
     1
102
RTVSPropertyOp33
 70
     1
102
RTVSPropertyOp34
 70
     1
102
RTVSPropertyOp35
 70
     1
102
RTVSPropertyOp36
 70
     1
102
RTVSPropertyOp37
 70
     1
102
RTVSPropertyOp38
 70
     1
102
RTVSPropertyOp39
 70
     1
102
RTVSPropertyOp40
 70
     1
102
RTVSPropertyOp41
 70
     1
102
RTVSPropertyOp42
 70
     1
102
RTVSPropertyOp43
 70
     1
102
RTVSPropertyOp44
 70
     1
102
RTVSPropertyOp45
 70
     1
102
RTVSPropertyOp46
 70
     1
102
RTVSPropertyOp47
 70
     1
102
RTVSPropertyOp48
 70
     1
102
RTVSPropertyOp49
 70
     1
102
RTVSPropertyOp50
 70
     1
102
RTVSPropertyOp51
 70
     0
102
RTVSPropertyOp52
 70
     0
102
RTVSPropertyOp53
 70
     1
102
RTVSPropertyOp54
 70
     1
102
RTVSPropertyOp55
 70
     1
102
RTVSPropertyOp56
 70
     1
102
RTVSPropertyOp57
 70
     1
102
RTVSPost2010Prop28
280
     0
102
RTVSPost2010PropOp28
 70
     1
102
RTVSPost2010Prop29
280
     1
102
RTVSPost2010PropOp29
 70
     1
102
RTVSPost2010Prop30
280
     1
102
RTVSPost2010PropOp30
 70
     1
102
RTVSPost2010Prop31
280
     0
102
RTVSPost2010PropOp31
 70
     1
102
RTVSPost2010Prop32
280
     0
102
RTVSPost2010PropOp32
 70
     1
102
RTVSPost2010Prop33
280
     0
102
RTVSPost2010PropOp33
 70
     1
102
RTVSPost2010Prop34
280
     0
102
RTVSPost2010PropOp34
 70
     1
102
RTVSPost2010Prop35
280
     0
102
RTVSPost2010PropOp35
 70
     1
102
RTVSPost2010Prop36
280
     0
102
RTVSPost2010PropOp36
 70
     1
102
RTVSPost2010Prop37
 90
       50
102
RTVSPost2010PropOp37
 70
     1
102
RTVSPost2010Prop38
140
0.0
102
RTVSPost2010PropOp38
 70
     1
102
RTVSPost2010Prop39
140
1.0
102
RTVSPost2010PropOp39
 70
     1
102
RTVSPost2010Prop40
 90
        0
102
RTVSPost2010PropOp40
 70
     1
102
RTVSPost2010Prop41ColorIndex
 90
       18
102
RTVSPost2010Prop41ColorRGB
 90
        0
102
RTVSPost2010PropOp41
 70
     1
102
RTVSPost2010Prop42
 90
       50
102
RTVSPost2010PropOp42
 70
     1
102
RTVSPost2010Prop43
 90
        3
102
RTVSPost2010PropOp43
 70
     1
102
RTVSPost2010Prop44ColorIndex
 90
        5
102
RTVSPost2010Prop44ColorRGB
 90
      255
102
RTVSPost2010PropOp44
 70
     1
102
RTVSPost2010Prop45
280
     0
102
RTVSPost2010PropOp45
 70
     1
102
RTVSPost2010Prop46
 90
       50
102
RTVSPost2010PropOp46
 70
     1
102
RTVSPost2010Prop47
 90
       50
102
RTVSPost2010PropOp47
 70
     1
102
RTVSPost2010Prop48
 90
       50
102
RTVSPost2010PropOp48
 70
     1
102
RTVSPost2010Prop49
280
     0
102
RTVSPost2010PropOp49
 70
     1
102
RTVSPost2010Prop50
 90
       50
102
RTVSPost2010PropOp50
 70
     1
102
RTVSPost2010Prop51ColorIndex
 90
      256
102
RTVSPost2010Prop51ColorRGB
 90
-16777216
102
RTVSPost2010PropOp51
 70
     0
102
RTVSPost2010Prop52
140
1.0
102
RTVSPost2010PropOp52
 70
     0
102
RTVSPost2010Prop53
 90
        2
102
RTVSPost2010PropOp53
 70
     1
102
RTVSPost2010Prop54
  1
strokes_ogs.tif
102
RTVSPost2010PropOp54
 70
     1
102
RTVSPost2010Prop55
280
     0
102
RTVSPost2010PropOp55
 70
     1
102
RTVSPost2010Prop56
140
1.0
102
RTVSPost2010PropOp56
 70
     1
102
RTVSPost2010Prop57
140
1.0
102
RTVSPost2010PropOp57
 70
     1
  0
XRECORD
  5
489
102
{ACAD_REACTORS
330
488
102
}
330
488
100
AcDbXrecord
280
     1
102
RTVSPropertyOp0
 70
     1
102
RTVSPropertyOp1
 70
     1
102
RTVSPropertyOp2
 70
     1
102
RTVSPropertyOp3
 70
     1
102
RTVSPropertyOp4
 70
     1
102
RTVSPropertyOp5
 70
     1
102
RTVSPropertyOp6
 70
     1
102
RTVSPropertyOp7
 70
     1
102
RTVSPropertyOp8
 70
     1
102
RTVSPropertyOp9
 70
     1
102
RTVSPropertyOp10
 70
     1
102
RTVSPropertyOp11
 70
     1
102
RTVSPropertyOp12
 70
     1
102
RTVSPropertyOp13
 70
     1
102
RTVSPropertyOp14
 70
     1
102
RTVSPropertyOp15
 70
     1
102
RTVSPropertyOp16
 70
     1
102
RTVSPropertyOp17
 70
     1
102
RTVSPropertyOp18
 70
     1
102
RTVSPropertyOp19
 70
     1
102
RTVSPropertyOp20
 70
     1
102
RTVSPropertyOp21
 70
     1
102
RTVSPropertyOp22
 70
     1
102
RTVSPropertyOp23
 70
     1
102
RTVSPropertyOp24
 70
     1
102
RTVSPropertyOp25
 70
     1
102
RTVSPropertyOp26
 70
     1
102
RTVSPropertyOp27
 70
     1
102
RTVSPropertyOp28
 70
     1
102
RTVSPropertyOp29
 70
     1
102
RTVSPropertyOp30
 70
     1
102
RTVSPropertyOp31
 70
     1
102
RTVSPropertyOp32
 70
     1
102
RTVSPropertyOp33
 70
     1
102
RTVSPropertyOp34
 70
     1
102
RTVSPropertyOp35
 70
     1
102
RTVSPropertyOp36
 70
     1
102
RTVSPropertyOp37
 70
     1
102
RTVSPropertyOp38
 70
     1
102
RTVSPropertyOp39
 70
     1
102
RTVSPropertyOp40
 70
     1
102
RTVSPropertyOp41
 70
     1
102
RTVSPropertyOp42
 70
     1
102
RTVSPropertyOp43
 70
     1
102
RTVSPropertyOp44
 70
     1
102
RTVSPropertyOp45
 70
     1
102
RTVSPropertyOp46
 70
     1
102
RTVSPropertyOp47
 70
     1
102
RTVSPropertyOp48
 70
     1
102
RTVSPropertyOp49
 70
     1
102
RTVSPropertyOp50
 70
     1
102
RTVSPropertyOp51
 70
     0
102
RTVSPropertyOp52
 70
     0
102
RTVSPropertyOp53
 70
     1
102
RTVSPropertyOp54
 70
     1
102
RTVSPropertyOp55
 70
     1
102
RTVSPropertyOp56
 70
     1
102
RTVSPropertyOp57
 70
     1
102
RTVSPost2010Prop28
280
     0
102
RTVSPost2010PropOp28
 70
     1
102
RTVSPost2010Prop29
280
     1
102
RTVSPost2010PropOp29
 70
     1
102
RTVSPost2010Prop30
280
     1
102
RTVSPost2010PropOp30
 70
     1
102
RTVSPost2010Prop31
280
     0
102
RTVSPost2010PropOp31
 70
     1
102
RTVSPost2010Prop32
280
     0
102
RTVSPost2010PropOp32
 70
     1
102
RTVSPost2010Prop33
280
     0
102
RTVSPost2010PropOp33
 70
     1
102
RTVSPost2010Prop34
280
     0
102
RTVSPost2010PropOp34
 70
     1
102
RTVSPost2010Prop35
280
     0
102
RTVSPost2010PropOp35
 70
     1
102
RTVSPost2010Prop36
280
     0
102
RTVSPost2010PropOp36
 70
     1
102
RTVSPost2010Prop37
 90
       50
102
RTVSPost2010PropOp37
 70
     1
102
RTVSPost2010Prop38
140
0.0
102
RTVSPost2010PropOp38
 70
     1
102
RTVSPost2010Prop39
140
1.0
102
RTVSPost2010PropOp39
 70
     1
102
RTVSPost2010Prop40
 90
        0
102
RTVSPost2010PropOp40
 70
     1
102
RTVSPost2010Prop41ColorIndex
 90
       18
102
RTVSPost2010Prop41ColorRGB
 90
        0
102
RTVSPost2010PropOp41
 70
     1
102
RTVSPost2010Prop42
 90
       50
102
RTVSPost2010PropOp42
 70
     1
102
RTVSPost2010Prop43
 90
        3
102
RTVSPost2010PropOp43
 70
     1
102
RTVSPost2010Prop44ColorIndex
 90
        5
102
RTVSPost2010Prop44ColorRGB
 90
      255
102
RTVSPost2010PropOp44
 70
     1
102
RTVSPost2010Prop45
280
     0
102
RTVSPost2010PropOp45
 70
     1
102
RTVSPost2010Prop46
 90
       50
102
RTVSPost2010PropOp46
 70
     1
102
RTVSPost2010Prop47
 90
       50
102
RTVSPost2010PropOp47
 70
     1
102
RTVSPost2010Prop48
 90
       50
102
RTVSPost2010PropOp48
 70
     1
102
RTVSPost2010Prop49
280
     0
102
RTVSPost2010PropOp49
 70
     1
102
RTVSPost2010Prop50
 90
       50
102
RTVSPost2010PropOp50
 70
     1
102
RTVSPost2010Prop51ColorIndex
 90
      256
102
RTVSPost2010Prop51ColorRGB
 90
-16777216
102
RTVSPost2010PropOp51
 70
     0
102
RTVSPost2010Prop52
140
1.0
102
RTVSPost2010PropOp52
 70
     0
102
RTVSPost2010Prop53
 90
        2
102
RTVSPost2010PropOp53
 70
     1
102
RTVSPost2010Prop54
  1
strokes_ogs.tif
102
RTVSPost2010PropOp54
 70
     1
102
RTVSPost2010Prop55
280
     0
102
RTVSPost2010PropOp55
 70
     1
102
RTVSPost2010Prop56
140
1.0
102
RTVSPost2010PropOp56
 70
     1
102
RTVSPost2010Prop57
140
1.0
102
RTVSPost2010PropOp57
 70
     1
  0
XRECORD
  5
491
102
{ACAD_REACTORS
330
490
102
}
330
490
100
AcDbXrecord
280
     1
102
RTVSPropertyOp0
 70
     1
102
RTVSPropertyOp1
 70
     1
102
RTVSPropertyOp2
 70
     1
102
RTVSPropertyOp3
 70
     1
102
RTVSPropertyOp4
 70
     1
102
RTVSPropertyOp5
 70
     1
102
RTVSPropertyOp6
 70
     1
102
RTVSPropertyOp7
 70
     1
102
RTVSPropertyOp8
 70
     1
102
RTVSPropertyOp9
 70
     1
102
RTVSPropertyOp10
 70
     1
102
RTVSPropertyOp11
 70
     1
102
RTVSPropertyOp12
 70
     1
102
RTVSPropertyOp13
 70
     1
102
RTVSPropertyOp14
 70
     1
102
RTVSPropertyOp15
 70
     1
102
RTVSPropertyOp16
 70
     1
102
RTVSPropertyOp17
 70
     1
102
RTVSPropertyOp18
 70
     1
102
RTVSPropertyOp19
 70
     1
102
RTVSPropertyOp20
 70
     1
102
RTVSPropertyOp21
 70
     1
102
RTVSPropertyOp22
 70
     1
102
RTVSPropertyOp23
 70
     1
102
RTVSPropertyOp24
 70
     1
102
RTVSPropertyOp25
 70
     1
102
RTVSPropertyOp26
 70
     1
102
RTVSPropertyOp27
 70
     1
102
RTVSPropertyOp28
 70
     1
102
RTVSPropertyOp29
 70
     1
102
RTVSPropertyOp30
 70
     1
102
RTVSPropertyOp31
 70
     1
102
RTVSPropertyOp32
 70
     1
102
RTVSPropertyOp33
 70
     1
102
RTVSPropertyOp34
 70
     1
102
RTVSPropertyOp35
 70
     1
102
RTVSPropertyOp36
 70
     1
102
RTVSPropertyOp37
 70
     1
102
RTVSPropertyOp38
 70
     1
102
RTVSPropertyOp39
 70
     1
102
RTVSPropertyOp40
 70
     1
102
RTVSPropertyOp41
 70
     1
102
RTVSPropertyOp42
 70
     1
102
RTVSPropertyOp43
 70
     1
102
RTVSPropertyOp44
 70
     1
102
RTVSPropertyOp45
 70
     1
102
RTVSPropertyOp46
 70
     1
102
RTVSPropertyOp47
 70
     1
102
RTVSPropertyOp48
 70
     1
102
RTVSPropertyOp49
 70
     1
102
RTVSPropertyOp50
 70
     1
102
RTVSPropertyOp51
 70
     0
102
RTVSPropertyOp52
 70
     0
102
RTVSPropertyOp53
 70
     1
102
RTVSPropertyOp54
 70
     1
102
RTVSPropertyOp55
 70
     1
102
RTVSPropertyOp56
 70
     1
102
RTVSPropertyOp57
 70
     1
102
RTVSPost2010Prop28
280
     0
102
RTVSPost2010PropOp28
 70
     1
102
RTVSPost2010Prop29
280
     1
102
RTVSPost2010PropOp29
 70
     1
102
RTVSPost2010Prop30
280
     1
102
RTVSPost2010PropOp30
 70
     1
102
RTVSPost2010Prop31
280
     0
102
RTVSPost2010PropOp31
 70
     1
102
RTVSPost2010Prop32
280
     0
102
RTVSPost2010PropOp32
 70
     1
102
RTVSPost2010Prop33
280
     0
102
RTVSPost2010PropOp33
 70
     1
102
RTVSPost2010Prop34
280
     0
102
RTVSPost2010PropOp34
 70
     1
102
RTVSPost2010Prop35
280
     0
102
RTVSPost2010PropOp35
 70
     1
102
RTVSPost2010Prop36
280
     0
102
RTVSPost2010PropOp36
 70
     1
102
RTVSPost2010Prop37
 90
       50
102
RTVSPost2010PropOp37
 70
     1
102
RTVSPost2010Prop38
140
0.0
102
RTVSPost2010PropOp38
 70
     1
102
RTVSPost2010Prop39
140
1.0
102
RTVSPost2010PropOp39
 70
     1
102
RTVSPost2010Prop40
 90
        0
102
RTVSPost2010PropOp40
 70
     1
102
RTVSPost2010Prop41ColorIndex
 90
       18
102
RTVSPost2010Prop41ColorRGB
 90
        0
102
RTVSPost2010PropOp41
 70
     1
102
RTVSPost2010Prop42
 90
       50
102
RTVSPost2010PropOp42
 70
     1
102
RTVSPost2010Prop43
 90
        3
102
RTVSPost2010PropOp43
 70
     1
102
RTVSPost2010Prop44ColorIndex
 90
        5
102
RTVSPost2010Prop44ColorRGB
 90
      255
102
RTVSPost2010PropOp44
 70
     1
102
RTVSPost2010Prop45
280
     0
102
RTVSPost2010PropOp45
 70
     1
102
RTVSPost2010Prop46
 90
       50
102
RTVSPost2010PropOp46
 70
     1
102
RTVSPost2010Prop47
 90
       50
102
RTVSPost2010PropOp47
 70
     1
102
RTVSPost2010Prop48
 90
       50
102
RTVSPost2010PropOp48
 70
     1
102
RTVSPost2010Prop49
280
     0
102
RTVSPost2010PropOp49
 70
     1
102
RTVSPost2010Prop50
 90
       50
102
RTVSPost2010PropOp50
 70
     1
102
RTVSPost2010Prop51ColorIndex
 90
      256
102
RTVSPost2010Prop51ColorRGB
 90
-16777216
102
RTVSPost2010PropOp51
 70
     0
102
RTVSPost2010Prop52
140
1.0
102
RTVSPost2010PropOp52
 70
     0
102
RTVSPost2010Prop53
 90
        2
102
RTVSPost2010PropOp53
 70
     1
102
RTVSPost2010Prop54
  1
strokes_ogs.tif
102
RTVSPost2010PropOp54
 70
     1
102
RTVSPost2010Prop55
280
     0
102
RTVSPost2010PropOp55
 70
     1
102
RTVSPost2010Prop56
140
1.0
102
RTVSPost2010PropOp56
 70
     1
102
RTVSPost2010Prop57
140
1.0
102
RTVSPost2010PropOp57
 70
     1
  0
XRECORD
  5
485
102
{ACAD_REACTORS
330
484
102
}
330
484
100
AcDbXrecord
280
     1
102
RTVSPropertyOp0
 70
     1
102
RTVSPropertyOp1
 70
     1
102
RTVSPropertyOp2
 70
     1
102
RTVSPropertyOp3
 70
     1
102
RTVSPropertyOp4
 70
     1
102
RTVSPropertyOp5
 70
     1
102
RTVSPropertyOp6
 70
     1
102
RTVSPropertyOp7
 70
     1
102
RTVSPropertyOp8
 70
     1
102
RTVSPropertyOp9
 70
     1
102
RTVSPropertyOp10
 70
     1
102
RTVSPropertyOp11
 70
     1
102
RTVSPropertyOp12
 70
     1
102
RTVSPropertyOp13
 70
     1
102
RTVSPropertyOp14
 70
     1
102
RTVSPropertyOp15
 70
     1
102
RTVSPropertyOp16
 70
     1
102
RTVSPropertyOp17
 70
     1
102
RTVSPropertyOp18
 70
     1
102
RTVSPropertyOp19
 70
     1
102
RTVSPropertyOp20
 70
     1
102
RTVSPropertyOp21
 70
     1
102
RTVSPropertyOp22
 70
     1
102
RTVSPropertyOp23
 70
     1
102
RTVSPropertyOp24
 70
     1
102
RTVSPropertyOp25
 70
     1
102
RTVSPropertyOp26
 70
     1
102
RTVSPropertyOp27
 70
     1
102
RTVSPropertyOp28
 70
     1
102
RTVSPropertyOp29
 70
     1
102
RTVSPropertyOp30
 70
     1
102
RTVSPropertyOp31
 70
     1
102
RTVSPropertyOp32
 70
     1
102
RTVSPropertyOp33
 70
     1
102
RTVSPropertyOp34
 70
     1
102
RTVSPropertyOp35
 70
     1
102
RTVSPropertyOp36
 70
     1
102
RTVSPropertyOp37
 70
     1
102
RTVSPropertyOp38
 70
     1
102
RTVSPropertyOp39
 70
     1
102
RTVSPropertyOp40
 70
     1
102
RTVSPropertyOp41
 70
     1
102
RTVSPropertyOp42
 70
     1
102
RTVSPropertyOp43
 70
     1
102
RTVSPropertyOp44
 70
     1
102
RTVSPropertyOp45
 70
     1
102
RTVSPropertyOp46
 70
     1
102
RTVSPropertyOp47
 70
     1
102
RTVSPropertyOp48
 70
     1
102
RTVSPropertyOp49
 70
     1
102
RTVSPropertyOp50
 70
     1
102
RTVSPropertyOp51
 70
     0
102
RTVSPropertyOp52
 70
     0
102
RTVSPropertyOp53
 70
     1
102
RTVSPropertyOp54
 70
     1
102
RTVSPropertyOp55
 70
     1
102
RTVSPropertyOp56
 70
     1
102
RTVSPropertyOp57
 70
     1
102
RTVSPost2010Prop28
280
     0
102
RTVSPost2010PropOp28
 70
     1
102
RTVSPost2010Prop29
280
     1
102
RTVSPost2010PropOp29
 70
     1
102
RTVSPost2010Prop30
280
     1
102
RTVSPost2010PropOp30
 70
     1
102
RTVSPost2010Prop31
280
     0
102
RTVSPost2010PropOp31
 70
     1
102
RTVSPost2010Prop32
280
     0
102
RTVSPost2010PropOp32
 70
     1
102
RTVSPost2010Prop33
280
     0
102
RTVSPost2010PropOp33
 70
     1
102
RTVSPost2010Prop34
280
     0
102
RTVSPost2010PropOp34
 70
     1
102
RTVSPost2010Prop35
280
     0
102
RTVSPost2010PropOp35
 70
     1
102
RTVSPost2010Prop36
280
     0
102
RTVSPost2010PropOp36
 70
     1
102
RTVSPost2010Prop37
 90
       50
102
RTVSPost2010PropOp37
 70
     1
102
RTVSPost2010Prop38
140
0.0
102
RTVSPost2010PropOp38
 70
     1
102
RTVSPost2010Prop39
140
1.0
102
RTVSPost2010PropOp39
 70
     1
102
RTVSPost2010Prop40
 90
        0
102
RTVSPost2010PropOp40
 70
     1
102
RTVSPost2010Prop41ColorIndex
 90
       18
102
RTVSPost2010Prop41ColorRGB
 90
        0
102
RTVSPost2010PropOp41
 70
     1
102
RTVSPost2010Prop42
 90
       50
102
RTVSPost2010PropOp42
 70
     1
102
RTVSPost2010Prop43
 90
        3
102
RTVSPost2010PropOp43
 70
     1
102
RTVSPost2010Prop44ColorIndex
 90
        5
102
RTVSPost2010Prop44ColorRGB
 90
      255
102
RTVSPost2010PropOp44
 70
     1
102
RTVSPost2010Prop45
280
     0
102
RTVSPost2010PropOp45
 70
     1
102
RTVSPost2010Prop46
 90
       50
102
RTVSPost2010PropOp46
 70
     1
102
RTVSPost2010Prop47
 90
       50
102
RTVSPost2010PropOp47
 70
     1
102
RTVSPost2010Prop48
 90
       50
102
RTVSPost2010PropOp48
 70
     1
102
RTVSPost2010Prop49
280
     0
102
RTVSPost2010PropOp49
 70
     1
102
RTVSPost2010Prop50
 90
       50
102
RTVSPost2010PropOp50
 70
     1
102
RTVSPost2010Prop51ColorIndex
 90
      256
102
RTVSPost2010Prop51ColorRGB
 90
-16777216
102
RTVSPost2010PropOp51
 70
     0
102
RTVSPost2010Prop52
140
1.0
102
RTVSPost2010PropOp52
 70
     0
102
RTVSPost2010Prop53
 90
        2
102
RTVSPost2010PropOp53
 70
     1
102
RTVSPost2010Prop54
  1
strokes_ogs.tif
102
RTVSPost2010PropOp54
 70
     1
102
RTVSPost2010Prop55
280
     0
102
RTVSPost2010PropOp55
 70
     1
102
RTVSPost2010Prop56
140
1.0
102
RTVSPost2010PropOp56
 70
     1
102
RTVSPost2010Prop57
140
1.0
102
RTVSPost2010PropOp57
 70
     1
  0
XRECORD
  5
487
102
{ACAD_REACTORS
330
486
102
}
330
486
100
AcDbXrecord
280
     1
102
RTVSPropertyOp0
 70
     1
102
RTVSPropertyOp1
 70
     1
102
RTVSPropertyOp2
 70
     1
102
RTVSPropertyOp3
 70
     1
102
RTVSPropertyOp4
 70
     1
102
RTVSPropertyOp5
 70
     1
102
RTVSPropertyOp6
 70
     1
102
RTVSPropertyOp7
 70
     1
102
RTVSPropertyOp8
 70
     1
102
RTVSPropertyOp9
 70
     1
102
RTVSPropertyOp10
 70
     1
102
RTVSPropertyOp11
 70
     1
102
RTVSPropertyOp12
 70
     1
102
RTVSPropertyOp13
 70
     1
102
RTVSPropertyOp14
 70
     1
102
RTVSPropertyOp15
 70
     1
102
RTVSPropertyOp16
 70
     1
102
RTVSPropertyOp17
 70
     1
102
RTVSPropertyOp18
 70
     1
102
RTVSPropertyOp19
 70
     1
102
RTVSPropertyOp20
 70
     1
102
RTVSPropertyOp21
 70
     1
102
RTVSPropertyOp22
 70
     1
102
RTVSPropertyOp23
 70
     1
102
RTVSPropertyOp24
 70
     1
102
RTVSPropertyOp25
 70
     1
102
RTVSPropertyOp26
 70
     1
102
RTVSPropertyOp27
 70
     1
102
RTVSPropertyOp28
 70
     1
102
RTVSPropertyOp29
 70
     1
102
RTVSPropertyOp30
 70
     1
102
RTVSPropertyOp31
 70
     1
102
RTVSPropertyOp32
 70
     1
102
RTVSPropertyOp33
 70
     1
102
RTVSPropertyOp34
 70
     1
102
RTVSPropertyOp35
 70
     1
102
RTVSPropertyOp36
 70
     1
102
RTVSPropertyOp37
 70
     1
102
RTVSPropertyOp38
 70
     1
102
RTVSPropertyOp39
 70
     1
102
RTVSPropertyOp40
 70
     1
102
RTVSPropertyOp41
 70
     1
102
RTVSPropertyOp42
 70
     1
102
RTVSPropertyOp43
 70
     1
102
RTVSPropertyOp44
 70
     1
102
RTVSPropertyOp45
 70
     1
102
RTVSPropertyOp46
 70
     1
102
RTVSPropertyOp47
 70
     1
102
RTVSPropertyOp48
 70
     1
102
RTVSPropertyOp49
 70
     1
102
RTVSPropertyOp50
 70
     1
102
RTVSPropertyOp51
 70
     0
102
RTVSPropertyOp52
 70
     0
102
RTVSPropertyOp53
 70
     1
102
RTVSPropertyOp54
 70
     1
102
RTVSPropertyOp55
 70
     1
102
RTVSPropertyOp56
 70
     1
102
RTVSPropertyOp57
 70
     1
102
RTVSPost2010Prop28
280
     0
102
RTVSPost2010PropOp28
 70
     1
102
RTVSPost2010Prop29
280
     1
102
RTVSPost2010PropOp29
 70
     1
102
RTVSPost2010Prop30
280
     1
102
RTVSPost2010PropOp30
 70
     1
102
RTVSPost2010Prop31
280
     0
102
RTVSPost2010PropOp31
 70
     1
102
RTVSPost2010Prop32
280
     0
102
RTVSPost2010PropOp32
 70
     1
102
RTVSPost2010Prop33
280
     0
102
RTVSPost2010PropOp33
 70
     1
102
RTVSPost2010Prop34
280
     0
102
RTVSPost2010PropOp34
 70
     1
102
RTVSPost2010Prop35
280
     0
102
RTVSPost2010PropOp35
 70
     1
102
RTVSPost2010Prop36
280
     0
102
RTVSPost2010PropOp36
 70
     1
102
RTVSPost2010Prop37
 90
       50
102
RTVSPost2010PropOp37
 70
     1
102
RTVSPost2010Prop38
140
0.0
102
RTVSPost2010PropOp38
 70
     1
102
RTVSPost2010Prop39
140
1.0
102
RTVSPost2010PropOp39
 70
     1
102
RTVSPost2010Prop40
 90
        0
102
RTVSPost2010PropOp40
 70
     1
102
RTVSPost2010Prop41ColorIndex
 90
       18
102
RTVSPost2010Prop41ColorRGB
 90
        0
102
RTVSPost2010PropOp41
 70
     1
102
RTVSPost2010Prop42
 90
       50
102
RTVSPost2010PropOp42
 70
     1
102
RTVSPost2010Prop43
 90
        3
102
RTVSPost2010PropOp43
 70
     1
102
RTVSPost2010Prop44ColorIndex
 90
        5
102
RTVSPost2010Prop44ColorRGB
 90
      255
102
RTVSPost2010PropOp44
 70
     1
102
RTVSPost2010Prop45
280
     0
102
RTVSPost2010PropOp45
 70
     1
102
RTVSPost2010Prop46
 90
       50
102
RTVSPost2010PropOp46
 70
     1
102
RTVSPost2010Prop47
 90
       50
102
RTVSPost2010PropOp47
 70
     1
102
RTVSPost2010Prop48
 90
       50
102
RTVSPost2010PropOp48
 70
     1
102
RTVSPost2010Prop49
280
     0
102
RTVSPost2010PropOp49
 70
     1
102
RTVSPost2010Prop50
 90
       50
102
RTVSPost2010PropOp50
 70
     1
102
RTVSPost2010Prop51ColorIndex
 90
      256
102
RTVSPost2010Prop51ColorRGB
 90
-16777216
102
RTVSPost2010PropOp51
 70
     0
102
RTVSPost2010Prop52
140
1.0
102
RTVSPost2010PropOp52
 70
     0
102
RTVSPost2010Prop53
 90
        2
102
RTVSPost2010PropOp53
 70
     1
102
RTVSPost2010Prop54
  1
strokes_ogs.tif
102
RTVSPost2010PropOp54
 70
     1
102
RTVSPost2010Prop55
280
     0
102
RTVSPost2010PropOp55
 70
     1
102
RTVSPost2010Prop56
140
1.0
102
RTVSPost2010PropOp56
 70
     1
102
RTVSPost2010Prop57
140
1.0
102
RTVSPost2010PropOp57
 70
     1
  0
XRECORD
  5
497
102
{ACAD_REACTORS
330
496
102
}
330
496
100
AcDbXrecord
280
     1
102
RTVSPropertyOp0
 70
     0
102
RTVSPropertyOp1
 70
     0
102
RTVSPropertyOp2
 70
     0
102
RTVSPropertyOp3
 70
     0
102
RTVSPropertyOp4
 70
     0
102
RTVSPropertyOp5
 70
     0
102
RTVSPropertyOp6
 70
     0
102
RTVSPropertyOp7
 70
     0
102
RTVSPropertyOp8
 70
     0
102
RTVSPropertyOp9
 70
     0
102
RTVSPropertyOp10
 70
     0
102
RTVSPropertyOp11
 70
     0
102
RTVSPropertyOp12
 70
     0
102
RTVSPropertyOp13
 70
     0
102
RTVSPropertyOp14
 70
     2
102
RTVSPropertyOp15
 70
     0
102
RTVSPropertyOp16
 70
     0
102
RTVSPropertyOp17
 70
     0
102
RTVSPropertyOp18
 70
     0
102
RTVSPropertyOp19
 70
     0
102
RTVSPropertyOp20
 70
     0
102
RTVSPropertyOp21
 70
     0
102
RTVSPropertyOp22
 70
     0
102
RTVSPropertyOp23
 70
     0
102
RTVSPropertyOp24
 70
     0
102
RTVSPropertyOp25
 70
     0
102
RTVSPropertyOp26
 70
     0
102
RTVSPropertyOp27
 70
     0
102
RTVSPropertyOp28
 70
     0
102
RTVSPropertyOp29
 70
     0
102
RTVSPropertyOp30
 70
     0
102
RTVSPropertyOp31
 70
     0
102
RTVSPropertyOp32
 70
     0
102
RTVSPropertyOp33
 70
     0
102
RTVSPropertyOp34
 70
     0
102
RTVSPropertyOp35
 70
     0
102
RTVSPropertyOp36
 70
     0
102
RTVSPropertyOp37
 70
     0
102
RTVSPropertyOp38
 70
     0
102
RTVSPropertyOp39
 70
     0
102
RTVSPropertyOp40
 70
     0
102
RTVSPropertyOp41
 70
     0
102
RTVSPropertyOp42
 70
     0
102
RTVSPropertyOp43
 70
     0
102
RTVSPropertyOp44
 70
     0
102
RTVSPropertyOp45
 70
     0
102
RTVSPropertyOp46
 70
     0
102
RTVSPropertyOp47
 70
     0
102
RTVSPropertyOp48
 70
     0
102
RTVSPropertyOp49
 70
     0
102
RTVSPropertyOp50
 70
     0
102
RTVSPropertyOp51
 70
     0
102
RTVSPropertyOp52
 70
     0
102
RTVSPropertyOp53
 70
     0
102
RTVSPropertyOp54
 70
     0
102
RTVSPropertyOp55
 70
     0
102
RTVSPropertyOp56
 70
     0
102
RTVSPropertyOp57
 70
     0
102
RTVSPost2010Prop28
280
     0
102
RTVSPost2010PropOp28
 70
     0
102
RTVSPost2010Prop29
280
     1
102
RTVSPost2010PropOp29
 70
     0
102
RTVSPost2010Prop30
280
     1
102
RTVSPost2010PropOp30
 70
     0
102
RTVSPost2010Prop31
280
     0
102
RTVSPost2010PropOp31
 70
     0
102
RTVSPost2010Prop32
280
     0
102
RTVSPost2010PropOp32
 70
     0
102
RTVSPost2010Prop33
280
     0
102
RTVSPost2010PropOp33
 70
     0
102
RTVSPost2010Prop34
280
     0
102
RTVSPost2010PropOp34
 70
     0
102
RTVSPost2010Prop35
280
     0
102
RTVSPost2010PropOp35
 70
     0
102
RTVSPost2010Prop36
280
     0
102
RTVSPost2010PropOp36
 70
     0
102
RTVSPost2010Prop37
 90
       50
102
RTVSPost2010PropOp37
 70
     0
102
RTVSPost2010Prop38
140
0.0
102
RTVSPost2010PropOp38
 70
     0
102
RTVSPost2010Prop39
140
1.0
102
RTVSPost2010PropOp39
 70
     0
102
RTVSPost2010Prop40
 90
        0
102
RTVSPost2010PropOp40
 70
     0
102
RTVSPost2010Prop41ColorIndex
 90
       18
102
RTVSPost2010Prop41ColorRGB
 90
        0
102
RTVSPost2010PropOp41
 70
     0
102
RTVSPost2010Prop42
 90
       50
102
RTVSPost2010PropOp42
 70
     0
102
RTVSPost2010Prop43
 90
        3
102
RTVSPost2010PropOp43
 70
     0
102
RTVSPost2010Prop44ColorIndex
 90
        5
102
RTVSPost2010Prop44ColorRGB
 90
      255
102
RTVSPost2010PropOp44
 70
     0
102
RTVSPost2010Prop45
280
     0
102
RTVSPost2010PropOp45
 70
     0
102
RTVSPost2010Prop46
 90
       50
102
RTVSPost2010PropOp46
 70
     0
102
RTVSPost2010Prop47
 90
       50
102
RTVSPost2010PropOp47
 70
     0
102
RTVSPost2010Prop48
 90
       50
102
RTVSPost2010PropOp48
 70
     0
102
RTVSPost2010Prop49
280
     0
102
RTVSPost2010PropOp49
 70
     0
102
RTVSPost2010Prop50
 90
       50
102
RTVSPost2010PropOp50
 70
     0
102
RTVSPost2010Prop51ColorIndex
 90
      256
102
RTVSPost2010Prop51ColorRGB
 90
-16777216
102
RTVSPost2010PropOp51
 70
     0
102
RTVSPost2010Prop52
140
1.0
102
RTVSPost2010PropOp52
 70
     0
102
RTVSPost2010Prop53
 90
        2
102
RTVSPost2010PropOp53
 70
     0
102
RTVSPost2010Prop54
  1
strokes_ogs.tif
102
RTVSPost2010PropOp54
 70
     0
102
RTVSPost2010Prop55
280
     0
102
RTVSPost2010PropOp55
 70
     0
102
RTVSPost2010Prop56
140
1.0
102
RTVSPost2010PropOp56
 70
     0
102
RTVSPost2010Prop57
140
1.0
102
RTVSPost2010PropOp57
 70
     0
  0
XRECORD
  5
48F
102
{ACAD_REACTORS
330
48E
102
}
330
48E
100
AcDbXrecord
280
     1
102
RTVSPropertyOp0
 70
     1
102
RTVSPropertyOp1
 70
     1
102
RTVSPropertyOp2
 70
     1
102
RTVSPropertyOp3
 70
     1
102
RTVSPropertyOp4
 70
     1
102
RTVSPropertyOp5
 70
     1
102
RTVSPropertyOp6
 70
     1
102
RTVSPropertyOp7
 70
     1
102
RTVSPropertyOp8
 70
     1
102
RTVSPropertyOp9
 70
     1
102
RTVSPropertyOp10
 70
     1
102
RTVSPropertyOp11
 70
     1
102
RTVSPropertyOp12
 70
     1
102
RTVSPropertyOp13
 70
     1
102
RTVSPropertyOp14
 70
     1
102
RTVSPropertyOp15
 70
     1
102
RTVSPropertyOp16
 70
     1
102
RTVSPropertyOp17
 70
     1
102
RTVSPropertyOp18
 70
     1
102
RTVSPropertyOp19
 70
     1
102
RTVSPropertyOp20
 70
     1
102
RTVSPropertyOp21
 70
     1
102
RTVSPropertyOp22
 70
     1
102
RTVSPropertyOp23
 70
     1
102
RTVSPropertyOp24
 70
     1
102
RTVSPropertyOp25
 70
     1
102
RTVSPropertyOp26
 70
     1
102
RTVSPropertyOp27
 70
     1
102
RTVSPropertyOp28
 70
     1
102
RTVSPropertyOp29
 70
     1
102
RTVSPropertyOp30
 70
     1
102
RTVSPropertyOp31
 70
     1
102
RTVSPropertyOp32
 70
     1
102
RTVSPropertyOp33
 70
     1
102
RTVSPropertyOp34
 70
     1
102
RTVSPropertyOp35
 70
     1
102
RTVSPropertyOp36
 70
     1
102
RTVSPropertyOp37
 70
     1
102
RTVSPropertyOp38
 70
     1
102
RTVSPropertyOp39
 70
     1
102
RTVSPropertyOp40
 70
     1
102
RTVSPropertyOp41
 70
     1
102
RTVSPropertyOp42
 70
     1
102
RTVSPropertyOp43
 70
     1
102
RTVSPropertyOp44
 70
     1
102
RTVSPropertyOp45
 70
     1
102
RTVSPropertyOp46
 70
     1
102
RTVSPropertyOp47
 70
     1
102
RTVSPropertyOp48
 70
     1
102
RTVSPropertyOp49
 70
     1
102
RTVSPropertyOp50
 70
     1
102
RTVSPropertyOp51
 70
     0
102
RTVSPropertyOp52
 70
     0
102
RTVSPropertyOp53
 70
     1
102
RTVSPropertyOp54
 70
     1
102
RTVSPropertyOp55
 70
     1
102
RTVSPropertyOp56
 70
     1
102
RTVSPropertyOp57
 70
     1
102
RTVSPost2010Prop28
280
     0
102
RTVSPost2010PropOp28
 70
     1
102
RTVSPost2010Prop29
280
     1
102
RTVSPost2010PropOp29
 70
     1
102
RTVSPost2010Prop30
280
     1
102
RTVSPost2010PropOp30
 70
     1
102
RTVSPost2010Prop31
280
     0
102
RTVSPost2010PropOp31
 70
     1
102
RTVSPost2010Prop32
280
     0
102
RTVSPost2010PropOp32
 70
     1
102
RTVSPost2010Prop33
280
     0
102
RTVSPost2010PropOp33
 70
     1
102
RTVSPost2010Prop34
280
     0
102
RTVSPost2010PropOp34
 70
     1
102
RTVSPost2010Prop35
280
     0
102
RTVSPost2010PropOp35
 70
     1
102
RTVSPost2010Prop36
280
     0
102
RTVSPost2010PropOp36
 70
     1
102
RTVSPost2010Prop37
 90
       50
102
RTVSPost2010PropOp37
 70
     1
102
RTVSPost2010Prop38
140
0.0
102
RTVSPost2010PropOp38
 70
     1
102
RTVSPost2010Prop39
140
1.0
102
RTVSPost2010PropOp39
 70
     1
102
RTVSPost2010Prop40
 90
        0
102
RTVSPost2010PropOp40
 70
     1
102
RTVSPost2010Prop41ColorIndex
 90
       18
102
RTVSPost2010Prop41ColorRGB
 90
        0
102
RTVSPost2010PropOp41
 70
     1
102
RTVSPost2010Prop42
 90
       50
102
RTVSPost2010PropOp42
 70
     1
102
RTVSPost2010Prop43
 90
        3
102
RTVSPost2010PropOp43
 70
     1
102
RTVSPost2010Prop44ColorIndex
 90
        5
102
RTVSPost2010Prop44ColorRGB
 90
      255
102
RTVSPost2010PropOp44
 70
     1
102
RTVSPost2010Prop45
280
     0
102
RTVSPost2010PropOp45
 70
     1
102
RTVSPost2010Prop46
 90
       50
102
RTVSPost2010PropOp46
 70
     1
102
RTVSPost2010Prop47
 90
       50
102
RTVSPost2010PropOp47
 70
     1
102
RTVSPost2010Prop48
 90
       50
102
RTVSPost2010PropOp48
 70
     1
102
RTVSPost2010Prop49
280
     0
102
RTVSPost2010PropOp49
 70
     1
102
RTVSPost2010Prop50
 90
       50
102
RTVSPost2010PropOp50
 70
     1
102
RTVSPost2010Prop51ColorIndex
 90
      256
102
RTVSPost2010Prop51ColorRGB
 90
-16777216
102
RTVSPost2010PropOp51
 70
     0
102
RTVSPost2010Prop52
140
1.0
102
RTVSPost2010PropOp52
 70
     0
102
RTVSPost2010Prop53
 90
        2
102
RTVSPost2010PropOp53
 70
     1
102
RTVSPost2010Prop54
  1
strokes_ogs.tif
102
RTVSPost2010PropOp54
 70
     1
102
RTVSPost2010Prop55
280
     0
102
RTVSPost2010PropOp55
 70
     1
102
RTVSPost2010Prop56
140
1.0
102
RTVSPost2010PropOp56
 70
     1
102
RTVSPost2010Prop57
140
1.0
102
RTVSPost2010PropOp57
 70
     1
  0
XRECORD
  5
473
102
{ACAD_REACTORS
330
472
102
}
330
472
100
AcDbXrecord
280
     1
102
RTVSPropertyOp0
 70
     1
102
RTVSPropertyOp1
 70
     1
102
RTVSPropertyOp2
 70
     1
102
RTVSPropertyOp3
 70
     1
102
RTVSPropertyOp4
 70
     1
102
RTVSPropertyOp5
 70
     1
102
RTVSPropertyOp6
 70
     1
102
RTVSPropertyOp7
 70
     1
102
RTVSPropertyOp8
 70
     1
102
RTVSPropertyOp9
 70
     1
102
RTVSPropertyOp10
 70
     1
102
RTVSPropertyOp11
 70
     1
102
RTVSPropertyOp12
 70
     1
102
RTVSPropertyOp13
 70
     1
102
RTVSPropertyOp14
 70
     1
102
RTVSPropertyOp15
 70
     1
102
RTVSPropertyOp16
 70
     1
102
RTVSPropertyOp17
 70
     1
102
RTVSPropertyOp18
 70
     1
102
RTVSPropertyOp19
 70
     1
102
RTVSPropertyOp20
 70
     1
102
RTVSPropertyOp21
 70
     1
102
RTVSPropertyOp22
 70
     1
102
RTVSPropertyOp23
 70
     1
102
RTVSPropertyOp24
 70
     1
102
RTVSPropertyOp25
 70
     1
102
RTVSPropertyOp26
 70
     1
102
RTVSPropertyOp27
 70
     1
102
RTVSPropertyOp28
 70
     1
102
RTVSPropertyOp29
 70
     1
102
RTVSPropertyOp30
 70
     1
102
RTVSPropertyOp31
 70
     1
102
RTVSPropertyOp32
 70
     1
102
RTVSPropertyOp33
 70
     1
102
RTVSPropertyOp34
 70
     1
102
RTVSPropertyOp35
 70
     1
102
RTVSPropertyOp36
 70
     1
102
RTVSPropertyOp37
 70
     1
102
RTVSPropertyOp38
 70
     1
102
RTVSPropertyOp39
 70
     1
102
RTVSPropertyOp40
 70
     1
102
RTVSPropertyOp41
 70
     1
102
RTVSPropertyOp42
 70
     1
102
RTVSPropertyOp43
 70
     1
102
RTVSPropertyOp44
 70
     1
102
RTVSPropertyOp45
 70
     1
102
RTVSPropertyOp46
 70
     1
102
RTVSPropertyOp47
 70
     1
102
RTVSPropertyOp48
 70
     1
102
RTVSPropertyOp49
 70
     1
102
RTVSPropertyOp50
 70
     1
102
RTVSPropertyOp51
 70
     0
102
RTVSPropertyOp52
 70
     0
102
RTVSPropertyOp53
 70
     1
102
RTVSPropertyOp54
 70
     1
102
RTVSPropertyOp55
 70
     1
102
RTVSPropertyOp56
 70
     1
102
RTVSPropertyOp57
 70
     1
102
RTVSPost2010Prop28
280
     0
102
RTVSPost2010PropOp28
 70
     1
102
RTVSPost2010Prop29
280
     1
102
RTVSPost2010PropOp29
 70
     1
102
RTVSPost2010Prop30
280
     1
102
RTVSPost2010PropOp30
 70
     1
102
RTVSPost2010Prop31
280
     0
102
RTVSPost2010PropOp31
 70
     1
102
RTVSPost2010Prop32
280
     0
102
RTVSPost2010PropOp32
 70
     1
102
RTVSPost2010Prop33
280
     0
102
RTVSPost2010PropOp33
 70
     1
102
RTVSPost2010Prop34
280
     0
102
RTVSPost2010PropOp34
 70
     1
102
RTVSPost2010Prop35
280
     0
102
RTVSPost2010PropOp35
 70
     1
102
RTVSPost2010Prop36
280
     0
102
RTVSPost2010PropOp36
 70
     1
102
RTVSPost2010Prop37
 90
       50
102
RTVSPost2010PropOp37
 70
     1
102
RTVSPost2010Prop38
140
0.0
102
RTVSPost2010PropOp38
 70
     1
102
RTVSPost2010Prop39
140
1.0
102
RTVSPost2010PropOp39
 70
     1
102
RTVSPost2010Prop40
 90
        0
102
RTVSPost2010PropOp40
 70
     1
102
RTVSPost2010Prop41ColorIndex
 90
       18
102
RTVSPost2010Prop41ColorRGB
 90
        0
102
RTVSPost2010PropOp41
 70
     1
102
RTVSPost2010Prop42
 90
       50
102
RTVSPost2010PropOp42
 70
     1
102
RTVSPost2010Prop43
 90
        3
102
RTVSPost2010PropOp43
 70
     1
102
RTVSPost2010Prop44ColorIndex
 90
        5
102
RTVSPost2010Prop44ColorRGB
 90
      255
102
RTVSPost2010PropOp44
 70
     1
102
RTVSPost2010Prop45
280
     0
102
RTVSPost2010PropOp45
 70
     1
102
RTVSPost2010Prop46
 90
       50
102
RTVSPost2010PropOp46
 70
     1
102
RTVSPost2010Prop47
 90
       50
102
RTVSPost2010PropOp47
 70
     1
102
RTVSPost2010Prop48
 90
       50
102
RTVSPost2010PropOp48
 70
     1
102
RTVSPost2010Prop49
280
     0
102
RTVSPost2010PropOp49
 70
     1
102
RTVSPost2010Prop50
 90
       50
102
RTVSPost2010PropOp50
 70
     1
102
RTVSPost2010Prop51ColorIndex
 90
      256
102
RTVSPost2010Prop51ColorRGB
 90
-16777216
102
RTVSPost2010PropOp51
 70
     0
102
RTVSPost2010Prop52
140
1.0
102
RTVSPost2010PropOp52
 70
     0
102
RTVSPost2010Prop53
 90
        2
102
RTVSPost2010PropOp53
 70
     1
102
RTVSPost2010Prop54
  1
strokes_ogs.tif
102
RTVSPost2010PropOp54
 70
     1
102
RTVSPost2010Prop55
280
     0
102
RTVSPost2010PropOp55
 70
     1
102
RTVSPost2010Prop56
140
1.0
102
RTVSPost2010PropOp56
 70
     1
102
RTVSPost2010Prop57
140
1.0
102
RTVSPost2010PropOp57
 70
     1
  0
XRECORD
  5
475
102
{ACAD_REACTORS
330
474
102
}
330
474
100
AcDbXrecord
280
     1
102
RTVSPropertyOp0
 70
     1
102
RTVSPropertyOp1
 70
     1
102
RTVSPropertyOp2
 70
     1
102
RTVSPropertyOp3
 70
     1
102
RTVSPropertyOp4
 70
     1
102
RTVSPropertyOp5
 70
     1
102
RTVSPropertyOp6
 70
     1
102
RTVSPropertyOp7
 70
     1
102
RTVSPropertyOp8
 70
     1
102
RTVSPropertyOp9
 70
     1
102
RTVSPropertyOp10
 70
     1
102
RTVSPropertyOp11
 70
     1
102
RTVSPropertyOp12
 70
     1
102
RTVSPropertyOp13
 70
     1
102
RTVSPropertyOp14
 70
     1
102
RTVSPropertyOp15
 70
     1
102
RTVSPropertyOp16
 70
     1
102
RTVSPropertyOp17
 70
     1
102
RTVSPropertyOp18
 70
     1
102
RTVSPropertyOp19
 70
     1
102
RTVSPropertyOp20
 70
     1
102
RTVSPropertyOp21
 70
     1
102
RTVSPropertyOp22
 70
     1
102
RTVSPropertyOp23
 70
     1
102
RTVSPropertyOp24
 70
     1
102
RTVSPropertyOp25
 70
     1
102
RTVSPropertyOp26
 70
     1
102
RTVSPropertyOp27
 70
     1
102
RTVSPropertyOp28
 70
     1
102
RTVSPropertyOp29
 70
     1
102
RTVSPropertyOp30
 70
     1
102
RTVSPropertyOp31
 70
     1
102
RTVSPropertyOp32
 70
     1
102
RTVSPropertyOp33
 70
     1
102
RTVSPropertyOp34
 70
     1
102
RTVSPropertyOp35
 70
     1
102
RTVSPropertyOp36
 70
     1
102
RTVSPropertyOp37
 70
     1
102
RTVSPropertyOp38
 70
     1
102
RTVSPropertyOp39
 70
     1
102
RTVSPropertyOp40
 70
     1
102
RTVSPropertyOp41
 70
     1
102
RTVSPropertyOp42
 70
     1
102
RTVSPropertyOp43
 70
     1
102
RTVSPropertyOp44
 70
     1
102
RTVSPropertyOp45
 70
     1
102
RTVSPropertyOp46
 70
     1
102
RTVSPropertyOp47
 70
     1
102
RTVSPropertyOp48
 70
     1
102
RTVSPropertyOp49
 70
     1
102
RTVSPropertyOp50
 70
     1
102
RTVSPropertyOp51
 70
     0
102
RTVSPropertyOp52
 70
     0
102
RTVSPropertyOp53
 70
     1
102
RTVSPropertyOp54
 70
     1
102
RTVSPropertyOp55
 70
     1
102
RTVSPropertyOp56
 70
     1
102
RTVSPropertyOp57
 70
     1
102
RTVSPost2010Prop28
280
     0
102
RTVSPost2010PropOp28
 70
     1
102
RTVSPost2010Prop29
280
     1
102
RTVSPost2010PropOp29
 70
     1
102
RTVSPost2010Prop30
280
     1
102
RTVSPost2010PropOp30
 70
     1
102
RTVSPost2010Prop31
280
     0
102
RTVSPost2010PropOp31
 70
     1
102
RTVSPost2010Prop32
280
     0
102
RTVSPost2010PropOp32
 70
     1
102
RTVSPost2010Prop33
280
     0
102
RTVSPost2010PropOp33
 70
     1
102
RTVSPost2010Prop34
280
     0
102
RTVSPost2010PropOp34
 70
     1
102
RTVSPost2010Prop35
280
     0
102
RTVSPost2010PropOp35
 70
     1
102
RTVSPost2010Prop36
280
     0
102
RTVSPost2010PropOp36
 70
     1
102
RTVSPost2010Prop37
 90
       50
102
RTVSPost2010PropOp37
 70
     1
102
RTVSPost2010Prop38
140
0.0
102
RTVSPost2010PropOp38
 70
     1
102
RTVSPost2010Prop39
140
1.0
102
RTVSPost2010PropOp39
 70
     1
102
RTVSPost2010Prop40
 90
        0
102
RTVSPost2010PropOp40
 70
     1
102
RTVSPost2010Prop41ColorIndex
 90
       18
102
RTVSPost2010Prop41ColorRGB
 90
        0
102
RTVSPost2010PropOp41
 70
     1
102
RTVSPost2010Prop42
 90
       50
102
RTVSPost2010PropOp42
 70
     1
102
RTVSPost2010Prop43
 90
        3
102
RTVSPost2010PropOp43
 70
     1
102
RTVSPost2010Prop44ColorIndex
 90
        5
102
RTVSPost2010Prop44ColorRGB
 90
      255
102
RTVSPost2010PropOp44
 70
     1
102
RTVSPost2010Prop45
280
     0
102
RTVSPost2010PropOp45
 70
     1
102
RTVSPost2010Prop46
 90
       50
102
RTVSPost2010PropOp46
 70
     1
102
RTVSPost2010Prop47
 90
       50
102
RTVSPost2010PropOp47
 70
     1
102
RTVSPost2010Prop48
 90
       50
102
RTVSPost2010PropOp48
 70
     1
102
RTVSPost2010Prop49
280
     0
102
RTVSPost2010PropOp49
 70
     1
102
RTVSPost2010Prop50
 90
       50
102
RTVSPost2010PropOp50
 70
     1
102
RTVSPost2010Prop51ColorIndex
 90
      256
102
RTVSPost2010Prop51ColorRGB
 90
-16777216
102
RTVSPost2010PropOp51
 70
     0
102
RTVSPost2010Prop52
140
1.0
102
RTVSPost2010PropOp52
 70
     0
102
RTVSPost2010Prop53
 90
        2
102
RTVSPost2010PropOp53
 70
     1
102
RTVSPost2010Prop54
  1
strokes_ogs.tif
102
RTVSPost2010PropOp54
 70
     1
102
RTVSPost2010Prop55
280
     0
102
RTVSPost2010PropOp55
 70
     1
102
RTVSPost2010Prop56
140
1.0
102
RTVSPost2010PropOp56
 70
     1
102
RTVSPost2010Prop57
140
1.0
102
RTVSPost2010PropOp57
 70
     1
  0
XRECORD
  5
477
102
{ACAD_REACTORS
330
476
102
}
330
476
100
AcDbXrecord
280
     1
102
RTVSPropertyOp0
 70
     1
102
RTVSPropertyOp1
 70
     1
102
RTVSPropertyOp2
 70
     1
102
RTVSPropertyOp3
 70
     1
102
RTVSPropertyOp4
 70
     1
102
RTVSPropertyOp5
 70
     1
102
RTVSPropertyOp6
 70
     1
102
RTVSPropertyOp7
 70
     1
102
RTVSPropertyOp8
 70
     1
102
RTVSPropertyOp9
 70
     1
102
RTVSPropertyOp10
 70
     1
102
RTVSPropertyOp11
 70
     1
102
RTVSPropertyOp12
 70
     1
102
RTVSPropertyOp13
 70
     1
102
RTVSPropertyOp14
 70
     1
102
RTVSPropertyOp15
 70
     1
102
RTVSPropertyOp16
 70
     1
102
RTVSPropertyOp17
 70
     1
102
RTVSPropertyOp18
 70
     1
102
RTVSPropertyOp19
 70
     1
102
RTVSPropertyOp20
 70
     1
102
RTVSPropertyOp21
 70
     1
102
RTVSPropertyOp22
 70
     1
102
RTVSPropertyOp23
 70
     1
102
RTVSPropertyOp24
 70
     1
102
RTVSPropertyOp25
 70
     1
102
RTVSPropertyOp26
 70
     1
102
RTVSPropertyOp27
 70
     1
102
RTVSPropertyOp28
 70
     1
102
RTVSPropertyOp29
 70
     1
102
RTVSPropertyOp30
 70
     1
102
RTVSPropertyOp31
 70
     1
102
RTVSPropertyOp32
 70
     1
102
RTVSPropertyOp33
 70
     1
102
RTVSPropertyOp34
 70
     1
102
RTVSPropertyOp35
 70
     1
102
RTVSPropertyOp36
 70
     1
102
RTVSPropertyOp37
 70
     1
102
RTVSPropertyOp38
 70
     1
102
RTVSPropertyOp39
 70
     1
102
RTVSPropertyOp40
 70
     1
102
RTVSPropertyOp41
 70
     1
102
RTVSPropertyOp42
 70
     1
102
RTVSPropertyOp43
 70
     1
102
RTVSPropertyOp44
 70
     1
102
RTVSPropertyOp45
 70
     1
102
RTVSPropertyOp46
 70
     1
102
RTVSPropertyOp47
 70
     1
102
RTVSPropertyOp48
 70
     1
102
RTVSPropertyOp49
 70
     1
102
RTVSPropertyOp50
 70
     1
102
RTVSPropertyOp51
 70
     0
102
RTVSPropertyOp52
 70
     0
102
RTVSPropertyOp53
 70
     1
102
RTVSPropertyOp54
 70
     1
102
RTVSPropertyOp55
 70
     1
102
RTVSPropertyOp56
 70
     1
102
RTVSPropertyOp57
 70
     1
102
RTVSPost2010Prop28
280
     0
102
RTVSPost2010PropOp28
 70
     1
102
RTVSPost2010Prop29
280
     1
102
RTVSPost2010PropOp29
 70
     1
102
RTVSPost2010Prop30
280
     1
102
RTVSPost2010PropOp30
 70
     1
102
RTVSPost2010Prop31
280
     0
102
RTVSPost2010PropOp31
 70
     1
102
RTVSPost2010Prop32
280
     0
102
RTVSPost2010PropOp32
 70
     1
102
RTVSPost2010Prop33
280
     0
102
RTVSPost2010PropOp33
 70
     1
102
RTVSPost2010Prop34
280
     0
102
RTVSPost2010PropOp34
 70
     1
102
RTVSPost2010Prop35
280
     0
102
RTVSPost2010PropOp35
 70
     1
102
RTVSPost2010Prop36
280
     0
102
RTVSPost2010PropOp36
 70
     1
102
RTVSPost2010Prop37
 90
       50
102
RTVSPost2010PropOp37
 70
     1
102
RTVSPost2010Prop38
140
0.0
102
RTVSPost2010PropOp38
 70
     1
102
RTVSPost2010Prop39
140
1.0
102
RTVSPost2010PropOp39
 70
     1
102
RTVSPost2010Prop40
 90
        0
102
RTVSPost2010PropOp40
 70
     1
102
RTVSPost2010Prop41ColorIndex
 90
       18
102
RTVSPost2010Prop41ColorRGB
 90
        0
102
RTVSPost2010PropOp41
 70
     1
102
RTVSPost2010Prop42
 90
       50
102
RTVSPost2010PropOp42
 70
     1
102
RTVSPost2010Prop43
 90
        3
102
RTVSPost2010PropOp43
 70
     1
102
RTVSPost2010Prop44ColorIndex
 90
        5
102
RTVSPost2010Prop44ColorRGB
 90
      255
102
RTVSPost2010PropOp44
 70
     1
102
RTVSPost2010Prop45
280
     0
102
RTVSPost2010PropOp45
 70
     1
102
RTVSPost2010Prop46
 90
       50
102
RTVSPost2010PropOp46
 70
     1
102
RTVSPost2010Prop47
 90
       50
102
RTVSPost2010PropOp47
 70
     1
102
RTVSPost2010Prop48
 90
       50
102
RTVSPost2010PropOp48
 70
     1
102
RTVSPost2010Prop49
280
     0
102
RTVSPost2010PropOp49
 70
     1
102
RTVSPost2010Prop50
 90
       50
102
RTVSPost2010PropOp50
 70
     1
102
RTVSPost2010Prop51ColorIndex
 90
      256
102
RTVSPost2010Prop51ColorRGB
 90
-16777216
102
RTVSPost2010PropOp51
 70
     0
102
RTVSPost2010Prop52
140
1.0
102
RTVSPost2010PropOp52
 70
     0
102
RTVSPost2010Prop53
 90
        2
102
RTVSPost2010PropOp53
 70
     1
102
RTVSPost2010Prop54
  1
strokes_ogs.tif
102
RTVSPost2010PropOp54
 70
     1
102
RTVSPost2010Prop55
280
     0
102
RTVSPost2010PropOp55
 70
     1
102
RTVSPost2010Prop56
140
1.0
102
RTVSPost2010PropOp56
 70
     1
102
RTVSPost2010Prop57
140
1.0
102
RTVSPost2010PropOp57
 70
     1
  0
XRECORD
  5
479
102
{ACAD_REACTORS
330
478
102
}
330
478
100
AcDbXrecord
280
     1
102
RTVSPropertyOp0
 70
     1
102
RTVSPropertyOp1
 70
     1
102
RTVSPropertyOp2
 70
     1
102
RTVSPropertyOp3
 70
     1
102
RTVSPropertyOp4
 70
     1
102
RTVSPropertyOp5
 70
     1
102
RTVSPropertyOp6
 70
     1
102
RTVSPropertyOp7
 70
     1
102
RTVSPropertyOp8
 70
     1
102
RTVSPropertyOp9
 70
     1
102
RTVSPropertyOp10
 70
     1
102
RTVSPropertyOp11
 70
     1
102
RTVSPropertyOp12
 70
     1
102
RTVSPropertyOp13
 70
     1
102
RTVSPropertyOp14
 70
     1
102
RTVSPropertyOp15
 70
     1
102
RTVSPropertyOp16
 70
     1
102
RTVSPropertyOp17
 70
     1
102
RTVSPropertyOp18
 70
     1
102
RTVSPropertyOp19
 70
     1
102
RTVSPropertyOp20
 70
     1
102
RTVSPropertyOp21
 70
     1
102
RTVSPropertyOp22
 70
     1
102
RTVSPropertyOp23
 70
     1
102
RTVSPropertyOp24
 70
     1
102
RTVSPropertyOp25
 70
     1
102
RTVSPropertyOp26
 70
     1
102
RTVSPropertyOp27
 70
     1
102
RTVSPropertyOp28
 70
     1
102
RTVSPropertyOp29
 70
     1
102
RTVSPropertyOp30
 70
     1
102
RTVSPropertyOp31
 70
     1
102
RTVSPropertyOp32
 70
     1
102
RTVSPropertyOp33
 70
     1
102
RTVSPropertyOp34
 70
     1
102
RTVSPropertyOp35
 70
     1
102
RTVSPropertyOp36
 70
     1
102
RTVSPropertyOp37
 70
     1
102
RTVSPropertyOp38
 70
     1
102
RTVSPropertyOp39
 70
     1
102
RTVSPropertyOp40
 70
     1
102
RTVSPropertyOp41
 70
     1
102
RTVSPropertyOp42
 70
     1
102
RTVSPropertyOp43
 70
     1
102
RTVSPropertyOp44
 70
     1
102
RTVSPropertyOp45
 70
     1
102
RTVSPropertyOp46
 70
     1
102
RTVSPropertyOp47
 70
     1
102
RTVSPropertyOp48
 70
     1
102
RTVSPropertyOp49
 70
     1
102
RTVSPropertyOp50
 70
     1
102
RTVSPropertyOp51
 70
     0
102
RTVSPropertyOp52
 70
     0
102
RTVSPropertyOp53
 70
     1
102
RTVSPropertyOp54
 70
     1
102
RTVSPropertyOp55
 70
     1
102
RTVSPropertyOp56
 70
     1
102
RTVSPropertyOp57
 70
     1
102
RTVSPost2010Prop28
280
     0
102
RTVSPost2010PropOp28
 70
     1
102
RTVSPost2010Prop29
280
     1
102
RTVSPost2010PropOp29
 70
     1
102
RTVSPost2010Prop30
280
     1
102
RTVSPost2010PropOp30
 70
     1
102
RTVSPost2010Prop31
280
     0
102
RTVSPost2010PropOp31
 70
     1
102
RTVSPost2010Prop32
280
     0
102
RTVSPost2010PropOp32
 70
     1
102
RTVSPost2010Prop33
280
     0
102
RTVSPost2010PropOp33
 70
     1
102
RTVSPost2010Prop34
280
     0
102
RTVSPost2010PropOp34
 70
     1
102
RTVSPost2010Prop35
280
     0
102
RTVSPost2010PropOp35
 70
     1
102
RTVSPost2010Prop36
280
     0
102
RTVSPost2010PropOp36
 70
     1
102
RTVSPost2010Prop37
 90
       50
102
RTVSPost2010PropOp37
 70
     1
102
RTVSPost2010Prop38
140
0.0
102
RTVSPost2010PropOp38
 70
     1
102
RTVSPost2010Prop39
140
1.0
102
RTVSPost2010PropOp39
 70
     1
102
RTVSPost2010Prop40
 90
        0
102
RTVSPost2010PropOp40
 70
     1
102
RTVSPost2010Prop41ColorIndex
 90
       18
102
RTVSPost2010Prop41ColorRGB
 90
        0
102
RTVSPost2010PropOp41
 70
     1
102
RTVSPost2010Prop42
 90
       50
102
RTVSPost2010PropOp42
 70
     1
102
RTVSPost2010Prop43
 90
        3
102
RTVSPost2010PropOp43
 70
     1
102
RTVSPost2010Prop44ColorIndex
 90
        5
102
RTVSPost2010Prop44ColorRGB
 90
      255
102
RTVSPost2010PropOp44
 70
     1
102
RTVSPost2010Prop45
280
     0
102
RTVSPost2010PropOp45
 70
     1
102
RTVSPost2010Prop46
 90
       50
102
RTVSPost2010PropOp46
 70
     1
102
RTVSPost2010Prop47
 90
       50
102
RTVSPost2010PropOp47
 70
     1
102
RTVSPost2010Prop48
 90
       50
102
RTVSPost2010PropOp48
 70
     1
102
RTVSPost2010Prop49
280
     0
102
RTVSPost2010PropOp49
 70
     1
102
RTVSPost2010Prop50
 90
       50
102
RTVSPost2010PropOp50
 70
     1
102
RTVSPost2010Prop51ColorIndex
 90
      256
102
RTVSPost2010Prop51ColorRGB
 90
-16777216
102
RTVSPost2010PropOp51
 70
     0
102
RTVSPost2010Prop52
140
1.0
102
RTVSPost2010PropOp52
 70
     0
102
RTVSPost2010Prop53
 90
        2
102
RTVSPost2010PropOp53
 70
     1
102
RTVSPost2010Prop54
  1
strokes_ogs.tif
102
RTVSPost2010PropOp54
 70
     1
102
RTVSPost2010Prop55
280
     0
102
RTVSPost2010PropOp55
 70
     1
102
RTVSPost2010Prop56
140
1.0
102
RTVSPost2010PropOp56
 70
     1
102
RTVSPost2010Prop57
140
1.0
102
RTVSPost2010PropOp57
 70
     1
  0
XRECORD
  5
47F
102
{ACAD_REACTORS
330
47E
102
}
330
47E
100
AcDbXrecord
280
     1
102
RTVSPropertyOp0
 70
     1
102
RTVSPropertyOp1
 70
     1
102
RTVSPropertyOp2
 70
     1
102
RTVSPropertyOp3
 70
     1
102
RTVSPropertyOp4
 70
     1
102
RTVSPropertyOp5
 70
     1
102
RTVSPropertyOp6
 70
     1
102
RTVSPropertyOp7
 70
     1
102
RTVSPropertyOp8
 70
     1
102
RTVSPropertyOp9
 70
     1
102
RTVSPropertyOp10
 70
     1
102
RTVSPropertyOp11
 70
     1
102
RTVSPropertyOp12
 70
     1
102
RTVSPropertyOp13
 70
     1
102
RTVSPropertyOp14
 70
     1
102
RTVSPropertyOp15
 70
     1
102
RTVSPropertyOp16
 70
     1
102
RTVSPropertyOp17
 70
     1
102
RTVSPropertyOp18
 70
     1
102
RTVSPropertyOp19
 70
     1
102
RTVSPropertyOp20
 70
     1
102
RTVSPropertyOp21
 70
     1
102
RTVSPropertyOp22
 70
     1
102
RTVSPropertyOp23
 70
     1
102
RTVSPropertyOp24
 70
     1
102
RTVSPropertyOp25
 70
     1
102
RTVSPropertyOp26
 70
     1
102
RTVSPropertyOp27
 70
     1
102
RTVSPropertyOp28
 70
     1
102
RTVSPropertyOp29
 70
     1
102
RTVSPropertyOp30
 70
     1
102
RTVSPropertyOp31
 70
     1
102
RTVSPropertyOp32
 70
     1
102
RTVSPropertyOp33
 70
     1
102
RTVSPropertyOp34
 70
     1
102
RTVSPropertyOp35
 70
     1
102
RTVSPropertyOp36
 70
     1
102
RTVSPropertyOp37
 70
     1
102
RTVSPropertyOp38
 70
     1
102
RTVSPropertyOp39
 70
     1
102
RTVSPropertyOp40
 70
     1
102
RTVSPropertyOp41
 70
     1
102
RTVSPropertyOp42
 70
     1
102
RTVSPropertyOp43
 70
     1
102
RTVSPropertyOp44
 70
     1
102
RTVSPropertyOp45
 70
     1
102
RTVSPropertyOp46
 70
     1
102
RTVSPropertyOp47
 70
     1
102
RTVSPropertyOp48
 70
     1
102
RTVSPropertyOp49
 70
     1
102
RTVSPropertyOp50
 70
     1
102
RTVSPropertyOp51
 70
     0
102
RTVSPropertyOp52
 70
     0
102
RTVSPropertyOp53
 70
     1
102
RTVSPropertyOp54
 70
     1
102
RTVSPropertyOp55
 70
     1
102
RTVSPropertyOp56
 70
     1
102
RTVSPropertyOp57
 70
     1
102
RTVSPost2010Prop28
280
     0
102
RTVSPost2010PropOp28
 70
     1
102
RTVSPost2010Prop29
280
     1
102
RTVSPost2010PropOp29
 70
     1
102
RTVSPost2010Prop30
280
     1
102
RTVSPost2010PropOp30
 70
     1
102
RTVSPost2010Prop31
280
     0
102
RTVSPost2010PropOp31
 70
     1
102
RTVSPost2010Prop32
280
     0
102
RTVSPost2010PropOp32
 70
     1
102
RTVSPost2010Prop33
280
     0
102
RTVSPost2010PropOp33
 70
     1
102
RTVSPost2010Prop34
280
     0
102
RTVSPost2010PropOp34
 70
     1
102
RTVSPost2010Prop35
280
     0
102
RTVSPost2010PropOp35
 70
     1
102
RTVSPost2010Prop36
280
     0
102
RTVSPost2010PropOp36
 70
     1
102
RTVSPost2010Prop37
 90
       50
102
RTVSPost2010PropOp37
 70
     1
102
RTVSPost2010Prop38
140
0.0
102
RTVSPost2010PropOp38
 70
     1
102
RTVSPost2010Prop39
140
1.0
102
RTVSPost2010PropOp39
 70
     1
102
RTVSPost2010Prop40
 90
        0
102
RTVSPost2010PropOp40
 70
     1
102
RTVSPost2010Prop41ColorIndex
 90
       18
102
RTVSPost2010Prop41ColorRGB
 90
        0
102
RTVSPost2010PropOp41
 70
     1
102
RTVSPost2010Prop42
 90
       50
102
RTVSPost2010PropOp42
 70
     1
102
RTVSPost2010Prop43
 90
        3
102
RTVSPost2010PropOp43
 70
     1
102
RTVSPost2010Prop44ColorIndex
 90
        5
102
RTVSPost2010Prop44ColorRGB
 90
      255
102
RTVSPost2010PropOp44
 70
     1
102
RTVSPost2010Prop45
280
     0
102
RTVSPost2010PropOp45
 70
     1
102
RTVSPost2010Prop46
 90
       50
102
RTVSPost2010PropOp46
 70
     1
102
RTVSPost2010Prop47
 90
       50
102
RTVSPost2010PropOp47
 70
     1
102
RTVSPost2010Prop48
 90
       50
102
RTVSPost2010PropOp48
 70
     1
102
RTVSPost2010Prop49
280
     0
102
RTVSPost2010PropOp49
 70
     1
102
RTVSPost2010Prop50
 90
       50
102
RTVSPost2010PropOp50
 70
     1
102
RTVSPost2010Prop51ColorIndex
 90
      256
102
RTVSPost2010Prop51ColorRGB
 90
-16777216
102
RTVSPost2010PropOp51
 70
     0
102
RTVSPost2010Prop52
140
1.0
102
RTVSPost2010PropOp52
 70
     0
102
RTVSPost2010Prop53
 90
        2
102
RTVSPost2010PropOp53
 70
     1
102
RTVSPost2010Prop54
  1
strokes_ogs.tif
102
RTVSPost2010PropOp54
 70
     1
102
RTVSPost2010Prop55
280
     0
102
RTVSPost2010PropOp55
 70
     1
102
RTVSPost2010Prop56
140
1.0
102
RTVSPost2010PropOp56
 70
     1
102
RTVSPost2010Prop57
140
1.0
102
RTVSPost2010PropOp57
 70
     1
  0
XRECORD
  5
493
102
{ACAD_REACTORS
330
492
102
}
330
492
100
AcDbXrecord
280
     1
102
RTVSPropertyOp0
 70
     0
102
RTVSPropertyOp1
 70
     0
102
RTVSPropertyOp2
 70
     0
102
RTVSPropertyOp3
 70
     0
102
RTVSPropertyOp4
 70
     0
102
RTVSPropertyOp5
 70
     0
102
RTVSPropertyOp6
 70
     0
102
RTVSPropertyOp7
 70
     0
102
RTVSPropertyOp8
 70
     0
102
RTVSPropertyOp9
 70
     0
102
RTVSPropertyOp10
 70
     0
102
RTVSPropertyOp11
 70
     0
102
RTVSPropertyOp12
 70
     0
102
RTVSPropertyOp13
 70
     0
102
RTVSPropertyOp14
 70
     2
102
RTVSPropertyOp15
 70
     0
102
RTVSPropertyOp16
 70
     0
102
RTVSPropertyOp17
 70
     0
102
RTVSPropertyOp18
 70
     0
102
RTVSPropertyOp19
 70
     0
102
RTVSPropertyOp20
 70
     0
102
RTVSPropertyOp21
 70
     0
102
RTVSPropertyOp22
 70
     0
102
RTVSPropertyOp23
 70
     0
102
RTVSPropertyOp24
 70
     0
102
RTVSPropertyOp25
 70
     0
102
RTVSPropertyOp26
 70
     0
102
RTVSPropertyOp27
 70
     0
102
RTVSPropertyOp28
 70
     0
102
RTVSPropertyOp29
 70
     0
102
RTVSPropertyOp30
 70
     0
102
RTVSPropertyOp31
 70
     0
102
RTVSPropertyOp32
 70
     0
102
RTVSPropertyOp33
 70
     0
102
RTVSPropertyOp34
 70
     0
102
RTVSPropertyOp35
 70
     0
102
RTVSPropertyOp36
 70
     0
102
RTVSPropertyOp37
 70
     0
102
RTVSPropertyOp38
 70
     0
102
RTVSPropertyOp39
 70
     0
102
RTVSPropertyOp40
 70
     0
102
RTVSPropertyOp41
 70
     0
102
RTVSPropertyOp42
 70
     0
102
RTVSPropertyOp43
 70
     0
102
RTVSPropertyOp44
 70
     0
102
RTVSPropertyOp45
 70
     0
102
RTVSPropertyOp46
 70
     0
102
RTVSPropertyOp47
 70
     0
102
RTVSPropertyOp48
 70
     0
102
RTVSPropertyOp49
 70
     0
102
RTVSPropertyOp50
 70
     0
102
RTVSPropertyOp51
 70
     0
102
RTVSPropertyOp52
 70
     0
102
RTVSPropertyOp53
 70
     0
102
RTVSPropertyOp54
 70
     0
102
RTVSPropertyOp55
 70
     0
102
RTVSPropertyOp56
 70
     0
102
RTVSPropertyOp57
 70
     0
102
RTVSPost2010Prop28
280
     0
102
RTVSPost2010PropOp28
 70
     0
102
RTVSPost2010Prop29
280
     1
102
RTVSPost2010PropOp29
 70
     0
102
RTVSPost2010Prop30
280
     1
102
RTVSPost2010PropOp30
 70
     0
102
RTVSPost2010Prop31
280
     0
102
RTVSPost2010PropOp31
 70
     0
102
RTVSPost2010Prop32
280
     0
102
RTVSPost2010PropOp32
 70
     0
102
RTVSPost2010Prop33
280
     0
102
RTVSPost2010PropOp33
 70
     0
102
RTVSPost2010Prop34
280
     0
102
RTVSPost2010PropOp34
 70
     0
102
RTVSPost2010Prop35
280
     0
102
RTVSPost2010PropOp35
 70
     0
102
RTVSPost2010Prop36
280
     0
102
RTVSPost2010PropOp36
 70
     0
102
RTVSPost2010Prop37
 90
       50
102
RTVSPost2010PropOp37
 70
     0
102
RTVSPost2010Prop38
140
0.0
102
RTVSPost2010PropOp38
 70
     0
102
RTVSPost2010Prop39
140
1.0
102
RTVSPost2010PropOp39
 70
     0
102
RTVSPost2010Prop40
 90
        0
102
RTVSPost2010PropOp40
 70
     0
102
RTVSPost2010Prop41ColorIndex
 90
       18
102
RTVSPost2010Prop41ColorRGB
 90
        0
102
RTVSPost2010PropOp41
 70
     0
102
RTVSPost2010Prop42
 90
       50
102
RTVSPost2010PropOp42
 70
     0
102
RTVSPost2010Prop43
 90
        3
102
RTVSPost2010PropOp43
 70
     0
102
RTVSPost2010Prop44ColorIndex
 90
        5
102
RTVSPost2010Prop44ColorRGB
 90
      255
102
RTVSPost2010PropOp44
 70
     0
102
RTVSPost2010Prop45
280
     0
102
RTVSPost2010PropOp45
 70
     0
102
RTVSPost2010Prop46
 90
       50
102
RTVSPost2010PropOp46
 70
     0
102
RTVSPost2010Prop47
 90
       50
102
RTVSPost2010PropOp47
 70
     0
102
RTVSPost2010Prop48
 90
       50
102
RTVSPost2010PropOp48
 70
     0
102
RTVSPost2010Prop49
280
     0
102
RTVSPost2010PropOp49
 70
     0
102
RTVSPost2010Prop50
 90
       50
102
RTVSPost2010PropOp50
 70
     0
102
RTVSPost2010Prop51ColorIndex
 90
      256
102
RTVSPost2010Prop51ColorRGB
 90
-16777216
102
RTVSPost2010PropOp51
 70
     0
102
RTVSPost2010Prop52
140
1.0
102
RTVSPost2010PropOp52
 70
     0
102
RTVSPost2010Prop53
 90
        2
102
RTVSPost2010PropOp53
 70
     0
102
RTVSPost2010Prop54
  1
strokes_ogs.tif
102
RTVSPost2010PropOp54
 70
     0
102
RTVSPost2010Prop55
280
     0
102
RTVSPost2010PropOp55
 70
     0
102
RTVSPost2010Prop56
140
1.0
102
RTVSPost2010PropOp56
 70
     0
102
RTVSPost2010Prop57
140
1.0
102
RTVSPost2010PropOp57
 70
     0
  0
XRECORD
  5
48D
102
{ACAD_REACTORS
330
48C
102
}
330
48C
100
AcDbXrecord
280
     1
102
RTVSPropertyOp0
 70
     1
102
RTVSPropertyOp1
 70
     1
102
RTVSPropertyOp2
 70
     1
102
RTVSPropertyOp3
 70
     1
102
RTVSPropertyOp4
 70
     1
102
RTVSPropertyOp5
 70
     1
102
RTVSPropertyOp6
 70
     1
102
RTVSPropertyOp7
 70
     1
102
RTVSPropertyOp8
 70
     1
102
RTVSPropertyOp9
 70
     1
102
RTVSPropertyOp10
 70
     1
102
RTVSPropertyOp11
 70
     1
102
RTVSPropertyOp12
 70
     1
102
RTVSPropertyOp13
 70
     1
102
RTVSPropertyOp14
 70
     1
102
RTVSPropertyOp15
 70
     1
102
RTVSPropertyOp16
 70
     1
102
RTVSPropertyOp17
 70
     1
102
RTVSPropertyOp18
 70
     1
102
RTVSPropertyOp19
 70
     1
102
RTVSPropertyOp20
 70
     1
102
RTVSPropertyOp21
 70
     1
102
RTVSPropertyOp22
 70
     1
102
RTVSPropertyOp23
 70
     1
102
RTVSPropertyOp24
 70
     1
102
RTVSPropertyOp25
 70
     1
102
RTVSPropertyOp26
 70
     1
102
RTVSPropertyOp27
 70
     1
102
RTVSPropertyOp28
 70
     1
102
RTVSPropertyOp29
 70
     1
102
RTVSPropertyOp30
 70
     1
102
RTVSPropertyOp31
 70
     1
102
RTVSPropertyOp32
 70
     1
102
RTVSPropertyOp33
 70
     1
102
RTVSPropertyOp34
 70
     1
102
RTVSPropertyOp35
 70
     1
102
RTVSPropertyOp36
 70
     1
102
RTVSPropertyOp37
 70
     1
102
RTVSPropertyOp38
 70
     1
102
RTVSPropertyOp39
 70
     1
102
RTVSPropertyOp40
 70
     1
102
RTVSPropertyOp41
 70
     1
102
RTVSPropertyOp42
 70
     1
102
RTVSPropertyOp43
 70
     1
102
RTVSPropertyOp44
 70
     1
102
RTVSPropertyOp45
 70
     1
102
RTVSPropertyOp46
 70
     1
102
RTVSPropertyOp47
 70
     1
102
RTVSPropertyOp48
 70
     1
102
RTVSPropertyOp49
 70
     1
102
RTVSPropertyOp50
 70
     1
102
RTVSPropertyOp51
 70
     0
102
RTVSPropertyOp52
 70
     0
102
RTVSPropertyOp53
 70
     1
102
RTVSPropertyOp54
 70
     1
102
RTVSPropertyOp55
 70
     1
102
RTVSPropertyOp56
 70
     1
102
RTVSPropertyOp57
 70
     1
102
RTVSPost2010Prop28
280
     0
102
RTVSPost2010PropOp28
 70
     1
102
RTVSPost2010Prop29
280
     1
102
RTVSPost2010PropOp29
 70
     1
102
RTVSPost2010Prop30
280
     1
102
RTVSPost2010PropOp30
 70
     1
102
RTVSPost2010Prop31
280
     0
102
RTVSPost2010PropOp31
 70
     1
102
RTVSPost2010Prop32
280
     0
102
RTVSPost2010PropOp32
 70
     1
102
RTVSPost2010Prop33
280
     0
102
RTVSPost2010PropOp33
 70
     1
102
RTVSPost2010Prop34
280
     0
102
RTVSPost2010PropOp34
 70
     1
102
RTVSPost2010Prop35
280
     0
102
RTVSPost2010PropOp35
 70
     1
102
RTVSPost2010Prop36
280
     0
102
RTVSPost2010PropOp36
 70
     1
102
RTVSPost2010Prop37
 90
       50
102
RTVSPost2010PropOp37
 70
     1
102
RTVSPost2010Prop38
140
0.0
102
RTVSPost2010PropOp38
 70
     1
102
RTVSPost2010Prop39
140
1.0
102
RTVSPost2010PropOp39
 70
     1
102
RTVSPost2010Prop40
 90
        0
102
RTVSPost2010PropOp40
 70
     1
102
RTVSPost2010Prop41ColorIndex
 90
       18
102
RTVSPost2010Prop41ColorRGB
 90
        0
102
RTVSPost2010PropOp41
 70
     1
102
RTVSPost2010Prop42
 90
       50
102
RTVSPost2010PropOp42
 70
     1
102
RTVSPost2010Prop43
 90
        3
102
RTVSPost2010PropOp43
 70
     1
102
RTVSPost2010Prop44ColorIndex
 90
        5
102
RTVSPost2010Prop44ColorRGB
 90
      255
102
RTVSPost2010PropOp44
 70
     1
102
RTVSPost2010Prop45
280
     0
102
RTVSPost2010PropOp45
 70
     1
102
RTVSPost2010Prop46
 90
       50
102
RTVSPost2010PropOp46
 70
     1
102
RTVSPost2010Prop47
 90
       50
102
RTVSPost2010PropOp47
 70
     1
102
RTVSPost2010Prop48
 90
       50
102
RTVSPost2010PropOp48
 70
     1
102
RTVSPost2010Prop49
280
     0
102
RTVSPost2010PropOp49
 70
     1
102
RTVSPost2010Prop50
 90
       50
102
RTVSPost2010PropOp50
 70
     1
102
RTVSPost2010Prop51ColorIndex
 90
      256
102
RTVSPost2010Prop51ColorRGB
 90
-16777216
102
RTVSPost2010PropOp51
 70
     0
102
RTVSPost2010Prop52
140
1.0
102
RTVSPost2010PropOp52
 70
     0
102
RTVSPost2010Prop53
 90
        2
102
RTVSPost2010PropOp53
 70
     1
102
RTVSPost2010Prop54
  1
strokes_ogs.tif
102
RTVSPost2010PropOp54
 70
     1
102
RTVSPost2010Prop55
280
     0
102
RTVSPost2010PropOp55
 70
     1
102
RTVSPost2010Prop56
140
1.0
102
RTVSPost2010PropOp56
 70
     1
102
RTVSPost2010Prop57
140
1.0
102
RTVSPost2010PropOp57
 70
     1
  0
XRECORD
  5
495
102
{ACAD_REACTORS
330
494
102
}
330
494
100
AcDbXrecord
280
     1
102
RTVSPropertyOp0
 70
     0
102
RTVSPropertyOp1
 70
     0
102
RTVSPropertyOp2
 70
     0
102
RTVSPropertyOp3
 70
     0
102
RTVSPropertyOp4
 70
     0
102
RTVSPropertyOp5
 70
     0
102
RTVSPropertyOp6
 70
     0
102
RTVSPropertyOp7
 70
     0
102
RTVSPropertyOp8
 70
     0
102
RTVSPropertyOp9
 70
     0
102
RTVSPropertyOp10
 70
     0
102
RTVSPropertyOp11
 70
     0
102
RTVSPropertyOp12
 70
     0
102
RTVSPropertyOp13
 70
     0
102
RTVSPropertyOp14
 70
     2
102
RTVSPropertyOp15
 70
     0
102
RTVSPropertyOp16
 70
     0
102
RTVSPropertyOp17
 70
     0
102
RTVSPropertyOp18
 70
     0
102
RTVSPropertyOp19
 70
     0
102
RTVSPropertyOp20
 70
     0
102
RTVSPropertyOp21
 70
     0
102
RTVSPropertyOp22
 70
     0
102
RTVSPropertyOp23
 70
     0
102
RTVSPropertyOp24
 70
     0
102
RTVSPropertyOp25
 70
     0
102
RTVSPropertyOp26
 70
     0
102
RTVSPropertyOp27
 70
     0
102
RTVSPropertyOp28
 70
     0
102
RTVSPropertyOp29
 70
     0
102
RTVSPropertyOp30
 70
     0
102
RTVSPropertyOp31
 70
     0
102
RTVSPropertyOp32
 70
     0
102
RTVSPropertyOp33
 70
     0
102
RTVSPropertyOp34
 70
     0
102
RTVSPropertyOp35
 70
     0
102
RTVSPropertyOp36
 70
     0
102
RTVSPropertyOp37
 70
     0
102
RTVSPropertyOp38
 70
     0
102
RTVSPropertyOp39
 70
     0
102
RTVSPropertyOp40
 70
     0
102
RTVSPropertyOp41
 70
     0
102
RTVSPropertyOp42
 70
     0
102
RTVSPropertyOp43
 70
     0
102
RTVSPropertyOp44
 70
     0
102
RTVSPropertyOp45
 70
     0
102
RTVSPropertyOp46
 70
     0
102
RTVSPropertyOp47
 70
     0
102
RTVSPropertyOp48
 70
     0
102
RTVSPropertyOp49
 70
     0
102
RTVSPropertyOp50
 70
     0
102
RTVSPropertyOp51
 70
     0
102
RTVSPropertyOp52
 70
     0
102
RTVSPropertyOp53
 70
     0
102
RTVSPropertyOp54
 70
     0
102
RTVSPropertyOp55
 70
     0
102
RTVSPropertyOp56
 70
     0
102
RTVSPropertyOp57
 70
     0
102
RTVSPost2010Prop28
280
     0
102
RTVSPost2010PropOp28
 70
     0
102
RTVSPost2010Prop29
280
     1
102
RTVSPost2010PropOp29
 70
     0
102
RTVSPost2010Prop30
280
     1
102
RTVSPost2010PropOp30
 70
     0
102
RTVSPost2010Prop31
280
     0
102
RTVSPost2010PropOp31
 70
     0
102
RTVSPost2010Prop32
280
     0
102
RTVSPost2010PropOp32
 70
     0
102
RTVSPost2010Prop33
280
     0
102
RTVSPost2010PropOp33
 70
     0
102
RTVSPost2010Prop34
280
     0
102
RTVSPost2010PropOp34
 70
     0
102
RTVSPost2010Prop35
280
     0
102
RTVSPost2010PropOp35
 70
     0
102
RTVSPost2010Prop36
280
     0
102
RTVSPost2010PropOp36
 70
     0
102
RTVSPost2010Prop37
 90
       50
102
RTVSPost2010PropOp37
 70
     0
102
RTVSPost2010Prop38
140
0.0
102
RTVSPost2010PropOp38
 70
     0
102
RTVSPost2010Prop39
140
1.0
102
RTVSPost2010PropOp39
 70
     0
102
RTVSPost2010Prop40
 90
        0
102
RTVSPost2010PropOp40
 70
     0
102
RTVSPost2010Prop41ColorIndex
 90
       18
102
RTVSPost2010Prop41ColorRGB
 90
        0
102
RTVSPost2010PropOp41
 70
     0
102
RTVSPost2010Prop42
 90
       50
102
RTVSPost2010PropOp42
 70
     0
102
RTVSPost2010Prop43
 90
        3
102
RTVSPost2010PropOp43
 70
     0
102
RTVSPost2010Prop44ColorIndex
 90
        5
102
RTVSPost2010Prop44ColorRGB
 90
      255
102
RTVSPost2010PropOp44
 70
     0
102
RTVSPost2010Prop45
280
     0
102
RTVSPost2010PropOp45
 70
     0
102
RTVSPost2010Prop46
 90
       50
102
RTVSPost2010PropOp46
 70
     0
102
RTVSPost2010Prop47
 90
       50
102
RTVSPost2010PropOp47
 70
     0
102
RTVSPost2010Prop48
 90
       50
102
RTVSPost2010PropOp48
 70
     0
102
RTVSPost2010Prop49
280
     0
102
RTVSPost2010PropOp49
 70
     0
102
RTVSPost2010Prop50
 90
       50
102
RTVSPost2010PropOp50
 70
     0
102
RTVSPost2010Prop51ColorIndex
 90
      256
102
RTVSPost2010Prop51ColorRGB
 90
-16777216
102
RTVSPost2010PropOp51
 70
     0
102
RTVSPost2010Prop52
140
1.0
102
RTVSPost2010PropOp52
 70
     0
102
RTVSPost2010Prop53
 90
        2
102
RTVSPost2010PropOp53
 70
     0
102
RTVSPost2010Prop54
  1
strokes_ogs.tif
102
RTVSPost2010PropOp54
 70
     0
102
RTVSPost2010Prop55
280
     0
102
RTVSPost2010PropOp55
 70
     0
102
RTVSPost2010Prop56
140
1.0
102
RTVSPost2010PropOp56
 70
     0
102
RTVSPost2010Prop57
140
1.0
102
RTVSPost2010PropOp57
 70
     0
  0
XRECORD
  5
483
102
{ACAD_REACTORS
330
482
102
}
330
482
100
AcDbXrecord
280
     1
102
RTVSPropertyOp0
 70
     1
102
RTVSPropertyOp1
 70
     1
102
RTVSPropertyOp2
 70
     1
102
RTVSPropertyOp3
 70
     1
102
RTVSPropertyOp4
 70
     1
102
RTVSPropertyOp5
 70
     1
102
RTVSPropertyOp6
 70
     1
102
RTVSPropertyOp7
 70
     1
102
RTVSPropertyOp8
 70
     1
102
RTVSPropertyOp9
 70
     1
102
RTVSPropertyOp10
 70
     1
102
RTVSPropertyOp11
 70
     1
102
RTVSPropertyOp12
 70
     1
102
RTVSPropertyOp13
 70
     1
102
RTVSPropertyOp14
 70
     1
102
RTVSPropertyOp15
 70
     1
102
RTVSPropertyOp16
 70
     1
102
RTVSPropertyOp17
 70
     1
102
RTVSPropertyOp18
 70
     1
102
RTVSPropertyOp19
 70
     1
102
RTVSPropertyOp20
 70
     1
102
RTVSPropertyOp21
 70
     1
102
RTVSPropertyOp22
 70
     1
102
RTVSPropertyOp23
 70
     1
102
RTVSPropertyOp24
 70
     1
102
RTVSPropertyOp25
 70
     1
102
RTVSPropertyOp26
 70
     1
102
RTVSPropertyOp27
 70
     1
102
RTVSPropertyOp28
 70
     1
102
RTVSPropertyOp29
 70
     1
102
RTVSPropertyOp30
 70
     1
102
RTVSPropertyOp31
 70
     1
102
RTVSPropertyOp32
 70
     1
102
RTVSPropertyOp33
 70
     1
102
RTVSPropertyOp34
 70
     1
102
RTVSPropertyOp35
 70
     1
102
RTVSPropertyOp36
 70
     1
102
RTVSPropertyOp37
 70
     1
102
RTVSPropertyOp38
 70
     1
102
RTVSPropertyOp39
 70
     1
102
RTVSPropertyOp40
 70
     1
102
RTVSPropertyOp41
 70
     1
102
RTVSPropertyOp42
 70
     1
102
RTVSPropertyOp43
 70
     1
102
RTVSPropertyOp44
 70
     1
102
RTVSPropertyOp45
 70
     1
102
RTVSPropertyOp46
 70
     1
102
RTVSPropertyOp47
 70
     1
102
RTVSPropertyOp48
 70
     1
102
RTVSPropertyOp49
 70
     1
102
RTVSPropertyOp50
 70
     1
102
RTVSPropertyOp51
 70
     0
102
RTVSPropertyOp52
 70
     0
102
RTVSPropertyOp53
 70
     1
102
RTVSPropertyOp54
 70
     1
102
RTVSPropertyOp55
 70
     1
102
RTVSPropertyOp56
 70
     1
102
RTVSPropertyOp57
 70
     1
102
RTVSPost2010Prop28
280
     0
102
RTVSPost2010PropOp28
 70
     1
102
RTVSPost2010Prop29
280
     1
102
RTVSPost2010PropOp29
 70
     1
102
RTVSPost2010Prop30
280
     1
102
RTVSPost2010PropOp30
 70
     1
102
RTVSPost2010Prop31
280
     0
102
RTVSPost2010PropOp31
 70
     1
102
RTVSPost2010Prop32
280
     0
102
RTVSPost2010PropOp32
 70
     1
102
RTVSPost2010Prop33
280
     0
102
RTVSPost2010PropOp33
 70
     1
102
RTVSPost2010Prop34
280
     0
102
RTVSPost2010PropOp34
 70
     1
102
RTVSPost2010Prop35
280
     0
102
RTVSPost2010PropOp35
 70
     1
102
RTVSPost2010Prop36
280
     0
102
RTVSPost2010PropOp36
 70
     1
102
RTVSPost2010Prop37
 90
       50
102
RTVSPost2010PropOp37
 70
     1
102
RTVSPost2010Prop38
140
0.0
102
RTVSPost2010PropOp38
 70
     1
102
RTVSPost2010Prop39
140
1.0
102
RTVSPost2010PropOp39
 70
     1
102
RTVSPost2010Prop40
 90
        0
102
RTVSPost2010PropOp40
 70
     1
102
RTVSPost2010Prop41ColorIndex
 90
       18
102
RTVSPost2010Prop41ColorRGB
 90
        0
102
RTVSPost2010PropOp41
 70
     1
102
RTVSPost2010Prop42
 90
       50
102
RTVSPost2010PropOp42
 70
     1
102
RTVSPost2010Prop43
 90
        3
102
RTVSPost2010PropOp43
 70
     1
102
RTVSPost2010Prop44ColorIndex
 90
        5
102
RTVSPost2010Prop44ColorRGB
 90
      255
102
RTVSPost2010PropOp44
 70
     1
102
RTVSPost2010Prop45
280
     0
102
RTVSPost2010PropOp45
 70
     1
102
RTVSPost2010Prop46
 90
       50
102
RTVSPost2010PropOp46
 70
     1
102
RTVSPost2010Prop47
 90
       50
102
RTVSPost2010PropOp47
 70
     1
102
RTVSPost2010Prop48
 90
       50
102
RTVSPost2010PropOp48
 70
     1
102
RTVSPost2010Prop49
280
     0
102
RTVSPost2010PropOp49
 70
     1
102
RTVSPost2010Prop50
 90
       50
102
RTVSPost2010PropOp50
 70
     1
102
RTVSPost2010Prop51ColorIndex
 90
      256
102
RTVSPost2010Prop51ColorRGB
 90
-16777216
102
RTVSPost2010PropOp51
 70
     0
102
RTVSPost2010Prop52
140
1.0
102
RTVSPost2010PropOp52
 70
     0
102
RTVSPost2010Prop53
 90
        2
102
RTVSPost2010PropOp53
 70
     1
102
RTVSPost2010Prop54
  1
strokes_ogs.tif
102
RTVSPost2010PropOp54
 70
     1
102
RTVSPost2010Prop55
280
     0
102
RTVSPost2010PropOp55
 70
     1
102
RTVSPost2010Prop56
140
1.0
102
RTVSPost2010PropOp56
 70
     1
102
RTVSPost2010Prop57
140
1.0
102
RTVSPost2010PropOp57
 70
     1
  0
XRECORD
  5
4A1
102
{ACAD_REACTORS
330
4A0
102
}
330
4A0
100
AcDbXrecord
280
     1
102
RTVSPropertyOp0
 70
     1
102
RTVSPropertyOp1
 70
     1
102
RTVSPropertyOp2
 70
     1
102
RTVSPropertyOp3
 70
     1
102
RTVSPropertyOp4
 70
     1
102
RTVSPropertyOp5
 70
     1
102
RTVSPropertyOp6
 70
     1
102
RTVSPropertyOp7
 70
     1
102
RTVSPropertyOp8
 70
     1
102
RTVSPropertyOp9
 70
     1
102
RTVSPropertyOp10
 70
     1
102
RTVSPropertyOp11
 70
     1
102
RTVSPropertyOp12
 70
     1
102
RTVSPropertyOp13
 70
     1
102
RTVSPropertyOp14
 70
     1
102
RTVSPropertyOp15
 70
     1
102
RTVSPropertyOp16
 70
     1
102
RTVSPropertyOp17
 70
     1
102
RTVSPropertyOp18
 70
     1
102
RTVSPropertyOp19
 70
     1
102
RTVSPropertyOp20
 70
     1
102
RTVSPropertyOp21
 70
     1
102
RTVSPropertyOp22
 70
     1
102
RTVSPropertyOp23
 70
     1
102
RTVSPropertyOp24
 70
     1
102
RTVSPropertyOp25
 70
     1
102
RTVSPropertyOp26
 70
     1
102
RTVSPropertyOp27
 70
     1
102
RTVSPropertyOp28
 70
     1
102
RTVSPropertyOp29
 70
     1
102
RTVSPropertyOp30
 70
     1
102
RTVSPropertyOp31
 70
     1
102
RTVSPropertyOp32
 70
     1
102
RTVSPropertyOp33
 70
     1
102
RTVSPropertyOp34
 70
     1
102
RTVSPropertyOp35
 70
     1
102
RTVSPropertyOp36
 70
     1
102
RTVSPropertyOp37
 70
     1
102
RTVSPropertyOp38
 70
     1
102
RTVSPropertyOp39
 70
     1
102
RTVSPropertyOp40
 70
     1
102
RTVSPropertyOp41
 70
     1
102
RTVSPropertyOp42
 70
     1
102
RTVSPropertyOp43
 70
     1
102
RTVSPropertyOp44
 70
     1
102
RTVSPropertyOp45
 70
     1
102
RTVSPropertyOp46
 70
     1
102
RTVSPropertyOp47
 70
     1
102
RTVSPropertyOp48
 70
     1
102
RTVSPropertyOp49
 70
     1
102
RTVSPropertyOp50
 70
     1
102
RTVSPropertyOp51
 70
     0
102
RTVSPropertyOp52
 70
     0
102
RTVSPropertyOp53
 70
     1
102
RTVSPropertyOp54
 70
     1
102
RTVSPropertyOp55
 70
     1
102
RTVSPropertyOp56
 70
     1
102
RTVSPropertyOp57
 70
     1
102
RTVSPost2010Prop28
280
     0
102
RTVSPost2010PropOp28
 70
     1
102
RTVSPost2010Prop29
280
     1
102
RTVSPost2010PropOp29
 70
     1
102
RTVSPost2010Prop30
280
     1
102
RTVSPost2010PropOp30
 70
     1
102
RTVSPost2010Prop31
280
     0
102
RTVSPost2010PropOp31
 70
     1
102
RTVSPost2010Prop32
280
     0
102
RTVSPost2010PropOp32
 70
     1
102
RTVSPost2010Prop33
280
     0
102
RTVSPost2010PropOp33
 70
     1
102
RTVSPost2010Prop34
280
     0
102
RTVSPost2010PropOp34
 70
     1
102
RTVSPost2010Prop35
280
     0
102
RTVSPost2010PropOp35
 70
     1
102
RTVSPost2010Prop36
280
     0
102
RTVSPost2010PropOp36
 70
     1
102
RTVSPost2010Prop37
 90
       50
102
RTVSPost2010PropOp37
 70
     1
102
RTVSPost2010Prop38
140
0.0
102
RTVSPost2010PropOp38
 70
     1
102
RTVSPost2010Prop39
140
1.0
102
RTVSPost2010PropOp39
 70
     1
102
RTVSPost2010Prop40
 90
        0
102
RTVSPost2010PropOp40
 70
     1
102
RTVSPost2010Prop41ColorIndex
 90
       18
102
RTVSPost2010Prop41ColorRGB
 90
        0
102
RTVSPost2010PropOp41
 70
     1
102
RTVSPost2010Prop42
 90
       50
102
RTVSPost2010PropOp42
 70
     1
102
RTVSPost2010Prop43
 90
        3
102
RTVSPost2010PropOp43
 70
     1
102
RTVSPost2010Prop44ColorIndex
 90
        5
102
RTVSPost2010Prop44ColorRGB
 90
      255
102
RTVSPost2010PropOp44
 70
     1
102
RTVSPost2010Prop45
280
     0
102
RTVSPost2010PropOp45
 70
     1
102
RTVSPost2010Prop46
 90
       50
102
RTVSPost2010PropOp46
 70
     1
102
RTVSPost2010Prop47
 90
       50
102
RTVSPost2010PropOp47
 70
     1
102
RTVSPost2010Prop48
 90
       50
102
RTVSPost2010PropOp48
 70
     1
102
RTVSPost2010Prop49
280
     0
102
RTVSPost2010PropOp49
 70
     1
102
RTVSPost2010Prop50
 90
       50
102
RTVSPost2010PropOp50
 70
     1
102
RTVSPost2010Prop51ColorIndex
 90
      256
102
RTVSPost2010Prop51ColorRGB
 90
-16777216
102
RTVSPost2010PropOp51
 70
     0
102
RTVSPost2010Prop52
140
1.0
102
RTVSPost2010PropOp52
 70
     0
102
RTVSPost2010Prop53
 90
        2
102
RTVSPost2010PropOp53
 70
     1
102
RTVSPost2010Prop54
  1
strokes_ogs.tif
102
RTVSPost2010PropOp54
 70
     1
102
RTVSPost2010Prop55
280
     0
102
RTVSPost2010PropOp55
 70
     1
102
RTVSPost2010Prop56
140
1.0
102
RTVSPost2010PropOp56
 70
     1
102
RTVSPost2010Prop57
140
1.0
102
RTVSPost2010PropOp57
 70
     1
  0
XRECORD
  5
49F
102
{ACAD_REACTORS
330
49E
102
}
330
49E
100
AcDbXrecord
280
     1
102
RTVSPropertyOp0
 70
     1
102
RTVSPropertyOp1
 70
     1
102
RTVSPropertyOp2
 70
     1
102
RTVSPropertyOp3
 70
     1
102
RTVSPropertyOp4
 70
     1
102
RTVSPropertyOp5
 70
     1
102
RTVSPropertyOp6
 70
     1
102
RTVSPropertyOp7
 70
     1
102
RTVSPropertyOp8
 70
     1
102
RTVSPropertyOp9
 70
     1
102
RTVSPropertyOp10
 70
     1
102
RTVSPropertyOp11
 70
     1
102
RTVSPropertyOp12
 70
     1
102
RTVSPropertyOp13
 70
     1
102
RTVSPropertyOp14
 70
     1
102
RTVSPropertyOp15
 70
     1
102
RTVSPropertyOp16
 70
     1
102
RTVSPropertyOp17
 70
     1
102
RTVSPropertyOp18
 70
     1
102
RTVSPropertyOp19
 70
     1
102
RTVSPropertyOp20
 70
     1
102
RTVSPropertyOp21
 70
     1
102
RTVSPropertyOp22
 70
     1
102
RTVSPropertyOp23
 70
     1
102
RTVSPropertyOp24
 70
     1
102
RTVSPropertyOp25
 70
     1
102
RTVSPropertyOp26
 70
     1
102
RTVSPropertyOp27
 70
     1
102
RTVSPropertyOp28
 70
     1
102
RTVSPropertyOp29
 70
     1
102
RTVSPropertyOp30
 70
     1
102
RTVSPropertyOp31
 70
     1
102
RTVSPropertyOp32
 70
     1
102
RTVSPropertyOp33
 70
     1
102
RTVSPropertyOp34
 70
     1
102
RTVSPropertyOp35
 70
     1
102
RTVSPropertyOp36
 70
     1
102
RTVSPropertyOp37
 70
     1
102
RTVSPropertyOp38
 70
     1
102
RTVSPropertyOp39
 70
     1
102
RTVSPropertyOp40
 70
     1
102
RTVSPropertyOp41
 70
     1
102
RTVSPropertyOp42
 70
     1
102
RTVSPropertyOp43
 70
     1
102
RTVSPropertyOp44
 70
     1
102
RTVSPropertyOp45
 70
     1
102
RTVSPropertyOp46
 70
     1
102
RTVSPropertyOp47
 70
     1
102
RTVSPropertyOp48
 70
     1
102
RTVSPropertyOp49
 70
     1
102
RTVSPropertyOp50
 70
     1
102
RTVSPropertyOp51
 70
     0
102
RTVSPropertyOp52
 70
     0
102
RTVSPropertyOp53
 70
     1
102
RTVSPropertyOp54
 70
     1
102
RTVSPropertyOp55
 70
     1
102
RTVSPropertyOp56
 70
     1
102
RTVSPropertyOp57
 70
     1
102
RTVSPost2010Prop28
280
     0
102
RTVSPost2010PropOp28
 70
     1
102
RTVSPost2010Prop29
280
     1
102
RTVSPost2010PropOp29
 70
     1
102
RTVSPost2010Prop30
280
     1
102
RTVSPost2010PropOp30
 70
     1
102
RTVSPost2010Prop31
280
     0
102
RTVSPost2010PropOp31
 70
     1
102
RTVSPost2010Prop32
280
     0
102
RTVSPost2010PropOp32
 70
     1
102
RTVSPost2010Prop33
280
     0
102
RTVSPost2010PropOp33
 70
     1
102
RTVSPost2010Prop34
280
     0
102
RTVSPost2010PropOp34
 70
     1
102
RTVSPost2010Prop35
280
     0
102
RTVSPost2010PropOp35
 70
     1
102
RTVSPost2010Prop36
280
     0
102
RTVSPost2010PropOp36
 70
     1
102
RTVSPost2010Prop37
 90
       50
102
RTVSPost2010PropOp37
 70
     1
102
RTVSPost2010Prop38
140
0.0
102
RTVSPost2010PropOp38
 70
     1
102
RTVSPost2010Prop39
140
1.0
102
RTVSPost2010PropOp39
 70
     1
102
RTVSPost2010Prop40
 90
        0
102
RTVSPost2010PropOp40
 70
     1
102
RTVSPost2010Prop41ColorIndex
 90
       18
102
RTVSPost2010Prop41ColorRGB
 90
        0
102
RTVSPost2010PropOp41
 70
     1
102
RTVSPost2010Prop42
 90
       50
102
RTVSPost2010PropOp42
 70
     1
102
RTVSPost2010Prop43
 90
        3
102
RTVSPost2010PropOp43
 70
     1
102
RTVSPost2010Prop44ColorIndex
 90
        5
102
RTVSPost2010Prop44ColorRGB
 90
      255
102
RTVSPost2010PropOp44
 70
     1
102
RTVSPost2010Prop45
280
     0
102
RTVSPost2010PropOp45
 70
     1
102
RTVSPost2010Prop46
 90
       50
102
RTVSPost2010PropOp46
 70
     1
102
RTVSPost2010Prop47
 90
       50
102
RTVSPost2010PropOp47
 70
     1
102
RTVSPost2010Prop48
 90
       50
102
RTVSPost2010PropOp48
 70
     1
102
RTVSPost2010Prop49
280
     0
102
RTVSPost2010PropOp49
 70
     1
102
RTVSPost2010Prop50
 90
       50
102
RTVSPost2010PropOp50
 70
     1
102
RTVSPost2010Prop51ColorIndex
 90
      256
102
RTVSPost2010Prop51ColorRGB
 90
-16777216
102
RTVSPost2010PropOp51
 70
     0
102
RTVSPost2010Prop52
140
1.0
102
RTVSPost2010PropOp52
 70
     0
102
RTVSPost2010Prop53
 90
        2
102
RTVSPost2010PropOp53
 70
     1
102
RTVSPost2010Prop54
  1
strokes_ogs.tif
102
RTVSPost2010PropOp54
 70
     1
102
RTVSPost2010Prop55
280
     0
102
RTVSPost2010PropOp55
 70
     1
102
RTVSPost2010Prop56
140
1.0
102
RTVSPost2010PropOp56
 70
     1
102
RTVSPost2010Prop57
140
1.0
102
RTVSPost2010PropOp57
 70
     1
  0
XRECORD
  5
499
102
{ACAD_REACTORS
330
498
102
}
330
498
100
AcDbXrecord
280
     1
102
RTVSPropertyOp0
 70
     1
102
RTVSPropertyOp1
 70
     1
102
RTVSPropertyOp2
 70
     1
102
RTVSPropertyOp3
 70
     1
102
RTVSPropertyOp4
 70
     1
102
RTVSPropertyOp5
 70
     1
102
RTVSPropertyOp6
 70
     1
102
RTVSPropertyOp7
 70
     1
102
RTVSPropertyOp8
 70
     1
102
RTVSPropertyOp9
 70
     1
102
RTVSPropertyOp10
 70
     1
102
RTVSPropertyOp11
 70
     1
102
RTVSPropertyOp12
 70
     1
102
RTVSPropertyOp13
 70
     1
102
RTVSPropertyOp14
 70
     1
102
RTVSPropertyOp15
 70
     1
102
RTVSPropertyOp16
 70
     1
102
RTVSPropertyOp17
 70
     1
102
RTVSPropertyOp18
 70
     1
102
RTVSPropertyOp19
 70
     1
102
RTVSPropertyOp20
 70
     1
102
RTVSPropertyOp21
 70
     1
102
RTVSPropertyOp22
 70
     1
102
RTVSPropertyOp23
 70
     1
102
RTVSPropertyOp24
 70
     1
102
RTVSPropertyOp25
 70
     1
102
RTVSPropertyOp26
 70
     1
102
RTVSPropertyOp27
 70
     1
102
RTVSPropertyOp28
 70
     1
102
RTVSPropertyOp29
 70
     1
102
RTVSPropertyOp30
 70
     1
102
RTVSPropertyOp31
 70
     1
102
RTVSPropertyOp32
 70
     1
102
RTVSPropertyOp33
 70
     1
102
RTVSPropertyOp34
 70
     1
102
RTVSPropertyOp35
 70
     1
102
RTVSPropertyOp36
 70
     1
102
RTVSPropertyOp37
 70
     1
102
RTVSPropertyOp38
 70
     1
102
RTVSPropertyOp39
 70
     1
102
RTVSPropertyOp40
 70
     1
102
RTVSPropertyOp41
 70
     1
102
RTVSPropertyOp42
 70
     1
102
RTVSPropertyOp43
 70
     1
102
RTVSPropertyOp44
 70
     1
102
RTVSPropertyOp45
 70
     1
102
RTVSPropertyOp46
 70
     1
102
RTVSPropertyOp47
 70
     1
102
RTVSPropertyOp48
 70
     1
102
RTVSPropertyOp49
 70
     1
102
RTVSPropertyOp50
 70
     1
102
RTVSPropertyOp51
 70
     0
102
RTVSPropertyOp52
 70
     0
102
RTVSPropertyOp53
 70
     1
102
RTVSPropertyOp54
 70
     1
102
RTVSPropertyOp55
 70
     1
102
RTVSPropertyOp56
 70
     1
102
RTVSPropertyOp57
 70
     1
102
RTVSPost2010Prop28
280
     0
102
RTVSPost2010PropOp28
 70
     1
102
RTVSPost2010Prop29
280
     1
102
RTVSPost2010PropOp29
 70
     1
102
RTVSPost2010Prop30
280
     1
102
RTVSPost2010PropOp30
 70
     1
102
RTVSPost2010Prop31
280
     0
102
RTVSPost2010PropOp31
 70
     1
102
RTVSPost2010Prop32
280
     0
102
RTVSPost2010PropOp32
 70
     1
102
RTVSPost2010Prop33
280
     0
102
RTVSPost2010PropOp33
 70
     1
102
RTVSPost2010Prop34
280
     0
102
RTVSPost2010PropOp34
 70
     1
102
RTVSPost2010Prop35
280
     0
102
RTVSPost2010PropOp35
 70
     1
102
RTVSPost2010Prop36
280
     0
102
RTVSPost2010PropOp36
 70
     1
102
RTVSPost2010Prop37
 90
       50
102
RTVSPost2010PropOp37
 70
     1
102
RTVSPost2010Prop38
140
0.0
102
RTVSPost2010PropOp38
 70
     1
102
RTVSPost2010Prop39
140
1.0
102
RTVSPost2010PropOp39
 70
     1
102
RTVSPost2010Prop40
 90
        0
102
RTVSPost2010PropOp40
 70
     1
102
RTVSPost2010Prop41ColorIndex
 90
       18
102
RTVSPost2010Prop41ColorRGB
 90
        0
102
RTVSPost2010PropOp41
 70
     1
102
RTVSPost2010Prop42
 90
       50
102
RTVSPost2010PropOp42
 70
     1
102
RTVSPost2010Prop43
 90
        3
102
RTVSPost2010PropOp43
 70
     1
102
RTVSPost2010Prop44ColorIndex
 90
        5
102
RTVSPost2010Prop44ColorRGB
 90
      255
102
RTVSPost2010PropOp44
 70
     1
102
RTVSPost2010Prop45
280
     0
102
RTVSPost2010PropOp45
 70
     1
102
RTVSPost2010Prop46
 90
       50
102
RTVSPost2010PropOp46
 70
     1
102
RTVSPost2010Prop47
 90
       50
102
RTVSPost2010PropOp47
 70
     1
102
RTVSPost2010Prop48
 90
       50
102
RTVSPost2010PropOp48
 70
     1
102
RTVSPost2010Prop49
280
     0
102
RTVSPost2010PropOp49
 70
     1
102
RTVSPost2010Prop50
 90
       50
102
RTVSPost2010PropOp50
 70
     1
102
RTVSPost2010Prop51ColorIndex
 90
      256
102
RTVSPost2010Prop51ColorRGB
 90
-16777216
102
RTVSPost2010PropOp51
 70
     0
102
RTVSPost2010Prop52
140
1.0
102
RTVSPost2010PropOp52
 70
     0
102
RTVSPost2010Prop53
 90
        2
102
RTVSPost2010PropOp53
 70
     1
102
RTVSPost2010Prop54
  1
strokes_ogs.tif
102
RTVSPost2010PropOp54
 70
     1
102
RTVSPost2010Prop55
280
     0
102
RTVSPost2010PropOp55
 70
     1
102
RTVSPost2010Prop56
140
1.0
102
RTVSPost2010PropOp56
 70
     1
102
RTVSPost2010Prop57
140
1.0
102
RTVSPost2010PropOp57
 70
     1
  0
XRECORD
  5
49B
102
{ACAD_REACTORS
330
49A
102
}
330
49A
100
AcDbXrecord
280
     1
102
RTVSPropertyOp0
 70
     1
102
RTVSPropertyOp1
 70
     1
102
RTVSPropertyOp2
 70
     1
102
RTVSPropertyOp3
 70
     1
102
RTVSPropertyOp4
 70
     1
102
RTVSPropertyOp5
 70
     1
102
RTVSPropertyOp6
 70
     1
102
RTVSPropertyOp7
 70
     1
102
RTVSPropertyOp8
 70
     1
102
RTVSPropertyOp9
 70
     1
102
RTVSPropertyOp10
 70
     1
102
RTVSPropertyOp11
 70
     1
102
RTVSPropertyOp12
 70
     1
102
RTVSPropertyOp13
 70
     1
102
RTVSPropertyOp14
 70
     1
102
RTVSPropertyOp15
 70
     1
102
RTVSPropertyOp16
 70
     1
102
RTVSPropertyOp17
 70
     1
102
RTVSPropertyOp18
 70
     1
102
RTVSPropertyOp19
 70
     1
102
RTVSPropertyOp20
 70
     1
102
RTVSPropertyOp21
 70
     1
102
RTVSPropertyOp22
 70
     1
102
RTVSPropertyOp23
 70
     1
102
RTVSPropertyOp24
 70
     1
102
RTVSPropertyOp25
 70
     1
102
RTVSPropertyOp26
 70
     1
102
RTVSPropertyOp27
 70
     1
102
RTVSPropertyOp28
 70
     1
102
RTVSPropertyOp29
 70
     1
102
RTVSPropertyOp30
 70
     1
102
RTVSPropertyOp31
 70
     1
102
RTVSPropertyOp32
 70
     1
102
RTVSPropertyOp33
 70
     1
102
RTVSPropertyOp34
 70
     1
102
RTVSPropertyOp35
 70
     1
102
RTVSPropertyOp36
 70
     1
102
RTVSPropertyOp37
 70
     1
102
RTVSPropertyOp38
 70
     1
102
RTVSPropertyOp39
 70
     1
102
RTVSPropertyOp40
 70
     1
102
RTVSPropertyOp41
 70
     1
102
RTVSPropertyOp42
 70
     1
102
RTVSPropertyOp43
 70
     1
102
RTVSPropertyOp44
 70
     1
102
RTVSPropertyOp45
 70
     1
102
RTVSPropertyOp46
 70
     1
102
RTVSPropertyOp47
 70
     1
102
RTVSPropertyOp48
 70
     1
102
RTVSPropertyOp49
 70
     1
102
RTVSPropertyOp50
 70
     1
102
RTVSPropertyOp51
 70
     0
102
RTVSPropertyOp52
 70
     0
102
RTVSPropertyOp53
 70
     1
102
RTVSPropertyOp54
 70
     1
102
RTVSPropertyOp55
 70
     1
102
RTVSPropertyOp56
 70
     1
102
RTVSPropertyOp57
 70
     1
102
RTVSPost2010Prop28
280
     0
102
RTVSPost2010PropOp28
 70
     1
102
RTVSPost2010Prop29
280
     1
102
RTVSPost2010PropOp29
 70
     1
102
RTVSPost2010Prop30
280
     1
102
RTVSPost2010PropOp30
 70
     1
102
RTVSPost2010Prop31
280
     0
102
RTVSPost2010PropOp31
 70
     1
102
RTVSPost2010Prop32
280
     0
102
RTVSPost2010PropOp32
 70
     1
102
RTVSPost2010Prop33
280
     0
102
RTVSPost2010PropOp33
 70
     1
102
RTVSPost2010Prop34
280
     0
102
RTVSPost2010PropOp34
 70
     1
102
RTVSPost2010Prop35
280
     0
102
RTVSPost2010PropOp35
 70
     1
102
RTVSPost2010Prop36
280
     0
102
RTVSPost2010PropOp36
 70
     1
102
RTVSPost2010Prop37
 90
       50
102
RTVSPost2010PropOp37
 70
     1
102
RTVSPost2010Prop38
140
0.0
102
RTVSPost2010PropOp38
 70
     1
102
RTVSPost2010Prop39
140
1.0
102
RTVSPost2010PropOp39
 70
     1
102
RTVSPost2010Prop40
 90
        0
102
RTVSPost2010PropOp40
 70
     1
102
RTVSPost2010Prop41ColorIndex
 90
       18
102
RTVSPost2010Prop41ColorRGB
 90
        0
102
RTVSPost2010PropOp41
 70
     1
102
RTVSPost2010Prop42
 90
       50
102
RTVSPost2010PropOp42
 70
     1
102
RTVSPost2010Prop43
 90
        3
102
RTVSPost2010PropOp43
 70
     1
102
RTVSPost2010Prop44ColorIndex
 90
        5
102
RTVSPost2010Prop44ColorRGB
 90
      255
102
RTVSPost2010PropOp44
 70
     1
102
RTVSPost2010Prop45
280
     0
102
RTVSPost2010PropOp45
 70
     1
102
RTVSPost2010Prop46
 90
       50
102
RTVSPost2010PropOp46
 70
     1
102
RTVSPost2010Prop47
 90
       50
102
RTVSPost2010PropOp47
 70
     1
102
RTVSPost2010Prop48
 90
       50
102
RTVSPost2010PropOp48
 70
     1
102
RTVSPost2010Prop49
280
     0
102
RTVSPost2010PropOp49
 70
     1
102
RTVSPost2010Prop50
 90
       50
102
RTVSPost2010PropOp50
 70
     1
102
RTVSPost2010Prop51ColorIndex
 90
      256
102
RTVSPost2010Prop51ColorRGB
 90
-16777216
102
RTVSPost2010PropOp51
 70
     0
102
RTVSPost2010Prop52
140
1.0
102
RTVSPost2010PropOp52
 70
     0
102
RTVSPost2010Prop53
 90
        2
102
RTVSPost2010PropOp53
 70
     1
102
RTVSPost2010Prop54
  1
strokes_ogs.tif
102
RTVSPost2010PropOp54
 70
     1
102
RTVSPost2010Prop55
280
     0
102
RTVSPost2010PropOp55
 70
     1
102
RTVSPost2010Prop56
140
1.0
102
RTVSPost2010PropOp56
 70
     1
102
RTVSPost2010Prop57
140
1.0
102
RTVSPost2010PropOp57
 70
     1
  0
XRECORD
  5
48B
102
{ACAD_REACTORS
330
48A
102
}
330
48A
100
AcDbXrecord
280
     1
102
RTVSPropertyOp0
 70
     1
102
RTVSPropertyOp1
 70
     1
102
RTVSPropertyOp2
 70
     1
102
RTVSPropertyOp3
 70
     1
102
RTVSPropertyOp4
 70
     1
102
RTVSPropertyOp5
 70
     1
102
RTVSPropertyOp6
 70
     1
102
RTVSPropertyOp7
 70
     1
102
RTVSPropertyOp8
 70
     1
102
RTVSPropertyOp9
 70
     1
102
RTVSPropertyOp10
 70
     1
102
RTVSPropertyOp11
 70
     1
102
RTVSPropertyOp12
 70
     1
102
RTVSPropertyOp13
 70
     1
102
RTVSPropertyOp14
 70
     1
102
RTVSPropertyOp15
 70
     1
102
RTVSPropertyOp16
 70
     1
102
RTVSPropertyOp17
 70
     1
102
RTVSPropertyOp18
 70
     1
102
RTVSPropertyOp19
 70
     1
102
RTVSPropertyOp20
 70
     1
102
RTVSPropertyOp21
 70
     1
102
RTVSPropertyOp22
 70
     1
102
RTVSPropertyOp23
 70
     1
102
RTVSPropertyOp24
 70
     1
102
RTVSPropertyOp25
 70
     1
102
RTVSPropertyOp26
 70
     1
102
RTVSPropertyOp27
 70
     1
102
RTVSPropertyOp28
 70
     1
102
RTVSPropertyOp29
 70
     1
102
RTVSPropertyOp30
 70
     1
102
RTVSPropertyOp31
 70
     1
102
RTVSPropertyOp32
 70
     1
102
RTVSPropertyOp33
 70
     1
102
RTVSPropertyOp34
 70
     1
102
RTVSPropertyOp35
 70
     1
102
RTVSPropertyOp36
 70
     1
102
RTVSPropertyOp37
 70
     1
102
RTVSPropertyOp38
 70
     1
102
RTVSPropertyOp39
 70
     1
102
RTVSPropertyOp40
 70
     1
102
RTVSPropertyOp41
 70
     1
102
RTVSPropertyOp42
 70
     1
102
RTVSPropertyOp43
 70
     1
102
RTVSPropertyOp44
 70
     1
102
RTVSPropertyOp45
 70
     1
102
RTVSPropertyOp46
 70
     1
102
RTVSPropertyOp47
 70
     1
102
RTVSPropertyOp48
 70
     1
102
RTVSPropertyOp49
 70
     1
102
RTVSPropertyOp50
 70
     1
102
RTVSPropertyOp51
 70
     0
102
RTVSPropertyOp52
 70
     0
102
RTVSPropertyOp53
 70
     1
102
RTVSPropertyOp54
 70
     1
102
RTVSPropertyOp55
 70
     1
102
RTVSPropertyOp56
 70
     1
102
RTVSPropertyOp57
 70
     1
102
RTVSPost2010Prop28
280
     0
102
RTVSPost2010PropOp28
 70
     1
102
RTVSPost2010Prop29
280
     1
102
RTVSPost2010PropOp29
 70
     1
102
RTVSPost2010Prop30
280
     1
102
RTVSPost2010PropOp30
 70
     1
102
RTVSPost2010Prop31
280
     0
102
RTVSPost2010PropOp31
 70
     1
102
RTVSPost2010Prop32
280
     0
102
RTVSPost2010PropOp32
 70
     1
102
RTVSPost2010Prop33
280
     0
102
RTVSPost2010PropOp33
 70
     1
102
RTVSPost2010Prop34
280
     0
102
RTVSPost2010PropOp34
 70
     1
102
RTVSPost2010Prop35
280
     0
102
RTVSPost2010PropOp35
 70
     1
102
RTVSPost2010Prop36
280
     0
102
RTVSPost2010PropOp36
 70
     1
102
RTVSPost2010Prop37
 90
       50
102
RTVSPost2010PropOp37
 70
     1
102
RTVSPost2010Prop38
140
0.0
102
RTVSPost2010PropOp38
 70
     1
102
RTVSPost2010Prop39
140
1.0
102
RTVSPost2010PropOp39
 70
     1
102
RTVSPost2010Prop40
 90
        0
102
RTVSPost2010PropOp40
 70
     1
102
RTVSPost2010Prop41ColorIndex
 90
       18
102
RTVSPost2010Prop41ColorRGB
 90
        0
102
RTVSPost2010PropOp41
 70
     1
102
RTVSPost2010Prop42
 90
       50
102
RTVSPost2010PropOp42
 70
     1
102
RTVSPost2010Prop43
 90
        3
102
RTVSPost2010PropOp43
 70
     1
102
RTVSPost2010Prop44ColorIndex
 90
        5
102
RTVSPost2010Prop44ColorRGB
 90
      255
102
RTVSPost2010PropOp44
 70
     1
102
RTVSPost2010Prop45
280
     0
102
RTVSPost2010PropOp45
 70
     1
102
RTVSPost2010Prop46
 90
       50
102
RTVSPost2010PropOp46
 70
     1
102
RTVSPost2010Prop47
 90
       50
102
RTVSPost2010PropOp47
 70
     1
102
RTVSPost2010Prop48
 90
       50
102
RTVSPost2010PropOp48
 70
     1
102
RTVSPost2010Prop49
280
     0
102
RTVSPost2010PropOp49
 70
     1
102
RTVSPost2010Prop50
 90
       50
102
RTVSPost2010PropOp50
 70
     1
102
RTVSPost2010Prop51ColorIndex
 90
      256
102
RTVSPost2010Prop51ColorRGB
 90
-16777216
102
RTVSPost2010PropOp51
 70
     0
102
RTVSPost2010Prop52
140
1.0
102
RTVSPost2010PropOp52
 70
     0
102
RTVSPost2010Prop53
 90
        2
102
RTVSPost2010PropOp53
 70
     1
102
RTVSPost2010Prop54
  1
strokes_ogs.tif
102
RTVSPost2010PropOp54
 70
     1
102
RTVSPost2010Prop55
280
     0
102
RTVSPost2010PropOp55
 70
     1
102
RTVSPost2010Prop56
140
1.0
102
RTVSPost2010PropOp56
 70
     1
102
RTVSPost2010Prop57
140
1.0
102
RTVSPost2010PropOp57
 70
     1
  0
XRECORD
  5
47D
102
{ACAD_REACTORS
330
47C
102
}
330
47C
100
AcDbXrecord
280
     1
102
RTVSPropertyOp0
 70
     1
102
RTVSPropertyOp1
 70
     1
102
RTVSPropertyOp2
 70
     1
102
RTVSPropertyOp3
 70
     1
102
RTVSPropertyOp4
 70
     1
102
RTVSPropertyOp5
 70
     1
102
RTVSPropertyOp6
 70
     1
102
RTVSPropertyOp7
 70
     1
102
RTVSPropertyOp8
 70
     1
102
RTVSPropertyOp9
 70
     1
102
RTVSPropertyOp10
 70
     1
102
RTVSPropertyOp11
 70
     1
102
RTVSPropertyOp12
 70
     1
102
RTVSPropertyOp13
 70
     1
102
RTVSPropertyOp14
 70
     1
102
RTVSPropertyOp15
 70
     1
102
RTVSPropertyOp16
 70
     1
102
RTVSPropertyOp17
 70
     1
102
RTVSPropertyOp18
 70
     1
102
RTVSPropertyOp19
 70
     1
102
RTVSPropertyOp20
 70
     1
102
RTVSPropertyOp21
 70
     1
102
RTVSPropertyOp22
 70
     1
102
RTVSPropertyOp23
 70
     1
102
RTVSPropertyOp24
 70
     1
102
RTVSPropertyOp25
 70
     1
102
RTVSPropertyOp26
 70
     1
102
RTVSPropertyOp27
 70
     1
102
RTVSPropertyOp28
 70
     1
102
RTVSPropertyOp29
 70
     1
102
RTVSPropertyOp30
 70
     1
102
RTVSPropertyOp31
 70
     1
102
RTVSPropertyOp32
 70
     1
102
RTVSPropertyOp33
 70
     1
102
RTVSPropertyOp34
 70
     1
102
RTVSPropertyOp35
 70
     1
102
RTVSPropertyOp36
 70
     1
102
RTVSPropertyOp37
 70
     1
102
RTVSPropertyOp38
 70
     1
102
RTVSPropertyOp39
 70
     1
102
RTVSPropertyOp40
 70
     1
102
RTVSPropertyOp41
 70
     1
102
RTVSPropertyOp42
 70
     1
102
RTVSPropertyOp43
 70
     1
102
RTVSPropertyOp44
 70
     1
102
RTVSPropertyOp45
 70
     1
102
RTVSPropertyOp46
 70
     1
102
RTVSPropertyOp47
 70
     1
102
RTVSPropertyOp48
 70
     1
102
RTVSPropertyOp49
 70
     1
102
RTVSPropertyOp50
 70
     1
102
RTVSPropertyOp51
 70
     0
102
RTVSPropertyOp52
 70
     0
102
RTVSPropertyOp53
 70
     1
102
RTVSPropertyOp54
 70
     1
102
RTVSPropertyOp55
 70
     1
102
RTVSPropertyOp56
 70
     1
102
RTVSPropertyOp57
 70
     1
102
RTVSPost2010Prop28
280
     0
102
RTVSPost2010PropOp28
 70
     1
102
RTVSPost2010Prop29
280
     1
102
RTVSPost2010PropOp29
 70
     1
102
RTVSPost2010Prop30
280
     1
102
RTVSPost2010PropOp30
 70
     1
102
RTVSPost2010Prop31
280
     0
102
RTVSPost2010PropOp31
 70
     1
102
RTVSPost2010Prop32
280
     0
102
RTVSPost2010PropOp32
 70
     1
102
RTVSPost2010Prop33
280
     0
102
RTVSPost2010PropOp33
 70
     1
102
RTVSPost2010Prop34
280
     0
102
RTVSPost2010PropOp34
 70
     1
102
RTVSPost2010Prop35
280
     0
102
RTVSPost2010PropOp35
 70
     1
102
RTVSPost2010Prop36
280
     0
102
RTVSPost2010PropOp36
 70
     1
102
RTVSPost2010Prop37
 90
       50
102
RTVSPost2010PropOp37
 70
     1
102
RTVSPost2010Prop38
140
0.0
102
RTVSPost2010PropOp38
 70
     1
102
RTVSPost2010Prop39
140
1.0
102
RTVSPost2010PropOp39
 70
     1
102
RTVSPost2010Prop40
 90
        0
102
RTVSPost2010PropOp40
 70
     1
102
RTVSPost2010Prop41ColorIndex
 90
       18
102
RTVSPost2010Prop41ColorRGB
 90
        0
102
RTVSPost2010PropOp41
 70
     1
102
RTVSPost2010Prop42
 90
       50
102
RTVSPost2010PropOp42
 70
     1
102
RTVSPost2010Prop43
 90
        3
102
RTVSPost2010PropOp43
 70
     1
102
RTVSPost2010Prop44ColorIndex
 90
        5
102
RTVSPost2010Prop44ColorRGB
 90
      255
102
RTVSPost2010PropOp44
 70
     1
102
RTVSPost2010Prop45
280
     0
102
RTVSPost2010PropOp45
 70
     1
102
RTVSPost2010Prop46
 90
       50
102
RTVSPost2010PropOp46
 70
     1
102
RTVSPost2010Prop47
 90
       50
102
RTVSPost2010PropOp47
 70
     1
102
RTVSPost2010Prop48
 90
       50
102
RTVSPost2010PropOp48
 70
     1
102
RTVSPost2010Prop49
280
     0
102
RTVSPost2010PropOp49
 70
     1
102
RTVSPost2010Prop50
 90
       50
102
RTVSPost2010PropOp50
 70
     1
102
RTVSPost2010Prop51ColorIndex
 90
      256
102
RTVSPost2010Prop51ColorRGB
 90
-16777216
102
RTVSPost2010PropOp51
 70
     0
102
RTVSPost2010Prop52
140
1.0
102
RTVSPost2010PropOp52
 70
     0
102
RTVSPost2010Prop53
 90
        2
102
RTVSPost2010PropOp53
 70
     1
102
RTVSPost2010Prop54
  1
strokes_ogs.tif
102
RTVSPost2010PropOp54
 70
     1
102
RTVSPost2010Prop55
280
     0
102
RTVSPost2010PropOp55
 70
     1
102
RTVSPost2010Prop56
140
1.0
102
RTVSPost2010PropOp56
 70
     1
102
RTVSPost2010Prop57
140
1.0
102
RTVSPost2010PropOp57
 70
     1
  0
XRECORD
  5
49D
102
{ACAD_REACTORS
330
49C
102
}
330
49C
100
AcDbXrecord
280
     1
102
RTVSPropertyOp0
 70
     1
102
RTVSPropertyOp1
 70
     1
102
RTVSPropertyOp2
 70
     1
102
RTVSPropertyOp3
 70
     1
102
RTVSPropertyOp4
 70
     1
102
RTVSPropertyOp5
 70
     1
102
RTVSPropertyOp6
 70
     1
102
RTVSPropertyOp7
 70
     1
102
RTVSPropertyOp8
 70
     1
102
RTVSPropertyOp9
 70
     1
102
RTVSPropertyOp10
 70
     1
102
RTVSPropertyOp11
 70
     1
102
RTVSPropertyOp12
 70
     1
102
RTVSPropertyOp13
 70
     1
102
RTVSPropertyOp14
 70
     1
102
RTVSPropertyOp15
 70
     1
102
RTVSPropertyOp16
 70
     1
102
RTVSPropertyOp17
 70
     1
102
RTVSPropertyOp18
 70
     1
102
RTVSPropertyOp19
 70
     1
102
RTVSPropertyOp20
 70
     1
102
RTVSPropertyOp21
 70
     1
102
RTVSPropertyOp22
 70
     1
102
RTVSPropertyOp23
 70
     1
102
RTVSPropertyOp24
 70
     1
102
RTVSPropertyOp25
 70
     1
102
RTVSPropertyOp26
 70
     1
102
RTVSPropertyOp27
 70
     1
102
RTVSPropertyOp28
 70
     1
102
RTVSPropertyOp29
 70
     1
102
RTVSPropertyOp30
 70
     1
102
RTVSPropertyOp31
 70
     1
102
RTVSPropertyOp32
 70
     1
102
RTVSPropertyOp33
 70
     1
102
RTVSPropertyOp34
 70
     1
102
RTVSPropertyOp35
 70
     1
102
RTVSPropertyOp36
 70
     1
102
RTVSPropertyOp37
 70
     1
102
RTVSPropertyOp38
 70
     1
102
RTVSPropertyOp39
 70
     1
102
RTVSPropertyOp40
 70
     1
102
RTVSPropertyOp41
 70
     1
102
RTVSPropertyOp42
 70
     1
102
RTVSPropertyOp43
 70
     1
102
RTVSPropertyOp44
 70
     1
102
RTVSPropertyOp45
 70
     1
102
RTVSPropertyOp46
 70
     1
102
RTVSPropertyOp47
 70
     1
102
RTVSPropertyOp48
 70
     1
102
RTVSPropertyOp49
 70
     1
102
RTVSPropertyOp50
 70
     1
102
RTVSPropertyOp51
 70
     0
102
RTVSPropertyOp52
 70
     0
102
RTVSPropertyOp53
 70
     1
102
RTVSPropertyOp54
 70
     1
102
RTVSPropertyOp55
 70
     1
102
RTVSPropertyOp56
 70
     1
102
RTVSPropertyOp57
 70
     1
102
RTVSPost2010Prop28
280
     0
102
RTVSPost2010PropOp28
 70
     1
102
RTVSPost2010Prop29
280
     1
102
RTVSPost2010PropOp29
 70
     1
102
RTVSPost2010Prop30
280
     1
102
RTVSPost2010PropOp30
 70
     1
102
RTVSPost2010Prop31
280
     0
102
RTVSPost2010PropOp31
 70
     1
102
RTVSPost2010Prop32
280
     0
102
RTVSPost2010PropOp32
 70
     1
102
RTVSPost2010Prop33
280
     0
102
RTVSPost2010PropOp33
 70
     1
102
RTVSPost2010Prop34
280
     0
102
RTVSPost2010PropOp34
 70
     1
102
RTVSPost2010Prop35
280
     0
102
RTVSPost2010PropOp35
 70
     1
102
RTVSPost2010Prop36
280
     0
102
RTVSPost2010PropOp36
 70
     1
102
RTVSPost2010Prop37
 90
       50
102
RTVSPost2010PropOp37
 70
     1
102
RTVSPost2010Prop38
140
0.0
102
RTVSPost2010PropOp38
 70
     1
102
RTVSPost2010Prop39
140
1.0
102
RTVSPost2010PropOp39
 70
     1
102
RTVSPost2010Prop40
 90
        0
102
RTVSPost2010PropOp40
 70
     1
102
RTVSPost2010Prop41ColorIndex
 90
       18
102
RTVSPost2010Prop41ColorRGB
 90
        0
102
RTVSPost2010PropOp41
 70
     1
102
RTVSPost2010Prop42
 90
       50
102
RTVSPost2010PropOp42
 70
     1
102
RTVSPost2010Prop43
 90
        3
102
RTVSPost2010PropOp43
 70
     1
102
RTVSPost2010Prop44ColorIndex
 90
        5
102
RTVSPost2010Prop44ColorRGB
 90
      255
102
RTVSPost2010PropOp44
 70
     1
102
RTVSPost2010Prop45
280
     0
102
RTVSPost2010PropOp45
 70
     1
102
RTVSPost2010Prop46
 90
       50
102
RTVSPost2010PropOp46
 70
     1
102
RTVSPost2010Prop47
 90
       50
102
RTVSPost2010PropOp47
 70
     1
102
RTVSPost2010Prop48
 90
       50
102
RTVSPost2010PropOp48
 70
     1
102
RTVSPost2010Prop49
280
     0
102
RTVSPost2010PropOp49
 70
     1
102
RTVSPost2010Prop50
 90
       50
102
RTVSPost2010PropOp50
 70
     1
102
RTVSPost2010Prop51ColorIndex
 90
      256
102
RTVSPost2010Prop51ColorRGB
 90
-16777216
102
RTVSPost2010PropOp51
 70
     0
102
RTVSPost2010Prop52
140
1.0
102
RTVSPost2010PropOp52
 70
     0
102
RTVSPost2010Prop53
 90
        2
102
RTVSPost2010PropOp53
 70
     1
102
RTVSPost2010Prop54
  1
strokes_ogs.tif
102
RTVSPost2010PropOp54
 70
     1
102
RTVSPost2010Prop55
280
     0
102
RTVSPost2010PropOp55
 70
     1
102
RTVSPost2010Prop56
140
1.0
102
RTVSPost2010PropOp56
 70
     1
102
RTVSPost2010Prop57
140
1.0
102
RTVSPost2010PropOp57
 70
     1
  0
ENDSEC
  0
EOF
