  0
SECTION
  2
HEADER
  9
$ACADVER
  1
AC1015
  9
$ACADMAINTVER
 70
               6
  9
$DWGCODEPAGE
  3
ANSI_932
  9
$INSBASE
 10
0.0
 20
0.0
 30
0.0
  9
$EXTMIN
 10
-91.0
 20
-100.90299737644649
 30
0.0
  9
$EXTMAX
 10
103.53615865783794
 20
133.99251531481437
 30
0.0
  9
$LIMMIN
 10
0.0
 20
0.0
  9
$LIMMAX
 10
0.0
 20
0.0
  9
$ORTHOMODE
 70
               0
  9
$REGENMODE
 70
               1
  9
$FILLMODE
 70
               1
  9
$QTEXTMODE
 70
               0
  9
$MIRRTEXT
 70
               1
  9
$LTSCALE
 40
5.0800000000000001
  9
$ATTMODE
 70
               1
  9
$TEXTSIZE
 40
0.2
  9
$TRACEWID
 40
1.0
  9
$TEXTSTYLE
  7
Standard
  9
$CLAYER
  8
一般
  9
$CELTYPE
  6
Continuous
  9
$CECOLOR
 62
             256
  9
$CELTSCALE
 40
1.0
  9
$DISPSILH
 70
               0
  9
$DIMSCALE
 40
1.0
  9
$DIMASZ
 40
3.1749999999999998
  9
$DIMEXO
 40
1.5874999999999999
  9
$DIMDLI
 40
10.16
  9
$DIMRND
 40
0.0
  9
$DIMDLE
 40
1.5874999999999999
  9
$DIMEXE
 40
3.1749999999999998
  9
$DIMTP
 40
0.0
  9
$DIMTM
 40
0.0
  9
$DIMTXT
 40
3.257682291666673
  9
$DIMCEN
 40
0.0
  9
$DIMTSZ
 40
0.0
  9
$DIMTOL
 70
               0
  9
$DIMLIM
 70
               0
  9
$DIMTIH
 70
               0
  9
$DIMTOH
 70
               0
  9
$DIMSE1
 70
               0
  9
$DIMSE2
 70
               0
  9
$DIMTAD
 70
               1
  9
$DIMZIN
 70
              11
  9
$DIMBLK
  1
VW_SLASH
  9
$DIMASO
 70
               1
  9
$DIMSHO
 70
               1
  9
$DIMPOST
  1
<>
  9
$DIMAPOST
  1
[]
  9
$DIMALT
 70
               0
  9
$DIMALTD
 70
               3
  9
$DIMALTF
 40
0.0393700787401575
  9
$DIMLFAC
 40
1.0
  9
$DIMTOFL
 70
               1
  9
$DIMTVP
 40
0.0
  9
$DIMTIX
 70
               1
  9
$DIMSOXD
 70
               0
  9
$DIMSAH
 70
               0
  9
$DIMBLK1
  1

  9
$DIMBLK2
  1

  9
$DIMSTYLE
  2
Arch
  9
$DIMCLRD
 70
               0
  9
$DIMCLRE
 70
               0
  9
$DIMCLRT
 70
               0
  9
$DIMTFAC
 40
1.0
  9
$DIMGAP
 40
1.5874999999999999
  9
$DIMJUST
 70
               0
  9
$DIMSD1
 70
               0
  9
$DIMSD2
 70
               0
  9
$DIMTOLJ
 70
               1
  9
$DIMTZIN
 70
              11
  9
$DIMALTZ
 70
              15
  9
$DIMALTTZ
 70
              15
  9
$DIMUPT
 70
               0
  9
$DIMDEC
 70
               1
  9
$DIMTDEC
 70
               1
  9
$DIMALTU
 70
               4
  9
$DIMALTTD
 70
               2
  9
$DIMTXSTY
  7
HGPｺﾞｼｯｸM
  9
$DIMAUNIT
 70
               0
  9
$DIMADEC
 70
               2
  9
$DIMALTRND
 40
0.0
  9
$DIMAZIN
 70
               0
  9
$DIMDSEP
 70
              46
  9
$DIMATFIT
 70
               0
  9
$DIMFRAC
 70
               2
  9
$DIMLDRBLK
  1

  9
$DIMLUNIT
 70
               2
  9
$DIMLWD
 70
              -2
  9
$DIMLWE
 70
              -2
  9
$DIMTMOVE
 70
               0
  9
$LUNITS
 70
               2
  9
$LUPREC
 70
               4
  9
$SKETCHINC
 40
0.1
  9
$FILLETRAD
 40
0.0
  9
$AUNITS
 70
               0
  9
$AUPREC
 70
               0
  9
$MENU
  1
acad
  9
$ELEVATION
 40
0.0
  9
$PELEVATION
 40
0.0
  9
$THICKNESS
 40
0.0
  9
$LIMCHECK
 70
               0
  9
$CHAMFERA
 40
0.0
  9
$CHAMFERB
 40
0.0
  9
$CHAMFERC
 40
0.0
  9
$CHAMFERD
 40
0.0
  9
$SKPOLY
 70
               0
  9
$TDCREATE
 40
2459124.651319445
  9
$TDUCREATE
 40
0.000000000
  9
$TDUPDATE
 40
2459124.651319445
  9
$TDUUPDATE
 40
0.000000000
  9
$TDINDWG
 40
0.0000000000
  9
$TDUSRTIMER
 40
0.0000000000
  9
$USRTIMER
 70
               1
  9
$ANGBASE
 50
0.0
  9
$ANGDIR
 70
               0
  9
$PDMODE
 70
               1
  9
$PDSIZE
 40
-2.0
  9
$PLINEWID
 40
0.0
  9
$SPLFRAME
 70
               0
  9
$SPLINETYPE
 70
               6
  9
$SPLINESEGS
 70
               8
  9
$HANDSEED
  5
1D8
  9
$SURFTAB1
 70
               6
  9
$SURFTAB2
 70
               6
  9
$SURFTYPE
 70
               6
  9
$SURFU
 70
               6
  9
$SURFV
 70
               6
  9
$UCSBASE
  2

  9
$UCSNAME
  2

  9
$UCSORG
 10
0.0
 20
0.0
 30
0.0
  9
$UCSXDIR
 10
1.0
 20
0.0
 30
0.0
  9
$UCSYDIR
 10
0.0
 20
1.0
 30
0.0
  9
$UCSORTHOREF
  2

  9
$UCSORTHOVIEW
 70
               0
  9
$UCSORGTOP
 10
0.0
 20
0.0
 30
0.0
  9
$UCSORGBOTTOM
 10
0.0
 20
0.0
 30
0.0
  9
$UCSORGLEFT
 10
0.0
 20
0.0
 30
0.0
  9
$UCSORGRIGHT
 10
0.0
 20
0.0
 30
0.0
  9
$UCSORGFRONT
 10
0.0
 20
0.0
 30
0.0
  9
$UCSORGBACK
 10
0.0
 20
0.0
 30
0.0
  9
$PUCSBASE
  2

  9
$PUCSNAME
  2

  9
$PUCSORG
 10
0.0
 20
0.0
 30
0.0
  9
$PUCSXDIR
 10
1.0
 20
0.0
 30
0.0
  9
$PUCSYDIR
 10
0.0
 20
1.0
 30
0.0
  9
$PUCSORTHOREF
  2

  9
$PUCSORTHOVIEW
 70
               0
  9
$PUCSORGTOP
 10
0.0
 20
0.0
 30
0.0
  9
$PUCSORGBOTTOM
 10
0.0
 20
0.0
 30
0.0
  9
$PUCSORGLEFT
 10
0.0
 20
0.0
 30
0.0
  9
$PUCSORGRIGHT
 10
0.0
 20
0.0
 30
0.0
  9
$PUCSORGFRONT
 10
0.0
 20
0.0
 30
0.0
  9
$PUCSORGBACK
 10
0.0
 20
0.0
 30
0.0
  9
$USERI1
 70
               0
  9
$USERI2
 70
               0
  9
$USERI3
 70
               0
  9
$USERI4
 70
               0
  9
$USERI5
 70
               0
  9
$USERR1
 40
0.0
  9
$USERR2
 40
0.0
  9
$USERR3
 40
0.0
  9
$USERR4
 40
0.0
  9
$USERR5
 40
0.0
  9
$WORLDVIEW
 70
               1
  9
$SHADEDGE
 70
               3
  9
$SHADEDIF
 70
              70
  9
$TILEMODE
 70
               1
  9
$MAXACTVP
 70
              64
  9
$PINSBASE
 10
0.0
 20
0.0
 30
0.0
  9
$PLIMCHECK
 70
               0
  9
$PEXTMIN
 10
1.0000000000000000E+20
 20
1.0000000000000000E+20
 30
1.0000000000000000E+20
  9
$PEXTMAX
 10
-1.0000000000000000E+20
 20
-1.0000000000000000E+20
 30
-1.0000000000000000E+20
  9
$PLIMMIN
 10
0.0
 20
0.0
  9
$PLIMMAX
 10
12.0
 20
9.0
  9
$UNITMODE
 70
               0
  9
$VISRETAIN
 70
               0
  9
$PLINEGEN
 70
               1
  9
$PSLTSCALE
 70
               0
  9
$TREEDEPTH
 70
            3020
  9
$CMLSTYLE
  2
Standard
  9
$CMLJUST
 70
               0
  9
$CMLSCALE
 40
1.0
  9
$PROXYGRAPHICS
 70
               0
  9
$MEASUREMENT
 70
               1
  9
$CELWEIGHT
370
               0
  9
$ENDCAPS
280
               0
  9
$JOINSTYLE
280
               0
  9
$LWDISPLAY
290
               1
  9
$INSUNITS
 70
               4
  9
$HYPERLINKBASE
  1

  9
$STYLESHEET
  1

  9
$XEDIT
290
               1
  9
$CEPSNTYPE
380
               0
  9
$PSTYLEMODE
290
               1
  9
$FINGERPRINTGUID
  2

  9
$VERSIONGUID
  2

  9
$EXTNAMES
290
               1
  9
$PSVPSCALE
 40
0.0
  0
ENDSEC
  0
SECTION
  2
CLASSES
  0
CLASS
  1
LWPOLYLINE
  2
AcDbPolyline
  3
AutoCAD 2000
 90
        0
280
               0
281
               1
  0
CLASS
  1
IMAGE
  2
AcDbRasterImage
  3
ISM
 90
      127
280
               0
281
               1
  0
CLASS
  1
OLE2FRAME
  2
AcDbOle2Frame
  3
AutoCAD 2000
 90
        0
280
               0
281
               1
  0
CLASS
  1
HATCH
  2
AcDbHatch
  3
AutoCAD 2000
 90
        0
280
               0
281
               1
  0
CLASS
  1
DICTIONARYVAR
  2
AcDbDictionaryVar
  3
AutoCAD 2000
 90
        0
280
               0
281
               0
  0
CLASS
  1
RASTERVARIABLES
  2
AcDbRasterVariables
  3
ISM
 90
        0
280
               0
281
               0
  0
CLASS
  1
IMAGEDEF
  2
AcDbRasterImageDef
  3
ISM
 90
        0
280
               0
281
               0
  0
CLASS
  1
IMAGEDEF_REACTOR
  2
AcDbRasterImageDefReactor
  3
ISM
 90
        1
280
               0
281
               0
  0
CLASS
  1
IDBUFFER
  2
AcDbIdBuffer
  3
AutoCAD 2000
 90
        0
280
               0
281
               0
  0
CLASS
  1
SPATIAL_FILTER
  2
AcDbSpatialFilter
  3
AutoCAD 2000
 90
        0
280
               0
281
               0
  0
CLASS
  1
XRECORD
  2
AcDbXrecord
  3
AutoCAD 2000
 90
        0
280
               0
281
               0
  0
CLASS
  1
SORTENTSTABLE
  2
AcDbSortentsTable
  3
AutoCAD 2000
 90
        0
280
               0
281
               0
  0
CLASS
  1
LAYER_INDEX
  2
AcDbLayerIndex
  3
AutoCAD 2000
 90
        0
280
               0
281
               0
  0
CLASS
  1
SPATIAL_INDEX
  2
AcDbSpatialIndex
  3
AutoCAD 2000
 90
        0
280
               0
281
               0
  0
CLASS
  1
OBJECT_PTR
  2
CAseDLPNTableRecord
  3
"ASE-LPNTableRecord"
 90
        1
280
               0
281
               0
  0
CLASS
  1
LAYOUT
  2
AcDbLayout
  3
AutoCAD 2000
 90
        0
280
               0
281
               0
  0
CLASS
  1
PLOTSETTINGS
  2
AcDbPlotSettings
  3
AutoCAD 2000
 90
        0
280
               0
281
               0
  0
CLASS
  1
ACDBDICTIONARYWDFLT
  2
AcDbDictionaryWithDefault
  3
AutoCAD 2000
 90
        0
280
               0
281
               0
  0
CLASS
  1
ACDBPLACEHOLDER
  2
AcDbPlaceHolder
  3
AutoCAD 2000
 90
        0
280
               0
281
               0
  0
CLASS
  1
VBA_PROJECT
  2
AcDbVbaProject
  3
acadvba
 90
        0
280
               0
281
               0
  0
CLASS
  1
WIPEOUT
  2
AcDbWipeout
  3
WipeOut|AutoCAD Express Tool|expresstools@autodesk.com
 90
      127
280
               0
281
               1
  0
CLASS
  1
WIPEOUTVARIABLES
  2
AcDbWipeoutVariables
  3
WipeOut|AutoCAD Express Tool|expresstools@autodesk.com
 90
        0
280
               0
281
               0
  0
CLASS
  1
RTEXT
  2
RText
  3
RText|AutoCAD Express Tool|expresstools@autodesk.com
 90
        0
280
               0
281
               1
  0
CLASS
  1
ARCALIGNEDTEXT
  2
AcDbArcAlignedText
  3
ATEXT|AutoCAD Express Tool|expresstools@autodesk.com
 90
        0
280
               0
281
               1
  0
ENDSEC
  0
SECTION
  2
TABLES
  0
TABLE
  2
VPORT
  5
7
100
AcDbSymbolTable
 70
               1
  0
VPORT
  5
15
100
AcDbSymbolTableRecord
100
AcDbViewportTableRecord
  2
*ACTIVE
 70
               0
 10
0.0
 20
0.0
 11
1.0
 21
1.0
 12
6.2680793289189722
 22
16.544758969183945
 13
0.0
 23
0.0
 14
1.0
 24
1.0
 15
0.0
 25
0.0
 16
0.0
 26
0.0
 36
1.0
 17
0.0
 27
0.0
 37
0.0
 40
234.89551269126088
 41
0.688564
 42
50.0
 43
0.0
 44
0.0
 50
0.0
 51
0.0
 71
               0
 72
            2000
 73
               1
 74
               1
 75
               0
 76
               0
 77
               0
 78
               0
281
               0
 65
               0
110
0.0
120
0.0
130
0.0
111
1.0
121
0.0
131
0.0
112
0.0
122
1.0
132
0.0
345
0
346
0
 79
               0
146
0.0
  0
ENDTAB
  0
TABLE
  2
LTYPE
  5
4
100
AcDbSymbolTable
 70
              18
  0
LTYPE
  5
11
100
AcDbSymbolTableRecord
100
AcDbLinetypeTableRecord
  2
ByBlock
 70
              64
  3

 72
              65
 73
               0
 40
0.0
  0
LTYPE
  5
12
100
AcDbSymbolTableRecord
100
AcDbLinetypeTableRecord
  2
ByLayer
 70
              64
  3

 72
              65
 73
               0
 40
0.0
  0
LTYPE
  5
13
100
AcDbSymbolTableRecord
100
AcDbLinetypeTableRecord
  2
Continuous
 70
              64
  3
Solid line
 72
              65
 73
               0
 40
0.0
  0
LTYPE
  5
31
100
AcDbSymbolTableRecord
100
AcDbLinetypeTableRecord
  2
STYLE_01
 70
               0
  3

 72
              65
 73
               2
 40
0.41664
 49
0.20828
 74
               0
 49
-0.20836
 74
               0
  0
LTYPE
  5
32
100
AcDbSymbolTableRecord
100
AcDbLinetypeTableRecord
  2
STYLE_02
 70
               0
  3

 72
              65
 73
               2
 40
0.6944250000000001
 49
0.48607
 74
               0
 49
-0.2083550000000001
 74
               0
  0
LTYPE
  5
33
100
AcDbSymbolTableRecord
100
AcDbLinetypeTableRecord
  2
STYLE_03
 70
               0
  3

 72
              65
 73
               2
 40
1.25
 49
1.0416400000000001
 74
               0
 49
-0.2083599999999999
 74
               0
  0
LTYPE
  5
34
100
AcDbSymbolTableRecord
100
AcDbLinetypeTableRecord
  2
STYLE_04
 70
               0
  3

 72
              65
 73
               2
 40
1.5277099999999999
 49
1.3194249999999998
 74
               0
 49
-0.208285
 74
               0
  0
LTYPE
  5
35
100
AcDbSymbolTableRecord
100
AcDbLinetypeTableRecord
  2
STYLE_05
 70
               0
  3

 72
              65
 73
               2
 40
0.20828
 49
0.069425
 74
               0
 49
-0.138855
 74
               0
  0
LTYPE
  5
36
100
AcDbSymbolTableRecord
100
AcDbLinetypeTableRecord
  2
STYLE_06
 70
               0
  3

 72
              65
 73
               4
 40
1.0416400000000001
 49
0.625
 74
               0
 49
-0.20828
 74
               0
 49
0.06943
 74
               0
 49
-0.13893
 74
               0
  0
LTYPE
  5
37
100
AcDbSymbolTableRecord
100
AcDbLinetypeTableRecord
  2
STYLE_07
 70
               0
  3

 72
              65
 73
               6
 40
1.875
 49
0.625
 74
               0
 49
-0.20828
 74
               0
 49
0.6250000000000001
 74
               0
 49
-0.2083599999999999
 74
               0
 49
0.06943
 74
               0
 49
-0.1389299999999999
 74
               0
  0
LTYPE
  5
38
100
AcDbSymbolTableRecord
100
AcDbLinetypeTableRecord
  2
STYLE_08
 70
               0
  3

 72
              65
 73
               6
 40
1.25
 49
0.625
 74
               0
 49
-0.20828
 74
               0
 49
0.06943
 74
               0
 49
-0.13893
 74
               0
 49
0.0694299999999999
 74
               0
 49
-0.13893
 74
               0
  0
LTYPE
  5
39
100
AcDbSymbolTableRecord
100
AcDbLinetypeTableRecord
  2
STYLE_09
 70
               0
  3

 72
              65
 73
               4
 40
5.0
 49
3.75
 74
               0
 49
-0.2777849999999998
 74
               0
 49
0.6944300000000003
 74
               0
 49
-0.2777849999999998
 74
               0
  0
LTYPE
  5
3A
100
AcDbSymbolTableRecord
100
AcDbLinetypeTableRecord
  2
STYLE_10
 70
               0
  3

 72
              65
 73
               6
 40
5.9375
 49
3.75
 74
               0
 49
-0.2777849999999998
 74
               0
 49
0.6944300000000003
 74
               0
 49
-0.2777849999999998
 74
               0
 49
0.625
 74
               0
 49
-0.3125
 74
               0
  0
LTYPE
  5
3B
100
AcDbSymbolTableRecord
100
AcDbLinetypeTableRecord
  2
STYLE_11
 70
               0
  3

 72
              65
 73
               2
 40
0.2501678466796875
 49
0.166778564453125
 74
               0
 49
-0.0833892822265625
 74
               0
  0
LTYPE
  5
3C
100
AcDbSymbolTableRecord
100
AcDbLinetypeTableRecord
  2
STYLE_12
 70
               0
  3

 72
              65
 73
               6
 40
2.4999999999999996
 49
1.25
 74
               0
 49
-0.2499999999999999
 74
               0
 49
0.2499999999999999
 74
               0
 49
-0.2499999999999999
 74
               0
 49
0.2499999999999999
 74
               0
 49
-0.2499999999999999
 74
               0
  0
LTYPE
  5
3D
100
AcDbSymbolTableRecord
100
AcDbLinetypeTableRecord
  2
STYLE_13
 70
               0
  3

 72
              65
 73
               2
 40
0.625
 49
0.3125
 74
               0
 49
-0.3125
 74
               0
  0
LTYPE
  5
3E
100
AcDbSymbolTableRecord
100
AcDbLinetypeTableRecord
  2
STYLE_14
 70
               0
  3

 72
              65
 73
               2
 40
0.3125
 49
0.15625
 74
               0
 49
-0.15625
 74
               0
  0
LTYPE
  5
3F
100
AcDbSymbolTableRecord
100
AcDbLinetypeTableRecord
  2
STYLE_15
 70
               0
  3

 72
              65
 73
               4
 40
0.6671142578125
 49
0.33355712890625
 74
               0
 49
-0.166778564453125
 74
               0
 49
0.0005340576171875
 74
               0
 49
-0.1662445068359375
 74
               0
  0
ENDTAB
  0
TABLE
  2
LAYER
  5
2
100
AcDbSymbolTable
 70
              12
  0
LAYER
  5
14
100
AcDbSymbolTableRecord
100
AcDbLayerTableRecord
  2
0
 70
               0
 62
               7
  6
Continuous
290
               1
370
              15
390
1D
  0
LAYER
  5
40
100
AcDbSymbolTableRecord
100
AcDbLayerTableRecord
  2
一般
 70
               0
 62
               7
  6
Continuous
290
               1
370
               5
390
1D
  0
LAYER
  5
41
100
AcDbSymbolTableRecord
100
AcDbLayerTableRecord
  2
寸法
 70
               0
 62
               7
  6
Continuous
290
               1
370
               5
390
1D
  0
LAYER
  5
42
100
AcDbSymbolTableRecord
100
AcDbLayerTableRecord
  2
70-0
 70
               0
 62
               7
  6
Continuous
290
               1
370
               5
390
1D
  0
LAYER
  5
43
100
AcDbSymbolTableRecord
100
AcDbLayerTableRecord
  2
壁
 70
               0
 62
               7
  6
Continuous
290
               1
370
               5
390
1D
  0
LAYER
  5
44
100
AcDbSymbolTableRecord
100
AcDbLayerTableRecord
  2
_0-0_
 70
               0
 62
               7
  6
Continuous
290
               1
370
              15
390
1D
  0
LAYER
  5
45
100
AcDbSymbolTableRecord
100
AcDbLayerTableRecord
  2
一般-0
 70
               0
 62
               7
  6
Continuous
290
               1
370
               5
390
1D
  0
LAYER
  5
46
100
AcDbSymbolTableRecord
100
AcDbLayerTableRecord
  2
什器
 70
               0
 62
               7
  6
Continuous
290
               1
370
               9
390
1D
  0
LAYER
  5
47
100
AcDbSymbolTableRecord
100
AcDbLayerTableRecord
  2
INAX_SHAPE2
 70
               0
 62
               7
  6
Continuous
290
               1
370
              15
390
1D
  0
LAYER
  5
48
100
AcDbSymbolTableRecord
100
AcDbLayerTableRecord
  2
INAX_SHAPE1
 70
               0
 62
               7
  6
Continuous
290
               1
370
              15
390
1D
  0
LAYER
  5
49
100
AcDbSymbolTableRecord
100
AcDbLayerTableRecord
  2
INAX_POINT
 70
               0
 62
               7
  6
Continuous
290
               1
370
              15
390
1D
  0
LAYER
  5
4A
100
AcDbSymbolTableRecord
100
AcDbLayerTableRecord
  2
Defpoints
 70
               0
 62
               7
  6
Continuous
290
               0
370
              -3
390
1D
  0
ENDTAB
  0
TABLE
  2
STYLE
  5
3
100
AcDbSymbolTable
 70
               2
  0
STYLE
  5
17
100
AcDbSymbolTableRecord
100
AcDbTextStyleTableRecord
  2
Standard
 70
               0
 40
0.0
 41
1.0
 50
0.0
 71
               0
 42
0.0
  3
txt
  4
BIGFONT.SHX
  0
STYLE
  5
30
100
AcDbSymbolTableRecord
100
AcDbTextStyleTableRecord
  2
HGPｺﾞｼｯｸM
 70
               0
 40
0.0
 41
1.0
 50
0.0
 71
               0
 42
0.0
  3

  4
HGPｺﾞｼｯｸM
1001
ACAD
1000
HGPｺﾞｼｯｸM
1071
        0
  0
ENDTAB
  0
TABLE
  2
VIEW
  5
5
100
AcDbSymbolTable
 70
               0
  0
ENDTAB
  0
TABLE
  2
UCS
  5
6
100
AcDbSymbolTable
 70
               0
  0
ENDTAB
  0
TABLE
  2
APPID
  5
8
100
AcDbSymbolTable
 70
               1
  0
APPID
  5
16
100
AcDbSymbolTableRecord
100
AcDbRegAppTableRecord
  2
ACAD
 70
               0
  0
ENDTAB
  0
TABLE
  2
DIMSTYLE
  5
9
100
AcDbSymbolTable
 70
               3
100
AcDbDimStyleTable
 71
               0
  0
DIMSTYLE
105
18
100
AcDbSymbolTableRecord
100
AcDbDimStyleTableRecord
  2
Standard
 70
               0
  3

  4

 40
1.0
 41
0.18
 42
0.0625
 43
0.38
 44
0.18
 45
0.0
 46
0.0
 47
0.0
 48
0.0
 71
               0
 72
               0
 73
               1
 74
               1
 75
               0
 76
               0
 77
               0
 78
               0
 79
               0
140
0.18
141
0.09
142
0.0
143
25.399999999999999
144
1.0
145
0.0
146
1.0
147
0.09
148
0.0
170
               0
171
               2
172
               0
173
               0
174
               0
175
               0
176
               0
177
               0
178
               0
179
               0
271
               4
272
               4
273
               2
274
               2
275
               0
276
               0
277
               2
278
              46
279
               0
280
               0
281
               0
282
               0
283
               1
284
               0
285
               0
286
               0
288
               0
289
               3
340
17
341
0
342
0
343
0
344
0
371
              -2
372
              -2
  0
DIMSTYLE
105
5C
100
AcDbSymbolTableRecord
100
AcDbDimStyleTableRecord
  2
Arch
 70
               0
  3
<>
  4
[]
 40
1.0
 41
3.1749999999999998
 42
1.5874999999999999
 43
10.16
 44
3.1749999999999998
 45
0.0
 46
1.5874999999999999
 47
0.0
 48
0.0
 71
               0
 72
               0
 73
               0
 74
               0
 75
               0
 76
               0
 77
               1
 78
              11
 79
               0
140
3.257682291666673
141
0.0
142
0.0
143
0.0393700787401575
144
1.0
145
0.0
146
1.0
147
1.5874999999999999
148
0.0
170
               0
171
               3
172
               1
173
               0
174
               1
175
               0
176
               0
177
               0
178
               0
179
               2
271
               1
272
               1
273
               4
274
               2
275
               0
276
               2
277
               2
278
              46
279
               0
280
               0
281
               0
282
               0
283
               1
284
              11
285
              15
286
              15
288
               0
289
               0
340
30
341
53
342
4B
343
0
344
0
371
              -2
372
              -2
  0
DIMSTYLE
105
5D
100
AcDbSymbolTableRecord
100
AcDbDimStyleTableRecord
  2
ISO
 70
               0
  3
<>
  4
[]
 40
1.0
 41
3.1749999999999998
 42
0.0
 43
6.9999999999999396
 44
1.9999999999996199
 45
0.0
 46
0.0
 47
0.0
 48
0.0
 71
               0
 72
               0
 73
               0
 74
               0
 75
               0
 76
               0
 77
               1
 78
              11
 79
               0
140
3.257682291666673
141
0.0
142
0.0
143
0.0393700787401575
144
1.0
145
0.0
146
1.0
147
1.00000000000108
148
0.0
170
               0
171
               3
172
               1
173
               0
174
               1
175
               0
176
               0
177
               0
178
               0
179
               2
271
               1
272
               1
273
               4
274
               2
275
               0
276
               2
277
               2
278
              46
279
               0
280
               0
281
               0
282
               0
283
               1
284
              11
285
              15
286
              15
288
               0
289
               0
340
30
341
53
342
53
343
0
344
0
371
              -2
372
              -2
  0
ENDTAB
  0
TABLE
  2
BLOCK_RECORD
  5
1
100
AcDbSymbolTable
 70
              14
  0
BLOCK_RECORD
  5
A
100
AcDbSymbolTableRecord
100
AcDbBlockTableRecord
  2
*MODEL_SPACE
340
20
  0
BLOCK_RECORD
  5
B
100
AcDbSymbolTableRecord
100
AcDbBlockTableRecord
  2
*PAPER_SPACE
340
21
  0
BLOCK_RECORD
  5
4B
100
AcDbSymbolTableRecord
100
AcDbBlockTableRecord
  2
VW_SLASH
340
0
  0
BLOCK_RECORD
  5
53
100
AcDbSymbolTableRecord
100
AcDbBlockTableRecord
  2
VW_FILLEDARROW
340
0
  0
BLOCK_RECORD
  5
24
100
AcDbSymbolTableRecord
100
AcDbBlockTableRecord
  2
*D2
340
0
  0
BLOCK_RECORD
  5
25
100
AcDbSymbolTableRecord
100
AcDbBlockTableRecord
  2
*D3
340
0
  0
BLOCK_RECORD
  5
26
100
AcDbSymbolTableRecord
100
AcDbBlockTableRecord
  2
*D4
340
0
  0
BLOCK_RECORD
  5
27
100
AcDbSymbolTableRecord
100
AcDbBlockTableRecord
  2
*D5
340
0
  0
BLOCK_RECORD
  5
28
100
AcDbSymbolTableRecord
100
AcDbBlockTableRecord
  2
*D6
340
0
  0
BLOCK_RECORD
  5
29
100
AcDbSymbolTableRecord
100
AcDbBlockTableRecord
  2
*D7
340
0
  0
BLOCK_RECORD
  5
2A
100
AcDbSymbolTableRecord
100
AcDbBlockTableRecord
  2
*D8
340
0
  0
BLOCK_RECORD
  5
2B
100
AcDbSymbolTableRecord
100
AcDbBlockTableRecord
  2
*D9
340
0
  0
BLOCK_RECORD
  5
2C
100
AcDbSymbolTableRecord
100
AcDbBlockTableRecord
  2
*D10
340
0
  0
BLOCK_RECORD
  5
2D
100
AcDbSymbolTableRecord
100
AcDbBlockTableRecord
  2
*D11
340
0
  0
BLOCK_RECORD
  5
2E
100
AcDbSymbolTableRecord
100
AcDbBlockTableRecord
  2
*D12
340
0
  0
BLOCK_RECORD
  5
2F
100
AcDbSymbolTableRecord
100
AcDbBlockTableRecord
  2
*D13
340
0
  0
ENDTAB
  0
ENDSEC
  0
SECTION
  2
BLOCKS
  0
BLOCK
  5
D
100
AcDbEntity
  8
0
390
0
100
AcDbBlockBegin
  2
*MODEL_SPACE
 70
               0
 10
0.0
 20
0.0
 30
0.0
  3
*MODEL_SPACE
  1

  0
ENDBLK
  5
E
100
AcDbEntity
  8
0
390
0
100
AcDbBlockEnd
  0
BLOCK
  5
F
100
AcDbEntity
 67
               1
  8
0
390
0
100
AcDbBlockBegin
  2
*PAPER_SPACE
 70
               0
 10
0.0
 20
0.0
 30
0.0
  3
*PAPER_SPACE
  1

  0
ENDBLK
  5
10
100
AcDbEntity
 67
               1
  8
0
390
0
100
AcDbBlockEnd
  0
BLOCK
  5
4C
100
AcDbEntity
  8
0
370
              -2
390
0
  6
ByBlock
 62
               0
100
AcDbBlockBegin
  2
VW_SLASH
 70
               0
 10
0.0
 20
0.0
 30
0.0
  3
VW_SLASH
  1

  0
LINE
  5
4D
100
AcDbEntity
  8
0
370
              -2
390
0
  6
ByBlock
 62
               0
100
AcDbLine
 10
0.0
 20
0.0
 30
0.0
 11
-1.0
 21
0.0
 31
0.0
  0
POLYLINE
  5
4E
100
AcDbEntity
  8
一般
370
              20
390
0
  6
Continuous
 62
               0
100
AcDb2dPolyline
 66
               1
 10
0.0
 20
0.0
 30
0.0
 75
               5
  0
VERTEX
  5
4F
100
AcDbEntity
  8
一般
370
              20
390
0
  6
Continuous
 62
               0
100
AcDbVertex
100
AcDb2dVertex
 10
0.3535318114068362
 20
0.3535318114068361
 30
0.0
  0
VERTEX
  5
50
100
AcDbEntity
  8
一般
370
              20
390
0
  6
Continuous
 62
               0
100
AcDbVertex
100
AcDb2dVertex
 10
-0.3535318114068361
 20
-0.3535318114068362
 30
0.0
  0
SEQEND
  5
51
100
AcDbEntity
  8
一般
370
              20
390
0
  6
Continuous
 62
               0
  0
ENDBLK
  5
52
100
AcDbEntity
  8
0
390
0
100
AcDbBlockEnd
  0
BLOCK
  5
54
100
AcDbEntity
  8
0
370
              -2
390
0
  6
ByBlock
 62
               0
100
AcDbBlockBegin
  2
VW_FILLEDARROW
 70
               0
 10
0.0
 20
0.0
 30
0.0
  3
VW_FILLEDARROW
  1

  0
POLYLINE
  5
55
102
{ACAD_REACTORS
330
5A
102
}
100
AcDbEntity
  8
一般
370
               5
390
0
  6
Continuous
 62
               0
100
AcDb2dPolyline
 66
               1
 10
0.0
 20
0.0
 30
0.0
 70
               1
 75
               5
  0
VERTEX
  5
56
100
AcDbEntity
  8
一般
370
               5
390
0
  6
Continuous
 62
               0
100
AcDbVertex
100
AcDb2dVertex
 10
-0.9999389648437499
 20
0.2679328381102956
 30
0.0
  0
VERTEX
  5
57
100
AcDbEntity
  8
一般
370
               5
390
0
  6
Continuous
 62
               0
100
AcDbVertex
100
AcDb2dVertex
 10
0.0
 20
0.0
 30
0.0
  0
VERTEX
  5
58
100
AcDbEntity
  8
一般
370
               5
390
0
  6
Continuous
 62
               0
100
AcDbVertex
100
AcDb2dVertex
 10
-0.9999389648437498
 20
-0.2679328381102958
 30
0.0
  0
SEQEND
  5
59
100
AcDbEntity
  8
一般
370
               5
390
0
  6
Continuous
 62
               0
  0
HATCH
  5
5A
100
AcDbEntity
  8
0
370
               0
390
0
  6
ByBlock
 62
               0
100
AcDbHatch
 10
0.0
 20
0.0
 30
0.0
210
0.0
220
0.0
230
1.0
  2
SOLID
 70
               1
 71
               1
 91
        1
 92
        1
 93
        3
 72
               1
 10
-0.9999389648437499
 20
0.2679328381102956
 11
0.0
 21
0.0
 72
               1
 10
0.0
 20
0.0
 11
-0.9999389648437498
 21
-0.2679328381102958
 72
               1
 10
-0.9999389648437498
 20
-0.2679328381102958
 11
-0.9999389648437499
 21
0.2679328381102956
 97
        1
330
55
 75
               0
 76
               1
 98
        1
 10
0.0
 20
0.0
  0
ENDBLK
  5
5B
100
AcDbEntity
  8
0
390
0
100
AcDbBlockEnd
  0
BLOCK
  5
5E
100
AcDbEntity
  8
寸法
390
0
100
AcDbBlockBegin
  2
*D2
 70
               1
 10
0.0
 20
0.0
 30
0.0
  3
*D2
  1

  0
LINE
  5
5F
100
AcDbEntity
  8
寸法
370
              -2
390
0
  6
Continuous
 62
               0
100
AcDbLine
 10
-45.968193194404137
 20
-27.956018207112734
 30
0.0
 11
-13.268476406332731
 21
-27.956018207112731
 31
0.0
  0
LINE
  5
60
100
AcDbEntity
  8
寸法
370
              -2
390
0
  6
Continuous
 62
               0
100
AcDbLine
 10
-45.968193194404137
 20
36.043981792887273
 30
0.0
 11
-13.268476406332734
 21
36.043981792887273
 31
0.0
  0
LINE
  5
61
100
AcDbEntity
  8
寸法
370
              -2
390
0
  6
Continuous
 62
               0
100
AcDbLine
 10
-15.268476406332351
 20
-27.956018207112734
 30
0.0
 11
-15.268476406332354
 21
36.043981792887273
 31
0.0
  0
POLYLINE
  5
62
102
{ACAD_REACTORS
330
67
102
}
100
AcDbEntity
  8
一般
370
               5
390
0
  6
Continuous
 62
               0
100
AcDb2dPolyline
 66
               1
 10
0.0
 20
0.0
 30
0.0
 70
               1
 75
               5
  0
VERTEX
  5
63
100
AcDbEntity
  8
一般
370
               5
390
0
  6
Continuous
 62
               0
100
AcDbVertex
100
AcDb2dVertex
 10
-14.417737720363537
 20
-24.781018207112734
 30
0.0
  0
VERTEX
  5
64
100
AcDbEntity
  8
一般
370
               5
390
0
  6
Continuous
 62
               0
100
AcDbVertex
100
AcDb2dVertex
 10
-15.268476406332351
 20
-27.956018207112734
 30
0.0
  0
VERTEX
  5
65
100
AcDbEntity
  8
一般
370
               5
390
0
  6
Continuous
 62
               0
100
AcDbVertex
100
AcDb2dVertex
 10
-16.119215092301165
 20
-24.781018207112734
 30
0.0
  0
SEQEND
  5
66
100
AcDbEntity
  8
一般
370
               5
390
0
  6
Continuous
 62
               0
  0
HATCH
  5
67
100
AcDbEntity
  8
寸法
370
               0
390
0
  6
Continuous
 62
               0
100
AcDbHatch
 10
0.0
 20
0.0
 30
0.0
210
0.0
220
0.0
230
1.0
  2
SOLID
 70
               1
 71
               1
 91
        1
 92
        1
 93
        3
 72
               1
 10
-14.417737720363537
 20
-24.781018207112734
 11
-15.268476406332351
 21
-27.956018207112734
 72
               1
 10
-15.268476406332351
 20
-27.956018207112734
 11
-16.119215092301165
 21
-24.781018207112734
 72
               1
 10
-16.119215092301165
 20
-24.781018207112734
 11
-14.417737720363537
 21
-24.781018207112734
 97
        1
330
62
 75
               0
 76
               1
 98
        1
 10
0.0
 20
0.0
  0
POLYLINE
  5
68
102
{ACAD_REACTORS
330
6D
102
}
100
AcDbEntity
  8
一般
370
               5
390
0
  6
Continuous
 62
               0
100
AcDb2dPolyline
 66
               1
 10
0.0
 20
0.0
 30
0.0
 70
               1
 75
               5
  0
VERTEX
  5
69
100
AcDbEntity
  8
一般
370
               5
390
0
  6
Continuous
 62
               0
100
AcDbVertex
100
AcDb2dVertex
 10
-16.119215092301168
 20
32.868981792887276
 30
0.0
  0
VERTEX
  5
6A
100
AcDbEntity
  8
一般
370
               5
390
0
  6
Continuous
 62
               0
100
AcDbVertex
100
AcDb2dVertex
 10
-15.268476406332354
 20
36.043981792887273
 30
0.0
  0
VERTEX
  5
6B
100
AcDbEntity
  8
一般
370
               5
390
0
  6
Continuous
 62
               0
100
AcDbVertex
100
AcDb2dVertex
 10
-14.41773772036354
 20
32.868981792887276
 30
0.0
  0
SEQEND
  5
6C
100
AcDbEntity
  8
一般
370
               5
390
0
  6
Continuous
 62
               0
  0
HATCH
  5
6D
100
AcDbEntity
  8
寸法
370
               0
390
0
  6
Continuous
 62
               0
100
AcDbHatch
 10
0.0
 20
0.0
 30
0.0
210
0.0
220
0.0
230
1.0
  2
SOLID
 70
               1
 71
               1
 91
        1
 92
        1
 93
        3
 72
               1
 10
-16.119215092301168
 20
32.868981792887276
 11
-15.268476406332354
 21
36.043981792887273
 72
               1
 10
-15.268476406332354
 20
36.043981792887273
 11
-14.41773772036354
 21
32.868981792887276
 72
               1
 10
-14.41773772036354
 20
32.868981792887276
 11
-16.119215092301168
 21
32.868981792887276
 97
        1
330
68
 75
               0
 76
               1
 98
        1
 10
0.0
 20
0.0
  0
WIPEOUT
  5
6E
100
AcDbEntity
  8
寸法
370
              -2
390
0
  6
Continuous
 62
               0
 92
        0
100
AcDbWipeout
 90
        0
 10
-21.089309739665694
 20
1.5800495012206026
 30
0.0
 11
4.9278645833333332
 21
0.0
 31
0.0
 12
0.0
 22
4.9278645833333332
 32
0.0
 13
1.0
 23
1.0
340
0
 70
               7
280
               1
281
              50
282
              50
283
               0
360
0
 71
               2
 91
        5
 14
0.3590604026845654
 24
0.5
 14
0.3590604026845654
 24
-0.5
 14
-0.5
 24
-0.5
 14
-0.5
 24
0.5
 14
0.3590604026845654
 24
0.5
  0
MTEXT
  5
6F
100
AcDbEntity
  8
寸法
390
0
 62
               0
100
AcDbMText
 10
-20.706325364665695
 20
1.5800495012206026
 30
0.0
 40
3.257682291666673
 41
0.0
 71
               1
 72
               1
  1
{\fHGPｺﾞｼｯｸM|b0|i0|c128|p0;\l64}
 11
0.0
 21
1.0
 31
0.0
 73
               1
 44
0.7828267384257843
  0
POINT
  5
70
100
AcDbEntity
  8
Defpoints
370
               0
390
0
 62
               0
100
AcDbPoint
 10
-45.968193194404137
 20
36.043981792887273
 30
0.0
  0
POINT
  5
71
100
AcDbEntity
  8
Defpoints
370
               0
390
0
 62
               0
100
AcDbPoint
 10
-45.968193194404137
 20
-27.956018207112734
 30
0.0
  0
POINT
  5
72
100
AcDbEntity
  8
Defpoints
370
               0
390
0
 62
               0
100
AcDbPoint
 10
-15.268476406332351
 20
-27.956018207112734
 30
0.0
  0
ENDBLK
  5
73
100
AcDbEntity
  8
寸法
390
0
100
AcDbBlockEnd
  0
BLOCK
  5
74
100
AcDbEntity
  8
寸法
390
0
100
AcDbBlockBegin
  2
*D3
 70
               1
 10
0.0
 20
0.0
 30
0.0
  3
*D3
  1

  0
LINE
  5
75
100
AcDbEntity
  8
寸法
370
              -2
390
0
  6
Continuous
 62
               0
100
AcDbLine
 10
-46.000000000000341
 20
-64.618307470430793
 30
0.0
 11
-27.344264879944777
 21
-64.618307470430793
 31
0.0
  0
LINE
  5
76
100
AcDbEntity
  8
寸法
370
              -2
390
0
  6
Continuous
 62
               0
100
AcDbLine
 10
-46.000000000000398
 20
-62.1183074704308
 30
0.0
 11
-27.344264879944777
 21
-62.1183074704308
 31
0.0
  0
LINE
  5
77
100
AcDbEntity
  8
寸法
370
              -2
390
0
  6
Continuous
 62
               0
100
AcDbLine
 10
-29.344264879944397
 20
-62.1183074704308
 30
0.0
 11
-29.344264879944397
 21
-64.618307470430793
 31
0.0
  0
LINE
  5
78
100
AcDbEntity
  8
寸法
370
              -2
390
0
  6
Continuous
 62
               0
100
AcDbLine
 10
-29.344264879944397
 20
-64.618307470430793
 30
0.0
 11
-29.344264879944397
 21
-71.618307470430736
 31
0.0
  0
POLYLINE
  5
79
102
{ACAD_REACTORS
330
7E
102
}
100
AcDbEntity
  8
一般
370
               5
390
0
  6
Continuous
 62
               0
100
AcDb2dPolyline
 66
               1
 10
0.0
 20
0.0
 30
0.0
 70
               1
 75
               5
  0
VERTEX
  5
7A
100
AcDbEntity
  8
一般
370
               5
390
0
  6
Continuous
 62
               0
100
AcDbVertex
100
AcDb2dVertex
 10
-30.195003565913211
 20
-67.79330747043079
 30
0.0
  0
VERTEX
  5
7B
100
AcDbEntity
  8
一般
370
               5
390
0
  6
Continuous
 62
               0
100
AcDbVertex
100
AcDb2dVertex
 10
-29.344264879944397
 20
-64.618307470430793
 30
0.0
  0
VERTEX
  5
7C
100
AcDbEntity
  8
一般
370
               5
390
0
  6
Continuous
 62
               0
100
AcDbVertex
100
AcDb2dVertex
 10
-28.493526193975583
 20
-67.79330747043079
 30
0.0
  0
SEQEND
  5
7D
100
AcDbEntity
  8
一般
370
               5
390
0
  6
Continuous
 62
               0
  0
HATCH
  5
7E
100
AcDbEntity
  8
寸法
370
               0
390
0
  6
Continuous
 62
               0
100
AcDbHatch
 10
0.0
 20
0.0
 30
0.0
210
0.0
220
0.0
230
1.0
  2
SOLID
 70
               1
 71
               1
 91
        1
 92
        1
 93
        3
 72
               1
 10
-30.195003565913211
 20
-67.79330747043079
 11
-29.344264879944397
 21
-64.618307470430793
 72
               1
 10
-29.344264879944397
 20
-64.618307470430793
 11
-28.493526193975583
 21
-67.79330747043079
 72
               1
 10
-28.493526193975583
 20
-67.79330747043079
 11
-30.195003565913211
 21
-67.79330747043079
 97
        1
330
79
 75
               0
 76
               1
 98
        1
 10
0.0
 20
0.0
  0
LINE
  5
7F
100
AcDbEntity
  8
寸法
370
              -2
390
0
  6
Continuous
 62
               0
100
AcDbLine
 10
-29.344264879944397
 20
-62.1183074704308
 30
0.0
 11
-29.344264879944397
 21
-55.118307470430864
 31
0.0
  0
POLYLINE
  5
80
102
{ACAD_REACTORS
330
85
102
}
100
AcDbEntity
  8
一般
370
               5
390
0
  6
Continuous
 62
               0
100
AcDb2dPolyline
 66
               1
 10
0.0
 20
0.0
 30
0.0
 70
               1
 75
               5
  0
VERTEX
  5
81
100
AcDbEntity
  8
一般
370
               5
390
0
  6
Continuous
 62
               0
100
AcDbVertex
100
AcDb2dVertex
 10
-28.493526193975583
 20
-58.943307470430803
 30
0.0
  0
VERTEX
  5
82
100
AcDbEntity
  8
一般
370
               5
390
0
  6
Continuous
 62
               0
100
AcDbVertex
100
AcDb2dVertex
 10
-29.344264879944397
 20
-62.1183074704308
 30
0.0
  0
VERTEX
  5
83
100
AcDbEntity
  8
一般
370
               5
390
0
  6
Continuous
 62
               0
100
AcDbVertex
100
AcDb2dVertex
 10
-30.195003565913211
 20
-58.943307470430803
 30
0.0
  0
SEQEND
  5
84
100
AcDbEntity
  8
一般
370
               5
390
0
  6
Continuous
 62
               0
  0
HATCH
  5
85
100
AcDbEntity
  8
寸法
370
               0
390
0
  6
Continuous
 62
               0
100
AcDbHatch
 10
0.0
 20
0.0
 30
0.0
210
0.0
220
0.0
230
1.0
  2
SOLID
 70
               1
 71
               1
 91
        1
 92
        1
 93
        3
 72
               1
 10
-28.493526193975583
 20
-58.943307470430803
 11
-29.344264879944397
 21
-62.1183074704308
 72
               1
 10
-29.344264879944397
 20
-62.1183074704308
 11
-30.195003565913211
 21
-58.943307470430803
 72
               1
 10
-30.195003565913211
 20
-58.943307470430803
 11
-28.493526193975583
 21
-58.943307470430803
 97
        1
330
80
 75
               0
 76
               1
 98
        1
 10
0.0
 20
0.0
  0
WIPEOUT
  5
86
100
AcDbEntity
  8
寸法
370
              -2
390
0
  6
Continuous
 62
               0
 92
        0
100
AcDbWipeout
 90
        0
 10
-35.165098213277744
 20
-70.38953142876413
 30
0.0
 11
5.7712239583333371
 21
0.0
 31
0.0
 12
0.0
 22
5.7712239583333371
 32
0.0
 13
1.0
 23
1.0
340
0
 70
               7
280
               1
281
              50
282
              50
283
               0
360
0
 71
               2
 91
        5
 14
0.2335243553008605
 24
0.5
 14
0.2335243553008605
 24
-0.5
 14
-0.5
 24
-0.5
 14
-0.5
 24
0.5
 14
0.2335243553008605
 24
0.5
  0
MTEXT
  5
87
100
AcDbEntity
  8
寸法
390
0
 62
               0
100
AcDbMText
 10
-34.782113838277745
 20
-70.38953142876413
 30
0.0
 40
3.257682291666673
 41
0.0
 71
               1
 72
               1
  1
{\fHGPｺﾞｼｯｸM|b0|i0|c128|p0;\l2.5}
 11
0.0
 21
1.0
 31
0.0
 73
               1
 44
0.7828267384257843
  0
POINT
  5
88
100
AcDbEntity
  8
Defpoints
370
               0
390
0
 62
               0
100
AcDbPoint
 10
-46.000000000000398
 20
-62.1183074704308
 30
0.0
  0
POINT
  5
89
100
AcDbEntity
  8
Defpoints
370
               0
390
0
 62
               0
100
AcDbPoint
 10
-46.000000000000341
 20
-64.618307470430793
 30
0.0
  0
POINT
  5
8A
100
AcDbEntity
  8
Defpoints
370
               0
390
0
 62
               0
100
AcDbPoint
 10
-29.344264879944397
 20
-64.618307470430793
 30
0.0
  0
ENDBLK
  5
8B
100
AcDbEntity
  8
寸法
390
0
100
AcDbBlockEnd
  0
BLOCK
  5
8C
100
AcDbEntity
  8
寸法
390
0
100
AcDbBlockBegin
  2
*D4
 70
               1
 10
0.0
 20
0.0
 30
0.0
  3
*D4
  1

  0
LINE
  5
8D
100
AcDbEntity
  8
寸法
370
              -2
390
0
  6
Continuous
 62
               0
100
AcDbLine
 10
90.901373570643386
 20
-25.979177569877976
 30
0.0
 11
103.53615865783794
 21
-25.979177569877976
 31
0.0
  0
LINE
  5
8E
100
AcDbEntity
  8
寸法
370
              -2
390
0
  6
Continuous
 62
               0
100
AcDbLine
 10
90.967591041014373
 20
-27.979177569877976
 30
0.0
 11
103.53615865783794
 21
-27.979177569877976
 31
0.0
  0
LINE
  5
8F
100
AcDbEntity
  8
寸法
370
              -2
390
0
  6
Continuous
 62
               0
100
AcDbLine
 10
101.53615865783833
 20
-27.979177569877976
 30
0.0
 11
101.53615865783833
 21
-25.979177569877976
 31
0.0
  0
LINE
  5
90
100
AcDbEntity
  8
寸法
370
              -2
390
0
  6
Continuous
 62
               0
100
AcDbLine
 10
101.53615865783833
 20
-25.979177569877976
 30
0.0
 11
101.53615865783833
 21
-18.979177569878036
 31
0.0
  0
POLYLINE
  5
91
102
{ACAD_REACTORS
330
96
102
}
100
AcDbEntity
  8
一般
370
               5
390
0
  6
Continuous
 62
               0
100
AcDb2dPolyline
 66
               1
 10
0.0
 20
0.0
 30
0.0
 70
               1
 75
               5
  0
VERTEX
  5
92
100
AcDbEntity
  8
一般
370
               5
390
0
  6
Continuous
 62
               0
100
AcDbVertex
100
AcDb2dVertex
 10
102.38689734380715
 20
-22.804177569877975
 30
0.0
  0
VERTEX
  5
93
100
AcDbEntity
  8
一般
370
               5
390
0
  6
Continuous
 62
               0
100
AcDbVertex
100
AcDb2dVertex
 10
101.53615865783833
 20
-25.979177569877976
 30
0.0
  0
VERTEX
  5
94
100
AcDbEntity
  8
一般
370
               5
390
0
  6
Continuous
 62
               0
100
AcDbVertex
100
AcDb2dVertex
 10
100.68541997186951
 20
-22.804177569877975
 30
0.0
  0
SEQEND
  5
95
100
AcDbEntity
  8
一般
370
               5
390
0
  6
Continuous
 62
               0
  0
HATCH
  5
96
100
AcDbEntity
  8
寸法
370
               0
390
0
  6
Continuous
 62
               0
100
AcDbHatch
 10
0.0
 20
0.0
 30
0.0
210
0.0
220
0.0
230
1.0
  2
SOLID
 70
               1
 71
               1
 91
        1
 92
        1
 93
        3
 72
               1
 10
102.38689734380715
 20
-22.804177569877975
 11
101.53615865783833
 21
-25.979177569877976
 72
               1
 10
101.53615865783833
 20
-25.979177569877976
 11
100.68541997186951
 21
-22.804177569877975
 72
               1
 10
100.68541997186951
 20
-22.804177569877975
 11
102.38689734380715
 21
-22.804177569877975
 97
        1
330
91
 75
               0
 76
               1
 98
        1
 10
0.0
 20
0.0
  0
LINE
  5
97
100
AcDbEntity
  8
寸法
370
              -2
390
0
  6
Continuous
 62
               0
100
AcDbLine
 10
101.53615865783833
 20
-27.979177569877976
 30
0.0
 11
101.53615865783833
 21
-34.979177569877919
 31
0.0
  0
POLYLINE
  5
98
102
{ACAD_REACTORS
330
9D
102
}
100
AcDbEntity
  8
一般
370
               5
390
0
  6
Continuous
 62
               0
100
AcDb2dPolyline
 66
               1
 10
0.0
 20
0.0
 30
0.0
 70
               1
 75
               5
  0
VERTEX
  5
99
100
AcDbEntity
  8
一般
370
               5
390
0
  6
Continuous
 62
               0
100
AcDbVertex
100
AcDb2dVertex
 10
100.68541997186951
 20
-31.154177569877977
 30
0.0
  0
VERTEX
  5
9A
100
AcDbEntity
  8
一般
370
               5
390
0
  6
Continuous
 62
               0
100
AcDbVertex
100
AcDb2dVertex
 10
101.53615865783833
 20
-27.979177569877976
 30
0.0
  0
VERTEX
  5
9B
100
AcDbEntity
  8
一般
370
               5
390
0
  6
Continuous
 62
               0
100
AcDbVertex
100
AcDb2dVertex
 10
102.38689734380715
 20
-31.154177569877977
 30
0.0
  0
SEQEND
  5
9C
100
AcDbEntity
  8
一般
370
               5
390
0
  6
Continuous
 62
               0
  0
HATCH
  5
9D
100
AcDbEntity
  8
寸法
370
               0
390
0
  6
Continuous
 62
               0
100
AcDbHatch
 10
0.0
 20
0.0
 30
0.0
210
0.0
220
0.0
230
1.0
  2
SOLID
 70
               1
 71
               1
 91
        1
 92
        1
 93
        3
 72
               1
 10
100.68541997186951
 20
-31.154177569877977
 11
101.53615865783833
 21
-27.979177569877976
 72
               1
 10
101.53615865783833
 20
-27.979177569877976
 11
102.38689734380715
 21
-31.154177569877977
 72
               1
 10
102.38689734380715
 20
-31.154177569877977
 11
100.68541997186951
 21
-31.154177569877977
 97
        1
330
98
 75
               0
 76
               1
 98
        1
 10
0.0
 20
0.0
  0
WIPEOUT
  5
9E
100
AcDbEntity
  8
寸法
370
              -2
390
0
  6
Continuous
 62
               0
 92
        0
100
AcDbWipeout
 90
        0
 10
97.831991991171677
 20
-27.595160642794642
 30
0.0
 11
2.11666666666666
 21
0.0
 31
0.0
 12
0.0
 22
2.11666666666666
 32
0.0
 13
1.0
 23
1.0
340
0
 70
               7
280
               1
281
              50
282
              50
283
               0
360
0
 71
               2
 91
        5
 14
0.5
 24
0.5
 14
0.5
 24
-0.0820312500000016
 14
-0.5
 24
-0.0820312500000016
 14
-0.5
 24
0.5
 14
0.5
 24
0.5
  0
MTEXT
  5
9F
100
AcDbEntity
  8
寸法
390
0
 62
               0
100
AcDbMText
 10
98.02348417867168
 20
-27.595160642794642
 30
0.0
 40
1.6288411458333327
 41
0.0
 71
               1
 72
               1
  1
{\fHGPｺﾞｼｯｸM|b0|i0|c128|p0;\l2}
 11
0.0
 21
1.0
 31
0.0
 73
               1
 44
0.7828267384257843
  0
POINT
  5
A0
100
AcDbEntity
  8
Defpoints
370
               0
390
0
 62
               0
100
AcDbPoint
 10
90.967591041014373
 20
-27.979177569877976
 30
0.0
  0
POINT
  5
A1
100
AcDbEntity
  8
Defpoints
370
               0
390
0
 62
               0
100
AcDbPoint
 10
90.901373570643386
 20
-25.979177569877976
 30
0.0
  0
POINT
  5
A2
100
AcDbEntity
  8
Defpoints
370
               0
390
0
 62
               0
100
AcDbPoint
 10
101.53615865783833
 20
-25.979177569877976
 30
0.0
  0
ENDBLK
  5
A3
100
AcDbEntity
  8
寸法
390
0
100
AcDbBlockEnd
  0
BLOCK
  5
A4
100
AcDbEntity
  8
寸法
390
0
100
AcDbBlockBegin
  2
*D5
 70
               1
 10
0.0
 20
0.0
 30
0.0
  3
*D5
  1

  0
LINE
  5
A5
100
AcDbEntity
  8
寸法
370
              -2
390
0
  6
Continuous
 62
               0
100
AcDbLine
 10
92.967536403935469
 20
-21.977523291567188
 30
0.0
 11
103.53610402075876
 21
-21.977523291567188
 31
0.0
  0
LINE
  5
A6
100
AcDbEntity
  8
寸法
370
              -2
390
0
  6
Continuous
 62
               0
100
AcDbLine
 10
92.967536403935469
 20
-25.977523291567174
 30
0.0
 11
103.53610402075876
 21
-25.977523291567174
 31
0.0
  0
LINE
  5
A7
100
AcDbEntity
  8
寸法
370
              -2
390
0
  6
Continuous
 62
               0
100
AcDbLine
 10
101.53610402075914
 20
-25.977523291567174
 30
0.0
 11
101.53610402075914
 21
-21.977523291567188
 31
0.0
  0
LINE
  5
A8
100
AcDbEntity
  8
寸法
370
              -2
390
0
  6
Continuous
 62
               0
100
AcDbLine
 10
101.53610402075914
 20
-21.977523291567188
 30
0.0
 11
101.53610402075914
 21
-14.977523291567248
 31
0.0
  0
POLYLINE
  5
A9
102
{ACAD_REACTORS
330
AE
102
}
100
AcDbEntity
  8
一般
370
               5
390
0
  6
Continuous
 62
               0
100
AcDb2dPolyline
 66
               1
 10
0.0
 20
0.0
 30
0.0
 70
               1
 75
               5
  0
VERTEX
  5
AA
100
AcDbEntity
  8
一般
370
               5
390
0
  6
Continuous
 62
               0
100
AcDbVertex
100
AcDb2dVertex
 10
102.38684270672796
 20
-18.802523291567187
 30
0.0
  0
VERTEX
  5
AB
100
AcDbEntity
  8
一般
370
               5
390
0
  6
Continuous
 62
               0
100
AcDbVertex
100
AcDb2dVertex
 10
101.53610402075914
 20
-21.977523291567188
 30
0.0
  0
VERTEX
  5
AC
100
AcDbEntity
  8
一般
370
               5
390
0
  6
Continuous
 62
               0
100
AcDbVertex
100
AcDb2dVertex
 10
100.68536533479032
 20
-18.802523291567187
 30
0.0
  0
SEQEND
  5
AD
100
AcDbEntity
  8
一般
370
               5
390
0
  6
Continuous
 62
               0
  0
HATCH
  5
AE
100
AcDbEntity
  8
寸法
370
               0
390
0
  6
Continuous
 62
               0
100
AcDbHatch
 10
0.0
 20
0.0
 30
0.0
210
0.0
220
0.0
230
1.0
  2
SOLID
 70
               1
 71
               1
 91
        1
 92
        1
 93
        3
 72
               1
 10
102.38684270672796
 20
-18.802523291567187
 11
101.53610402075914
 21
-21.977523291567188
 72
               1
 10
101.53610402075914
 20
-21.977523291567188
 11
100.68536533479032
 21
-18.802523291567187
 72
               1
 10
100.68536533479032
 20
-18.802523291567187
 11
102.38684270672796
 21
-18.802523291567187
 97
        1
330
A9
 75
               0
 76
               1
 98
        1
 10
0.0
 20
0.0
  0
LINE
  5
AF
100
AcDbEntity
  8
寸法
370
              -2
390
0
  6
Continuous
 62
               0
100
AcDbLine
 10
101.53610402075914
 20
-25.977523291567174
 30
0.0
 11
101.53610402075914
 21
-32.97752329156711
 31
0.0
  0
POLYLINE
  5
B0
102
{ACAD_REACTORS
330
B5
102
}
100
AcDbEntity
  8
一般
370
               5
390
0
  6
Continuous
 62
               0
100
AcDb2dPolyline
 66
               1
 10
0.0
 20
0.0
 30
0.0
 70
               1
 75
               5
  0
VERTEX
  5
B1
100
AcDbEntity
  8
一般
370
               5
390
0
  6
Continuous
 62
               0
100
AcDbVertex
100
AcDb2dVertex
 10
100.68536533479032
 20
-29.152523291567174
 30
0.0
  0
VERTEX
  5
B2
100
AcDbEntity
  8
一般
370
               5
390
0
  6
Continuous
 62
               0
100
AcDbVertex
100
AcDb2dVertex
 10
101.53610402075914
 20
-25.977523291567174
 30
0.0
  0
VERTEX
  5
B3
100
AcDbEntity
  8
一般
370
               5
390
0
  6
Continuous
 62
               0
100
AcDbVertex
100
AcDb2dVertex
 10
102.38684270672796
 20
-29.152523291567174
 30
0.0
  0
SEQEND
  5
B4
100
AcDbEntity
  8
一般
370
               5
390
0
  6
Continuous
 62
               0
  0
HATCH
  5
B5
100
AcDbEntity
  8
寸法
370
               0
390
0
  6
Continuous
 62
               0
100
AcDbHatch
 10
0.0
 20
0.0
 30
0.0
210
0.0
220
0.0
230
1.0
  2
SOLID
 70
               1
 71
               1
 91
        1
 92
        1
 93
        3
 72
               1
 10
100.68536533479032
 20
-29.152523291567174
 11
101.53610402075914
 21
-25.977523291567174
 72
               1
 10
101.53610402075914
 20
-25.977523291567174
 11
102.38684270672796
 21
-29.152523291567174
 72
               1
 10
102.38684270672796
 20
-29.152523291567174
 11
100.68536533479032
 21
-29.152523291567174
 97
        1
330
B0
 75
               0
 76
               1
 98
        1
 10
0.0
 20
0.0
  0
WIPEOUT
  5
B6
100
AcDbEntity
  8
寸法
370
              -2
390
0
  6
Continuous
 62
               0
 92
        0
100
AcDbWipeout
 90
        0
 10
97.831937354092489
 20
-24.593506364483847
 30
0.0
 11
2.11666666666666
 21
0.0
 31
0.0
 12
0.0
 22
2.11666666666666
 32
0.0
 13
1.0
 23
1.0
340
0
 70
               7
280
               1
281
              50
282
              50
283
               0
360
0
 71
               2
 91
        5
 14
0.5
 24
0.5
 14
0.5
 24
-0.0820312500000016
 14
-0.5
 24
-0.0820312500000016
 14
-0.5
 24
0.5
 14
0.5
 24
0.5
  0
MTEXT
  5
B7
100
AcDbEntity
  8
寸法
390
0
 62
               0
100
AcDbMText
 10
98.023429541592492
 20
-24.593506364483847
 30
0.0
 40
1.6288411458333327
 41
0.0
 71
               1
 72
               1
  1
{\fHGPｺﾞｼｯｸM|b0|i0|c128|p0;\l4}
 11
0.0
 21
1.0
 31
0.0
 73
               1
 44
0.7828267384257843
  0
POINT
  5
B8
100
AcDbEntity
  8
Defpoints
370
               0
390
0
 62
               0
100
AcDbPoint
 10
92.967536403935469
 20
-25.977523291567174
 30
0.0
  0
POINT
  5
B9
100
AcDbEntity
  8
Defpoints
370
               0
390
0
 62
               0
100
AcDbPoint
 10
92.967536403935469
 20
-21.977523291567188
 30
0.0
  0
POINT
  5
BA
100
AcDbEntity
  8
Defpoints
370
               0
390
0
 62
               0
100
AcDbPoint
 10
101.53610402075914
 20
-21.977523291567188
 30
0.0
  0
ENDBLK
  5
BB
100
AcDbEntity
  8
寸法
390
0
100
AcDbBlockEnd
  0
BLOCK
  5
BC
100
AcDbEntity
  8
寸法
390
0
100
AcDbBlockBegin
  2
*D6
 70
               1
 10
0.0
 20
0.0
 30
0.0
  3
*D6
  1

  0
LINE
  5
BD
100
AcDbEntity
  8
寸法
370
              -2
390
0
  6
Continuous
 62
               0
100
AcDbLine
 10
-48.000000000000398
 20
-87.118307470430793
 30
0.0
 11
-48.000000000000398
 21
-100.90299737644649
 31
0.0
  0
LINE
  5
BE
100
AcDbEntity
  8
寸法
370
              -2
390
0
  6
Continuous
 62
               0
100
AcDbLine
 10
-46.000000000000398
 20
-87.118307470430793
 30
0.0
 11
-46.000000000000398
 21
-100.90299737644649
 31
0.0
  0
LINE
  5
BF
100
AcDbEntity
  8
寸法
370
              -2
390
0
  6
Continuous
 62
               0
100
AcDbLine
 10
-46.000000000000398
 20
-98.902997376446876
 30
0.0
 11
-48.000000000000398
 21
-98.902997376446876
 31
0.0
  0
LINE
  5
C0
100
AcDbEntity
  8
寸法
370
              -2
390
0
  6
Continuous
 62
               0
100
AcDbLine
 10
-48.000000000000398
 20
-98.902997376446876
 30
0.0
 11
-55.000000000000341
 21
-98.902997376446876
 31
0.0
  0
POLYLINE
  5
C1
102
{ACAD_REACTORS
330
C6
102
}
100
AcDbEntity
  8
一般
370
               5
390
0
  6
Continuous
 62
               0
100
AcDb2dPolyline
 66
               1
 10
0.0
 20
0.0
 30
0.0
 70
               1
 75
               5
  0
VERTEX
  5
C2
100
AcDbEntity
  8
一般
370
               5
390
0
  6
Continuous
 62
               0
100
AcDbVertex
100
AcDb2dVertex
 10
-51.175000000000395
 20
-98.052258690478055
 30
0.0
  0
VERTEX
  5
C3
100
AcDbEntity
  8
一般
370
               5
390
0
  6
Continuous
 62
               0
100
AcDbVertex
100
AcDb2dVertex
 10
-48.000000000000398
 20
-98.902997376446876
 30
0.0
  0
VERTEX
  5
C4
100
AcDbEntity
  8
一般
370
               5
390
0
  6
Continuous
 62
               0
100
AcDbVertex
100
AcDb2dVertex
 10
-51.175000000000395
 20
-99.753736062415697
 30
0.0
  0
SEQEND
  5
C5
100
AcDbEntity
  8
一般
370
               5
390
0
  6
Continuous
 62
               0
  0
HATCH
  5
C6
100
AcDbEntity
  8
寸法
370
               0
390
0
  6
Continuous
 62
               0
100
AcDbHatch
 10
0.0
 20
0.0
 30
0.0
210
0.0
220
0.0
230
1.0
  2
SOLID
 70
               1
 71
               1
 91
        1
 92
        1
 93
        3
 72
               1
 10
-51.175000000000395
 20
-98.052258690478055
 11
-48.000000000000398
 21
-98.902997376446876
 72
               1
 10
-48.000000000000398
 20
-98.902997376446876
 11
-51.175000000000395
 21
-99.753736062415697
 72
               1
 10
-51.175000000000395
 20
-99.753736062415697
 11
-51.175000000000395
 21
-98.052258690478055
 97
        1
330
C1
 75
               0
 76
               1
 98
        1
 10
0.0
 20
0.0
  0
LINE
  5
C7
100
AcDbEntity
  8
寸法
370
              -2
390
0
  6
Continuous
 62
               0
100
AcDbLine
 10
-46.000000000000398
 20
-98.902997376446876
 30
0.0
 11
-39.000000000000455
 21
-98.902997376446876
 31
0.0
  0
POLYLINE
  5
C8
102
{ACAD_REACTORS
330
CD
102
}
100
AcDbEntity
  8
一般
370
               5
390
0
  6
Continuous
 62
               0
100
AcDb2dPolyline
 66
               1
 10
0.0
 20
0.0
 30
0.0
 70
               1
 75
               5
  0
VERTEX
  5
C9
100
AcDbEntity
  8
一般
370
               5
390
0
  6
Continuous
 62
               0
100
AcDbVertex
100
AcDb2dVertex
 10
-42.825000000000401
 20
-99.753736062415697
 30
0.0
  0
VERTEX
  5
CA
100
AcDbEntity
  8
一般
370
               5
390
0
  6
Continuous
 62
               0
100
AcDbVertex
100
AcDb2dVertex
 10
-46.000000000000398
 20
-98.902997376446876
 30
0.0
  0
VERTEX
  5
CB
100
AcDbEntity
  8
一般
370
               5
390
0
  6
Continuous
 62
               0
100
AcDbVertex
100
AcDb2dVertex
 10
-42.825000000000401
 20
-98.052258690478055
 30
0.0
  0
SEQEND
  5
CC
100
AcDbEntity
  8
一般
370
               5
390
0
  6
Continuous
 62
               0
  0
HATCH
  5
CD
100
AcDbEntity
  8
寸法
370
               0
390
0
  6
Continuous
 62
               0
100
AcDbHatch
 10
0.0
 20
0.0
 30
0.0
210
0.0
220
0.0
230
1.0
  2
SOLID
 70
               1
 71
               1
 91
        1
 92
        1
 93
        3
 72
               1
 10
-42.825000000000401
 20
-99.753736062415697
 11
-46.000000000000398
 21
-98.902997376446876
 72
               1
 10
-46.000000000000398
 20
-98.902997376446876
 11
-42.825000000000401
 21
-98.052258690478055
 72
               1
 10
-42.825000000000401
 20
-98.052258690478055
 11
-42.825000000000401
 21
-99.753736062415697
 97
        1
330
C8
 75
               0
 76
               1
 98
        1
 10
0.0
 20
0.0
  0
WIPEOUT
  5
CE
100
AcDbEntity
  8
寸法
370
              -2
390
0
  6
Continuous
 62
               0
 92
        0
100
AcDbWipeout
 90
        0
 10
-47.615983072917068
 20
-97.315497376446885
 30
0.0
 11
2.11666666666666
 21
0.0
 31
0.0
 12
0.0
 22
2.11666666666666
 32
0.0
 13
1.0
 23
1.0
340
0
 70
               7
280
               1
281
              50
282
              50
283
               0
360
0
 71
               2
 91
        5
 14
-0.5
 24
0.5
 14
0.0820312500000016
 24
0.5
 14
0.0820312500000016
 24
-0.5
 14
-0.5
 24
-0.5
 14
-0.5
 24
0.5
  0
MTEXT
  5
CF
100
AcDbEntity
  8
寸法
390
0
 62
               0
100
AcDbMText
 10
-47.615983072917068
 20
-95.390322897280228
 30
0.0
 40
1.6288411458333327
 41
0.0
 71
               1
 72
               1
  1
{\fHGPｺﾞｼｯｸM|b0|i0|c128|p0;\l2}
 73
               1
 44
0.7828267384257843
  0
POINT
  5
D0
100
AcDbEntity
  8
Defpoints
370
               0
390
0
 62
               0
100
AcDbPoint
 10
-46.000000000000398
 20
-87.118307470430793
 30
0.0
  0
POINT
  5
D1
100
AcDbEntity
  8
Defpoints
370
               0
390
0
 62
               0
100
AcDbPoint
 10
-48.000000000000398
 20
-87.118307470430793
 30
0.0
  0
POINT
  5
D2
100
AcDbEntity
  8
Defpoints
370
               0
390
0
 62
               0
100
AcDbPoint
 10
-48.000000000000398
 20
-98.902997376446876
 30
0.0
  0
ENDBLK
  5
D3
100
AcDbEntity
  8
寸法
390
0
100
AcDbBlockEnd
  0
BLOCK
  5
D4
100
AcDbEntity
  8
寸法
390
0
100
AcDbBlockBegin
  2
*D7
 70
               1
 10
0.0
 20
0.0
 30
0.0
  3
*D7
  1

  0
LINE
  5
D5
100
AcDbEntity
  8
寸法
370
              -2
390
0
  6
Continuous
 62
               0
100
AcDbLine
 10
90.985271188356762
 20
34.043981792887266
 30
0.0
 11
102.53615865783793
 21
34.043981792887266
 31
0.0
  0
LINE
  5
D6
100
AcDbEntity
  8
寸法
370
              -2
390
0
  6
Continuous
 62
               0
100
AcDbLine
 10
90.967591041014373
 20
36.043981792887266
 30
0.0
 11
102.53615865783793
 21
36.043981792887266
 31
0.0
  0
LINE
  5
D7
100
AcDbEntity
  8
寸法
370
              -2
390
0
  6
Continuous
 62
               0
100
AcDbLine
 10
100.53615865783831
 20
36.043981792887266
 30
0.0
 11
100.53615865783831
 21
34.043981792887266
 31
0.0
  0
LINE
  5
D8
100
AcDbEntity
  8
寸法
370
              -2
390
0
  6
Continuous
 62
               0
100
AcDbLine
 10
100.53615865783831
 20
34.043981792887266
 30
0.0
 11
100.53615865783831
 21
27.043981792887326
 31
0.0
  0
POLYLINE
  5
D9
102
{ACAD_REACTORS
330
DE
102
}
100
AcDbEntity
  8
一般
370
               5
390
0
  6
Continuous
 62
               0
100
AcDb2dPolyline
 66
               1
 10
0.0
 20
0.0
 30
0.0
 70
               1
 75
               5
  0
VERTEX
  5
DA
100
AcDbEntity
  8
一般
370
               5
390
0
  6
Continuous
 62
               0
100
AcDbVertex
100
AcDb2dVertex
 10
99.685419971869493
 20
30.868981792887265
 30
0.0
  0
VERTEX
  5
DB
100
AcDbEntity
  8
一般
370
               5
390
0
  6
Continuous
 62
               0
100
AcDbVertex
100
AcDb2dVertex
 10
100.53615865783831
 20
34.043981792887266
 30
0.0
  0
VERTEX
  5
DC
100
AcDbEntity
  8
一般
370
               5
390
0
  6
Continuous
 62
               0
100
AcDbVertex
100
AcDb2dVertex
 10
101.38689734380714
 20
30.868981792887265
 30
0.0
  0
SEQEND
  5
DD
100
AcDbEntity
  8
一般
370
               5
390
0
  6
Continuous
 62
               0
  0
HATCH
  5
DE
100
AcDbEntity
  8
寸法
370
               0
390
0
  6
Continuous
 62
               0
100
AcDbHatch
 10
0.0
 20
0.0
 30
0.0
210
0.0
220
0.0
230
1.0
  2
SOLID
 70
               1
 71
               1
 91
        1
 92
        1
 93
        3
 72
               1
 10
99.685419971869493
 20
30.868981792887265
 11
100.53615865783831
 21
34.043981792887266
 72
               1
 10
100.53615865783831
 20
34.043981792887266
 11
101.38689734380714
 21
30.868981792887265
 72
               1
 10
101.38689734380714
 20
30.868981792887265
 11
99.685419971869493
 21
30.868981792887265
 97
        1
330
D9
 75
               0
 76
               1
 98
        1
 10
0.0
 20
0.0
  0
LINE
  5
DF
100
AcDbEntity
  8
寸法
370
              -2
390
0
  6
Continuous
 62
               0
100
AcDbLine
 10
100.53615865783831
 20
36.043981792887266
 30
0.0
 11
100.53615865783831
 21
43.043981792887209
 31
0.0
  0
POLYLINE
  5
E0
102
{ACAD_REACTORS
330
E5
102
}
100
AcDbEntity
  8
一般
370
               5
390
0
  6
Continuous
 62
               0
100
AcDb2dPolyline
 66
               1
 10
0.0
 20
0.0
 30
0.0
 70
               1
 75
               5
  0
VERTEX
  5
E1
100
AcDbEntity
  8
一般
370
               5
390
0
  6
Continuous
 62
               0
100
AcDbVertex
100
AcDb2dVertex
 10
101.38689734380714
 20
39.218981792887263
 30
0.0
  0
VERTEX
  5
E2
100
AcDbEntity
  8
一般
370
               5
390
0
  6
Continuous
 62
               0
100
AcDbVertex
100
AcDb2dVertex
 10
100.53615865783831
 20
36.043981792887266
 30
0.0
  0
VERTEX
  5
E3
100
AcDbEntity
  8
一般
370
               5
390
0
  6
Continuous
 62
               0
100
AcDbVertex
100
AcDb2dVertex
 10
99.685419971869493
 20
39.218981792887263
 30
0.0
  0
SEQEND
  5
E4
100
AcDbEntity
  8
一般
370
               5
390
0
  6
Continuous
 62
               0
  0
HATCH
  5
E5
100
AcDbEntity
  8
寸法
370
               0
390
0
  6
Continuous
 62
               0
100
AcDbHatch
 10
0.0
 20
0.0
 30
0.0
210
0.0
220
0.0
230
1.0
  2
SOLID
 70
               1
 71
               1
 91
        1
 92
        1
 93
        3
 72
               1
 10
101.38689734380714
 20
39.218981792887263
 11
100.53615865783831
 21
36.043981792887266
 72
               1
 10
100.53615865783831
 20
36.043981792887266
 11
99.685419971869493
 21
39.218981792887263
 72
               1
 10
99.685419971869493
 20
39.218981792887263
 11
101.38689734380714
 21
39.218981792887263
 97
        1
330
E0
 75
               0
 76
               1
 98
        1
 10
0.0
 20
0.0
  0
WIPEOUT
  5
E6
100
AcDbEntity
  8
寸法
370
              -2
390
0
  6
Continuous
 62
               0
 92
        0
100
AcDbWipeout
 90
        0
 10
96.831991991171662
 20
34.427998719970603
 30
0.0
 11
2.11666666666666
 21
0.0
 31
0.0
 12
0.0
 22
2.11666666666666
 32
0.0
 13
1.0
 23
1.0
340
0
 70
               7
280
               1
281
              50
282
              50
283
               0
360
0
 71
               2
 91
        5
 14
0.5
 24
0.5
 14
0.5
 24
-0.0820312500000016
 14
-0.5
 24
-0.0820312500000016
 14
-0.5
 24
0.5
 14
0.5
 24
0.5
  0
MTEXT
  5
E7
100
AcDbEntity
  8
寸法
390
0
 62
               0
100
AcDbMText
 10
97.023484178671666
 20
34.427998719970603
 30
0.0
 40
1.6288411458333327
 41
0.0
 71
               1
 72
               1
  1
{\fHGPｺﾞｼｯｸM|b0|i0|c128|p0;\l2}
 11
0.0
 21
1.0
 31
0.0
 73
               1
 44
0.7828267384257843
  0
POINT
  5
E8
100
AcDbEntity
  8
Defpoints
370
               0
390
0
 62
               0
100
AcDbPoint
 10
90.967591041014373
 20
36.043981792887266
 30
0.0
  0
POINT
  5
E9
100
AcDbEntity
  8
Defpoints
370
               0
390
0
 62
               0
100
AcDbPoint
 10
90.985271188356762
 20
34.043981792887266
 30
0.0
  0
POINT
  5
EA
100
AcDbEntity
  8
Defpoints
370
               0
390
0
 62
               0
100
AcDbPoint
 10
100.53615865783831
 20
34.043981792887266
 30
0.0
  0
ENDBLK
  5
EB
100
AcDbEntity
  8
寸法
390
0
100
AcDbBlockEnd
  0
BLOCK
  5
EC
100
AcDbEntity
  8
寸法
390
0
100
AcDbBlockBegin
  2
*D8
 70
               1
 10
0.0
 20
0.0
 30
0.0
  3
*D8
  1

  0
LINE
  5
ED
100
AcDbEntity
  8
寸法
370
              -2
390
0
  6
Continuous
 62
               0
100
AcDbLine
 10
92.985271188356762
 20
30.043981792887259
 30
0.0
 11
102.53615865783793
 21
30.043981792887259
 31
0.0
  0
LINE
  5
EE
100
AcDbEntity
  8
寸法
370
              -2
390
0
  6
Continuous
 62
               0
100
AcDbLine
 10
92.985271188356762
 20
34.043981792887266
 30
0.0
 11
102.53615865783793
 21
34.043981792887266
 31
0.0
  0
LINE
  5
EF
100
AcDbEntity
  8
寸法
370
              -2
390
0
  6
Continuous
 62
               0
100
AcDbLine
 10
100.53615865783831
 20
34.043981792887266
 30
0.0
 11
100.53615865783831
 21
30.043981792887259
 31
0.0
  0
LINE
  5
F0
100
AcDbEntity
  8
寸法
370
              -2
390
0
  6
Continuous
 62
               0
100
AcDbLine
 10
100.53615865783831
 20
30.043981792887259
 30
0.0
 11
100.53615865783831
 21
23.043981792887319
 31
0.0
  0
POLYLINE
  5
F1
102
{ACAD_REACTORS
330
F6
102
}
100
AcDbEntity
  8
一般
370
               5
390
0
  6
Continuous
 62
               0
100
AcDb2dPolyline
 66
               1
 10
0.0
 20
0.0
 30
0.0
 70
               1
 75
               5
  0
VERTEX
  5
F2
100
AcDbEntity
  8
一般
370
               5
390
0
  6
Continuous
 62
               0
100
AcDbVertex
100
AcDb2dVertex
 10
99.685419971869493
 20
26.868981792887258
 30
0.0
  0
VERTEX
  5
F3
100
AcDbEntity
  8
一般
370
               5
390
0
  6
Continuous
 62
               0
100
AcDbVertex
100
AcDb2dVertex
 10
100.53615865783831
 20
30.043981792887259
 30
0.0
  0
VERTEX
  5
F4
100
AcDbEntity
  8
一般
370
               5
390
0
  6
Continuous
 62
               0
100
AcDbVertex
100
AcDb2dVertex
 10
101.38689734380714
 20
26.868981792887258
 30
0.0
  0
SEQEND
  5
F5
100
AcDbEntity
  8
一般
370
               5
390
0
  6
Continuous
 62
               0
  0
HATCH
  5
F6
100
AcDbEntity
  8
寸法
370
               0
390
0
  6
Continuous
 62
               0
100
AcDbHatch
 10
0.0
 20
0.0
 30
0.0
210
0.0
220
0.0
230
1.0
  2
SOLID
 70
               1
 71
               1
 91
        1
 92
        1
 93
        3
 72
               1
 10
99.685419971869493
 20
26.868981792887258
 11
100.53615865783831
 21
30.043981792887259
 72
               1
 10
100.53615865783831
 20
30.043981792887259
 11
101.38689734380714
 21
26.868981792887258
 72
               1
 10
101.38689734380714
 20
26.868981792887258
 11
99.685419971869493
 21
26.868981792887258
 97
        1
330
F1
 75
               0
 76
               1
 98
        1
 10
0.0
 20
0.0
  0
LINE
  5
F7
100
AcDbEntity
  8
寸法
370
              -2
390
0
  6
Continuous
 62
               0
100
AcDbLine
 10
100.53615865783831
 20
34.043981792887266
 30
0.0
 11
100.53615865783831
 21
41.043981792887209
 31
0.0
  0
POLYLINE
  5
F8
102
{ACAD_REACTORS
330
FD
102
}
100
AcDbEntity
  8
一般
370
               5
390
0
  6
Continuous
 62
               0
100
AcDb2dPolyline
 66
               1
 10
0.0
 20
0.0
 30
0.0
 70
               1
 75
               5
  0
VERTEX
  5
F9
100
AcDbEntity
  8
一般
370
               5
390
0
  6
Continuous
 62
               0
100
AcDbVertex
100
AcDb2dVertex
 10
101.38689734380714
 20
37.218981792887263
 30
0.0
  0
VERTEX
  5
FA
100
AcDbEntity
  8
一般
370
               5
390
0
  6
Continuous
 62
               0
100
AcDbVertex
100
AcDb2dVertex
 10
100.53615865783831
 20
34.043981792887266
 30
0.0
  0
VERTEX
  5
FB
100
AcDbEntity
  8
一般
370
               5
390
0
  6
Continuous
 62
               0
100
AcDbVertex
100
AcDb2dVertex
 10
99.685419971869493
 20
37.218981792887263
 30
0.0
  0
SEQEND
  5
FC
100
AcDbEntity
  8
一般
370
               5
390
0
  6
Continuous
 62
               0
  0
HATCH
  5
FD
100
AcDbEntity
  8
寸法
370
               0
390
0
  6
Continuous
 62
               0
100
AcDbHatch
 10
0.0
 20
0.0
 30
0.0
210
0.0
220
0.0
230
1.0
  2
SOLID
 70
               1
 71
               1
 91
        1
 92
        1
 93
        3
 72
               1
 10
101.38689734380714
 20
37.218981792887263
 11
100.53615865783831
 21
34.043981792887266
 72
               1
 10
100.53615865783831
 20
34.043981792887266
 11
99.685419971869493
 21
37.218981792887263
 72
               1
 10
99.685419971869493
 20
37.218981792887263
 11
101.38689734380714
 21
37.218981792887263
 97
        1
330
F8
 75
               0
 76
               1
 98
        1
 10
0.0
 20
0.0
  0
WIPEOUT
  5
FE
100
AcDbEntity
  8
寸法
370
              -2
390
0
  6
Continuous
 62
               0
 92
        0
100
AcDbWipeout
 90
        0
 10
96.831991991171662
 20
31.427998719970599
 30
0.0
 11
2.11666666666666
 21
0.0
 31
0.0
 12
0.0
 22
2.11666666666666
 32
0.0
 13
1.0
 23
1.0
340
0
 70
               7
280
               1
281
              50
282
              50
283
               0
360
0
 71
               2
 91
        5
 14
0.5
 24
0.5
 14
0.5
 24
-0.0820312500000033
 14
-0.5
 24
-0.0820312500000033
 14
-0.5
 24
0.5
 14
0.5
 24
0.5
  0
MTEXT
  5
FF
100
AcDbEntity
  8
寸法
390
0
 62
               0
100
AcDbMText
 10
97.023484178671666
 20
31.427998719970599
 30
0.0
 40
1.6288411458333327
 41
0.0
 71
               1
 72
               1
  1
{\fHGPｺﾞｼｯｸM|b0|i0|c128|p0;\l4}
 11
0.0
 21
1.0
 31
0.0
 73
               1
 44
0.7828267384257843
  0
POINT
  5
100
100
AcDbEntity
  8
Defpoints
370
               0
390
0
 62
               0
100
AcDbPoint
 10
92.985271188356762
 20
34.043981792887266
 30
0.0
  0
POINT
  5
101
100
AcDbEntity
  8
Defpoints
370
               0
390
0
 62
               0
100
AcDbPoint
 10
92.985271188356762
 20
30.043981792887259
 30
0.0
  0
POINT
  5
102
100
AcDbEntity
  8
Defpoints
370
               0
390
0
 62
               0
100
AcDbPoint
 10
100.53615865783831
 20
30.043981792887259
 30
0.0
  0
ENDBLK
  5
103
100
AcDbEntity
  8
寸法
390
0
100
AcDbBlockEnd
  0
BLOCK
  5
104
100
AcDbEntity
  8
寸法
390
0
100
AcDbBlockBegin
  2
*D9
 70
               1
 10
0.0
 20
0.0
 30
0.0
  3
*D9
  1

  0
LINE
  5
105
100
AcDbEntity
  8
寸法
370
              -2
390
0
  6
Continuous
 62
               0
100
AcDbLine
 10
65.967591041014373
 20
5.0439817928872603
 30
0.0
 11
65.967591041014373
 21
9.5439817928868802
 31
0.0
  0
LINE
  5
106
100
AcDbEntity
  8
寸法
370
              -2
390
0
  6
Continuous
 62
               0
100
AcDbLine
 10
68.467591041014373
 20
5.0439817928872603
 30
0.0
 11
68.467591041014373
 21
9.5439817928868802
 31
0.0
  0
LINE
  5
107
100
AcDbEntity
  8
寸法
370
              -2
390
0
  6
Continuous
 62
               0
100
AcDbLine
 10
68.467591041014373
 20
7.5439817928872603
 30
0.0
 11
65.967591041014373
 21
7.5439817928872603
 31
0.0
  0
LINE
  5
108
100
AcDbEntity
  8
寸法
370
              -2
390
0
  6
Continuous
 62
               0
100
AcDbLine
 10
65.967591041014373
 20
7.5439817928872603
 30
0.0
 11
58.96759104101443
 21
7.5439817928872603
 31
0.0
  0
POLYLINE
  5
109
102
{ACAD_REACTORS
330
10E
102
}
100
AcDbEntity
  8
一般
370
               5
390
0
  6
Continuous
 62
               0
100
AcDb2dPolyline
 66
               1
 10
0.0
 20
0.0
 30
0.0
 70
               1
 75
               5
  0
VERTEX
  5
10A
100
AcDbEntity
  8
一般
370
               5
390
0
  6
Continuous
 62
               0
100
AcDbVertex
100
AcDb2dVertex
 10
62.792591041014376
 20
8.3947204788560743
 30
0.0
  0
VERTEX
  5
10B
100
AcDbEntity
  8
一般
370
               5
390
0
  6
Continuous
 62
               0
100
AcDbVertex
100
AcDb2dVertex
 10
65.967591041014373
 20
7.5439817928872603
 30
0.0
  0
VERTEX
  5
10C
100
AcDbEntity
  8
一般
370
               5
390
0
  6
Continuous
 62
               0
100
AcDbVertex
100
AcDb2dVertex
 10
62.792591041014376
 20
6.6932431069184446
 30
0.0
  0
SEQEND
  5
10D
100
AcDbEntity
  8
一般
370
               5
390
0
  6
Continuous
 62
               0
  0
HATCH
  5
10E
100
AcDbEntity
  8
寸法
370
               0
390
0
  6
Continuous
 62
               0
100
AcDbHatch
 10
0.0
 20
0.0
 30
0.0
210
0.0
220
0.0
230
1.0
  2
SOLID
 70
               1
 71
               1
 91
        1
 92
        1
 93
        3
 72
               1
 10
62.792591041014376
 20
8.3947204788560743
 11
65.967591041014373
 21
7.5439817928872603
 72
               1
 10
65.967591041014373
 20
7.5439817928872603
 11
62.792591041014376
 21
6.6932431069184446
 72
               1
 10
62.792591041014376
 20
6.6932431069184446
 11
62.792591041014376
 21
8.3947204788560743
 97
        1
330
109
 75
               0
 76
               1
 98
        1
 10
0.0
 20
0.0
  0
LINE
  5
10F
100
AcDbEntity
  8
寸法
370
              -2
390
0
  6
Continuous
 62
               0
100
AcDbLine
 10
68.467591041014373
 20
7.5439817928872603
 30
0.0
 11
75.467591041014316
 21
7.5439817928872603
 31
0.0
  0
POLYLINE
  5
110
102
{ACAD_REACTORS
330
115
102
}
100
AcDbEntity
  8
一般
370
               5
390
0
  6
Continuous
 62
               0
100
AcDb2dPolyline
 66
               1
 10
0.0
 20
0.0
 30
0.0
 70
               1
 75
               5
  0
VERTEX
  5
111
100
AcDbEntity
  8
一般
370
               5
390
0
  6
Continuous
 62
               0
100
AcDbVertex
100
AcDb2dVertex
 10
71.64259104101437
 20
6.6932431069184455
 30
0.0
  0
VERTEX
  5
112
100
AcDbEntity
  8
一般
370
               5
390
0
  6
Continuous
 62
               0
100
AcDbVertex
100
AcDb2dVertex
 10
68.467591041014373
 20
7.5439817928872603
 30
0.0
  0
VERTEX
  5
113
100
AcDbEntity
  8
一般
370
               5
390
0
  6
Continuous
 62
               0
100
AcDbVertex
100
AcDb2dVertex
 10
71.64259104101437
 20
8.3947204788560743
 30
0.0
  0
SEQEND
  5
114
100
AcDbEntity
  8
一般
370
               5
390
0
  6
Continuous
 62
               0
  0
HATCH
  5
115
100
AcDbEntity
  8
寸法
370
               0
390
0
  6
Continuous
 62
               0
100
AcDbHatch
 10
0.0
 20
0.0
 30
0.0
210
0.0
220
0.0
230
1.0
  2
SOLID
 70
               1
 71
               1
 91
        1
 92
        1
 93
        3
 72
               1
 10
71.64259104101437
 20
6.6932431069184455
 11
68.467591041014373
 21
7.5439817928872603
 72
               1
 10
68.467591041014373
 20
7.5439817928872603
 11
71.64259104101437
 21
8.3947204788560743
 72
               1
 10
71.64259104101437
 20
8.3947204788560743
 11
71.64259104101437
 21
6.6932431069184455
 97
        1
330
110
 75
               0
 76
               1
 98
        1
 10
0.0
 20
0.0
  0
WIPEOUT
  5
116
100
AcDbEntity
  8
寸法
370
              -2
390
0
  6
Continuous
 62
               0
 92
        0
100
AcDbWipeout
 90
        0
 10
60.196367082681036
 20
9.1314817928872607
 30
0.0
 11
5.7712239583333371
 21
0.0
 31
0.0
 12
0.0
 22
5.7712239583333371
 32
0.0
 13
1.0
 23
1.0
340
0
 70
               7
280
               1
281
              50
282
              50
283
               0
360
0
 71
               2
 91
        5
 14
-0.5
 24
0.5
 14
0.5
 24
0.5
 14
0.5
 24
-0.2335243553008605
 14
-0.5
 24
-0.2335243553008605
 14
-0.5
 24
0.5
  0
MTEXT
  5
117
100
AcDbEntity
  8
寸法
390
0
 62
               0
100
AcDbMText
 10
60.196367082681036
 20
12.981830751220601
 30
0.0
 40
3.257682291666673
 41
0.0
 71
               1
 72
               1
  1
{\fHGPｺﾞｼｯｸM|b0|i0|c128|p0;\l2.5}
 73
               1
 44
0.7828267384257843
  0
POINT
  5
118
100
AcDbEntity
  8
Defpoints
370
               0
390
0
 62
               0
100
AcDbPoint
 10
68.467591041014373
 20
5.0439817928872603
 30
0.0
  0
POINT
  5
119
100
AcDbEntity
  8
Defpoints
370
               0
390
0
 62
               0
100
AcDbPoint
 10
65.967591041014373
 20
5.0439817928872603
 30
0.0
  0
POINT
  5
11A
100
AcDbEntity
  8
Defpoints
370
               0
390
0
 62
               0
100
AcDbPoint
 10
65.967591041014373
 20
7.5439817928872603
 30
0.0
  0
ENDBLK
  5
11B
100
AcDbEntity
  8
寸法
390
0
100
AcDbBlockEnd
  0
BLOCK
  5
11C
100
AcDbEntity
  8
寸法
390
0
100
AcDbBlockBegin
  2
*D10
 70
               1
 10
0.0
 20
0.0
 30
0.0
  3
*D10
  1

  0
LINE
  5
11D
100
AcDbEntity
  8
寸法
370
              -2
390
0
  6
Continuous
 62
               0
100
AcDbLine
 10
70.967591041014373
 20
-27.956018207112734
 30
0.0
 11
70.967591041014373
 21
-42.310990380304865
 31
0.0
  0
LINE
  5
11E
100
AcDbEntity
  8
寸法
370
              -2
390
0
  6
Continuous
 62
               0
100
AcDbLine
 10
65.967591041014373
 20
-27.956018207112734
 30
0.0
 11
65.967591041014373
 21
-42.310990380304858
 31
0.0
  0
LINE
  5
11F
100
AcDbEntity
  8
寸法
370
              -2
390
0
  6
Continuous
 62
               0
100
AcDbLine
 10
65.967591041014373
 20
-40.310990380305242
 30
0.0
 11
70.967591041014373
 21
-40.310990380305242
 31
0.0
  0
LINE
  5
120
100
AcDbEntity
  8
寸法
370
              -2
390
0
  6
Continuous
 62
               0
100
AcDbLine
 10
70.967591041014373
 20
-40.310990380305242
 30
0.0
 11
77.967591041014316
 21
-40.310990380305242
 31
0.0
  0
POLYLINE
  5
121
102
{ACAD_REACTORS
330
126
102
}
100
AcDbEntity
  8
一般
370
               5
390
0
  6
Continuous
 62
               0
100
AcDb2dPolyline
 66
               1
 10
0.0
 20
0.0
 30
0.0
 70
               1
 75
               5
  0
VERTEX
  5
122
100
AcDbEntity
  8
一般
370
               5
390
0
  6
Continuous
 62
               0
100
AcDbVertex
100
AcDb2dVertex
 10
74.14259104101437
 20
-41.161729066274056
 30
0.0
  0
VERTEX
  5
123
100
AcDbEntity
  8
一般
370
               5
390
0
  6
Continuous
 62
               0
100
AcDbVertex
100
AcDb2dVertex
 10
70.967591041014373
 20
-40.310990380305242
 30
0.0
  0
VERTEX
  5
124
100
AcDbEntity
  8
一般
370
               5
390
0
  6
Continuous
 62
               0
100
AcDbVertex
100
AcDb2dVertex
 10
74.14259104101437
 20
-39.460251694336428
 30
0.0
  0
SEQEND
  5
125
100
AcDbEntity
  8
一般
370
               5
390
0
  6
Continuous
 62
               0
  0
HATCH
  5
126
100
AcDbEntity
  8
寸法
370
               0
390
0
  6
Continuous
 62
               0
100
AcDbHatch
 10
0.0
 20
0.0
 30
0.0
210
0.0
220
0.0
230
1.0
  2
SOLID
 70
               1
 71
               1
 91
        1
 92
        1
 93
        3
 72
               1
 10
74.14259104101437
 20
-41.161729066274056
 11
70.967591041014373
 21
-40.310990380305242
 72
               1
 10
70.967591041014373
 20
-40.310990380305242
 11
74.14259104101437
 21
-39.460251694336428
 72
               1
 10
74.14259104101437
 20
-39.460251694336428
 11
74.14259104101437
 21
-41.161729066274056
 97
        1
330
121
 75
               0
 76
               1
 98
        1
 10
0.0
 20
0.0
  0
LINE
  5
127
100
AcDbEntity
  8
寸法
370
              -2
390
0
  6
Continuous
 62
               0
100
AcDbLine
 10
65.967591041014373
 20
-40.310990380305242
 30
0.0
 11
58.96759104101443
 21
-40.310990380305242
 31
0.0
  0
POLYLINE
  5
128
102
{ACAD_REACTORS
330
12D
102
}
100
AcDbEntity
  8
一般
370
               5
390
0
  6
Continuous
 62
               0
100
AcDb2dPolyline
 66
               1
 10
0.0
 20
0.0
 30
0.0
 70
               1
 75
               5
  0
VERTEX
  5
129
100
AcDbEntity
  8
一般
370
               5
390
0
  6
Continuous
 62
               0
100
AcDbVertex
100
AcDb2dVertex
 10
62.792591041014376
 20
-39.460251694336428
 30
0.0
  0
VERTEX
  5
12A
100
AcDbEntity
  8
一般
370
               5
390
0
  6
Continuous
 62
               0
100
AcDbVertex
100
AcDb2dVertex
 10
65.967591041014373
 20
-40.310990380305242
 30
0.0
  0
VERTEX
  5
12B
100
AcDbEntity
  8
一般
370
               5
390
0
  6
Continuous
 62
               0
100
AcDbVertex
100
AcDb2dVertex
 10
62.792591041014376
 20
-41.161729066274056
 30
0.0
  0
SEQEND
  5
12C
100
AcDbEntity
  8
一般
370
               5
390
0
  6
Continuous
 62
               0
  0
HATCH
  5
12D
100
AcDbEntity
  8
寸法
370
               0
390
0
  6
Continuous
 62
               0
100
AcDbHatch
 10
0.0
 20
0.0
 30
0.0
210
0.0
220
0.0
230
1.0
  2
SOLID
 70
               1
 71
               1
 91
        1
 92
        1
 93
        3
 72
               1
 10
62.792591041014376
 20
-39.460251694336428
 11
65.967591041014373
 21
-40.310990380305242
 72
               1
 10
65.967591041014373
 20
-40.310990380305242
 11
62.792591041014376
 21
-41.161729066274056
 72
               1
 10
62.792591041014376
 20
-41.161729066274056
 11
62.792591041014376
 21
-39.460251694336428
 97
        1
330
128
 75
               0
 76
               1
 98
        1
 10
0.0
 20
0.0
  0
WIPEOUT
  5
12E
100
AcDbEntity
  8
寸法
370
              -2
390
0
  6
Continuous
 62
               0
 92
        0
100
AcDbWipeout
 90
        0
 10
67.235624895181033
 20
-38.723490380305236
 30
0.0
 11
4.2333333333333414
 21
0.0
 31
0.0
 12
0.0
 22
4.2333333333333414
 32
0.0
 13
1.0
 23
1.0
340
0
 70
               7
280
               1
281
              50
282
              50
283
               0
360
0
 71
               2
 91
        5
 14
-0.5
 24
0.5
 14
0.0820312499999987
 24
0.5
 14
0.0820312499999987
 24
-0.5
 14
-0.5
 24
-0.5
 14
-0.5
 24
0.5
  0
MTEXT
  5
12F
100
AcDbEntity
  8
寸法
390
0
 62
               0
100
AcDbMText
 10
67.235624895181033
 20
-34.873141421971894
 30
0.0
 40
3.257682291666673
 41
0.0
 71
               1
 72
               1
  1
{\fHGPｺﾞｼｯｸM|b0|i0|c128|p0;\l5}
 73
               1
 44
0.7828267384257843
  0
POINT
  5
130
100
AcDbEntity
  8
Defpoints
370
               0
390
0
 62
               0
100
AcDbPoint
 10
65.967591041014373
 20
-27.956018207112734
 30
0.0
  0
POINT
  5
131
100
AcDbEntity
  8
Defpoints
370
               0
390
0
 62
               0
100
AcDbPoint
 10
70.967591041014373
 20
-27.956018207112734
 30
0.0
  0
POINT
  5
132
100
AcDbEntity
  8
Defpoints
370
               0
390
0
 62
               0
100
AcDbPoint
 10
70.967591041014373
 20
-40.310990380305242
 30
0.0
  0
ENDBLK
  5
133
100
AcDbEntity
  8
寸法
390
0
100
AcDbBlockEnd
  0
BLOCK
  5
134
100
AcDbEntity
  8
寸法
390
0
100
AcDbBlockBegin
  2
*D11
 70
               1
 10
0.0
 20
0.0
 30
0.0
  3
*D11
  1

  0
LINE
  5
135
100
AcDbEntity
  8
寸法
370
              -2
390
0
  6
Continuous
 62
               0
100
AcDbLine
 10
74.967591041014373
 20
-20.931153206070867
 30
0.0
 11
74.967591041014373
 21
-42.310990380304887
 31
0.0
  0
LINE
  5
136
100
AcDbEntity
  8
寸法
370
              -2
390
0
  6
Continuous
 62
               0
100
AcDbLine
 10
70.967591041014373
 20
-20.956018207112763
 30
0.0
 11
70.967591041014373
 21
-42.310990380304887
 31
0.0
  0
LINE
  5
137
100
AcDbEntity
  8
寸法
370
              -2
390
0
  6
Continuous
 62
               0
100
AcDbLine
 10
70.967591041014373
 20
-40.31099038030527
 30
0.0
 11
74.967591041014373
 21
-40.31099038030527
 31
0.0
  0
LINE
  5
138
100
AcDbEntity
  8
寸法
370
              -2
390
0
  6
Continuous
 62
               0
100
AcDbLine
 10
74.967591041014373
 20
-40.31099038030527
 30
0.0
 11
81.967591041014316
 21
-40.31099038030527
 31
0.0
  0
POLYLINE
  5
139
102
{ACAD_REACTORS
330
13E
102
}
100
AcDbEntity
  8
一般
370
               5
390
0
  6
Continuous
 62
               0
100
AcDb2dPolyline
 66
               1
 10
0.0
 20
0.0
 30
0.0
 70
               1
 75
               5
  0
VERTEX
  5
13A
100
AcDbEntity
  8
一般
370
               5
390
0
  6
Continuous
 62
               0
100
AcDbVertex
100
AcDb2dVertex
 10
78.14259104101437
 20
-41.161729066274084
 30
0.0
  0
VERTEX
  5
13B
100
AcDbEntity
  8
一般
370
               5
390
0
  6
Continuous
 62
               0
100
AcDbVertex
100
AcDb2dVertex
 10
74.967591041014373
 20
-40.31099038030527
 30
0.0
  0
VERTEX
  5
13C
100
AcDbEntity
  8
一般
370
               5
390
0
  6
Continuous
 62
               0
100
AcDbVertex
100
AcDb2dVertex
 10
78.14259104101437
 20
-39.460251694336456
 30
0.0
  0
SEQEND
  5
13D
100
AcDbEntity
  8
一般
370
               5
390
0
  6
Continuous
 62
               0
  0
HATCH
  5
13E
100
AcDbEntity
  8
寸法
370
               0
390
0
  6
Continuous
 62
               0
100
AcDbHatch
 10
0.0
 20
0.0
 30
0.0
210
0.0
220
0.0
230
1.0
  2
SOLID
 70
               1
 71
               1
 91
        1
 92
        1
 93
        3
 72
               1
 10
78.14259104101437
 20
-41.161729066274084
 11
74.967591041014373
 21
-40.31099038030527
 72
               1
 10
74.967591041014373
 20
-40.31099038030527
 11
78.14259104101437
 21
-39.460251694336456
 72
               1
 10
78.14259104101437
 20
-39.460251694336456
 11
78.14259104101437
 21
-41.161729066274084
 97
        1
330
139
 75
               0
 76
               1
 98
        1
 10
0.0
 20
0.0
  0
LINE
  5
13F
100
AcDbEntity
  8
寸法
370
              -2
390
0
  6
Continuous
 62
               0
100
AcDbLine
 10
70.967591041014373
 20
-40.31099038030527
 30
0.0
 11
63.96759104101443
 21
-40.31099038030527
 31
0.0
  0
POLYLINE
  5
140
102
{ACAD_REACTORS
330
145
102
}
100
AcDbEntity
  8
一般
370
               5
390
0
  6
Continuous
 62
               0
100
AcDb2dPolyline
 66
               1
 10
0.0
 20
0.0
 30
0.0
 70
               1
 75
               5
  0
VERTEX
  5
141
100
AcDbEntity
  8
一般
370
               5
390
0
  6
Continuous
 62
               0
100
AcDbVertex
100
AcDb2dVertex
 10
67.792591041014376
 20
-39.460251694336456
 30
0.0
  0
VERTEX
  5
142
100
AcDbEntity
  8
一般
370
               5
390
0
  6
Continuous
 62
               0
100
AcDbVertex
100
AcDb2dVertex
 10
70.967591041014373
 20
-40.31099038030527
 30
0.0
  0
VERTEX
  5
143
100
AcDbEntity
  8
一般
370
               5
390
0
  6
Continuous
 62
               0
100
AcDbVertex
100
AcDb2dVertex
 10
67.792591041014376
 20
-41.161729066274084
 30
0.0
  0
SEQEND
  5
144
100
AcDbEntity
  8
一般
370
               5
390
0
  6
Continuous
 62
               0
  0
HATCH
  5
145
100
AcDbEntity
  8
寸法
370
               0
390
0
  6
Continuous
 62
               0
100
AcDbHatch
 10
0.0
 20
0.0
 30
0.0
210
0.0
220
0.0
230
1.0
  2
SOLID
 70
               1
 71
               1
 91
        1
 92
        1
 93
        3
 72
               1
 10
67.792591041014376
 20
-39.460251694336456
 11
70.967591041014373
 21
-40.31099038030527
 72
               1
 10
70.967591041014373
 20
-40.31099038030527
 11
67.792591041014376
 21
-41.161729066274084
 72
               1
 10
67.792591041014376
 20
-41.161729066274084
 11
67.792591041014376
 21
-39.460251694336456
 97
        1
330
140
 75
               0
 76
               1
 98
        1
 10
0.0
 20
0.0
  0
WIPEOUT
  5
146
100
AcDbEntity
  8
寸法
370
              -2
390
0
  6
Continuous
 62
               0
 92
        0
100
AcDbWipeout
 90
        0
 10
71.735624895181033
 20
-38.723490380305265
 30
0.0
 11
4.2333333333333414
 21
0.0
 31
0.0
 12
0.0
 22
4.2333333333333414
 32
0.0
 13
1.0
 23
1.0
340
0
 70
               7
280
               1
281
              50
282
              50
283
               0
360
0
 71
               2
 91
        5
 14
-0.5
 24
0.5
 14
0.0820312499999987
 24
0.5
 14
0.0820312499999987
 24
-0.5
 14
-0.5
 24
-0.5
 14
-0.5
 24
0.5
  0
MTEXT
  5
147
100
AcDbEntity
  8
寸法
390
0
 62
               0
100
AcDbMText
 10
71.735624895181033
 20
-34.873141421971923
 30
0.0
 40
3.257682291666673
 41
0.0
 71
               1
 72
               1
  1
{\fHGPｺﾞｼｯｸM|b0|i0|c128|p0;\l4}
 73
               1
 44
0.7828267384257843
  0
POINT
  5
148
100
AcDbEntity
  8
Defpoints
370
               0
390
0
 62
               0
100
AcDbPoint
 10
70.967591041014373
 20
-20.956018207112763
 30
0.0
  0
POINT
  5
149
100
AcDbEntity
  8
Defpoints
370
               0
390
0
 62
               0
100
AcDbPoint
 10
74.967591041014373
 20
-20.931153206070867
 30
0.0
  0
POINT
  5
14A
100
AcDbEntity
  8
Defpoints
370
               0
390
0
 62
               0
100
AcDbPoint
 10
74.967591041014373
 20
-40.31099038030527
 30
0.0
  0
ENDBLK
  5
14B
100
AcDbEntity
  8
寸法
390
0
100
AcDbBlockEnd
  0
BLOCK
  5
14C
100
AcDbEntity
  8
寸法
390
0
100
AcDbBlockBegin
  2
*D12
 70
               1
 10
0.0
 20
0.0
 30
0.0
  3
*D12
  1

  0
LINE
  5
14D
100
AcDbEntity
  8
寸法
370
              -2
390
0
  6
Continuous
 62
               0
100
AcDbLine
 10
65.967591041014373
 20
-20.956018207112763
 30
0.0
 11
44.536158657838683
 21
-20.956018207112763
 31
0.0
  0
LINE
  5
14E
100
AcDbEntity
  8
寸法
370
              -2
390
0
  6
Continuous
 62
               0
100
AcDbLine
 10
65.967591041014373
 20
-27.956018207112734
 30
0.0
 11
44.536158657838683
 21
-27.956018207112734
 31
0.0
  0
LINE
  5
14F
100
AcDbEntity
  8
寸法
370
              -2
390
0
  6
Continuous
 62
               0
100
AcDbLine
 10
46.5361586578383
 20
-27.956018207112734
 30
0.0
 11
46.5361586578383
 21
-20.956018207112763
 31
0.0
  0
LINE
  5
150
100
AcDbEntity
  8
寸法
370
              -2
390
0
  6
Continuous
 62
               0
100
AcDbLine
 10
46.5361586578383
 20
-20.956018207112763
 30
0.0
 11
46.5361586578383
 21
-13.956018207112823
 31
0.0
  0
POLYLINE
  5
151
102
{ACAD_REACTORS
330
156
102
}
100
AcDbEntity
  8
一般
370
               5
390
0
  6
Continuous
 62
               0
100
AcDb2dPolyline
 66
               1
 10
0.0
 20
0.0
 30
0.0
 70
               1
 75
               5
  0
VERTEX
  5
152
100
AcDbEntity
  8
一般
370
               5
390
0
  6
Continuous
 62
               0
100
AcDbVertex
100
AcDb2dVertex
 10
47.386897343807114
 20
-17.781018207112762
 30
0.0
  0
VERTEX
  5
153
100
AcDbEntity
  8
一般
370
               5
390
0
  6
Continuous
 62
               0
100
AcDbVertex
100
AcDb2dVertex
 10
46.5361586578383
 20
-20.956018207112763
 30
0.0
  0
VERTEX
  5
154
100
AcDbEntity
  8
一般
370
               5
390
0
  6
Continuous
 62
               0
100
AcDbVertex
100
AcDb2dVertex
 10
45.685419971869486
 20
-17.781018207112762
 30
0.0
  0
SEQEND
  5
155
100
AcDbEntity
  8
一般
370
               5
390
0
  6
Continuous
 62
               0
  0
HATCH
  5
156
100
AcDbEntity
  8
寸法
370
               0
390
0
  6
Continuous
 62
               0
100
AcDbHatch
 10
0.0
 20
0.0
 30
0.0
210
0.0
220
0.0
230
1.0
  2
SOLID
 70
               1
 71
               1
 91
        1
 92
        1
 93
        3
 72
               1
 10
47.386897343807114
 20
-17.781018207112762
 11
46.5361586578383
 21
-20.956018207112763
 72
               1
 10
46.5361586578383
 20
-20.956018207112763
 11
45.685419971869486
 21
-17.781018207112762
 72
               1
 10
45.685419971869486
 20
-17.781018207112762
 11
47.386897343807114
 21
-17.781018207112762
 97
        1
330
151
 75
               0
 76
               1
 98
        1
 10
0.0
 20
0.0
  0
LINE
  5
157
100
AcDbEntity
  8
寸法
370
              -2
390
0
  6
Continuous
 62
               0
100
AcDbLine
 10
46.5361586578383
 20
-27.956018207112734
 30
0.0
 11
46.5361586578383
 21
-34.956018207112677
 31
0.0
  0
POLYLINE
  5
158
102
{ACAD_REACTORS
330
15D
102
}
100
AcDbEntity
  8
一般
370
               5
390
0
  6
Continuous
 62
               0
100
AcDb2dPolyline
 66
               1
 10
0.0
 20
0.0
 30
0.0
 70
               1
 75
               5
  0
VERTEX
  5
159
100
AcDbEntity
  8
一般
370
               5
390
0
  6
Continuous
 62
               0
100
AcDbVertex
100
AcDb2dVertex
 10
45.685419971869486
 20
-31.131018207112735
 30
0.0
  0
VERTEX
  5
15A
100
AcDbEntity
  8
一般
370
               5
390
0
  6
Continuous
 62
               0
100
AcDbVertex
100
AcDb2dVertex
 10
46.5361586578383
 20
-27.956018207112734
 30
0.0
  0
VERTEX
  5
15B
100
AcDbEntity
  8
一般
370
               5
390
0
  6
Continuous
 62
               0
100
AcDbVertex
100
AcDb2dVertex
 10
47.386897343807114
 20
-31.131018207112735
 30
0.0
  0
SEQEND
  5
15C
100
AcDbEntity
  8
一般
370
               5
390
0
  6
Continuous
 62
               0
  0
HATCH
  5
15D
100
AcDbEntity
  8
寸法
370
               0
390
0
  6
Continuous
 62
               0
100
AcDbHatch
 10
0.0
 20
0.0
 30
0.0
210
0.0
220
0.0
230
1.0
  2
SOLID
 70
               1
 71
               1
 91
        1
 92
        1
 93
        3
 72
               1
 10
45.685419971869486
 20
-31.131018207112735
 11
46.5361586578383
 21
-27.956018207112734
 72
               1
 10
46.5361586578383
 20
-27.956018207112734
 11
47.386897343807114
 21
-31.131018207112735
 72
               1
 10
47.386897343807114
 20
-31.131018207112735
 11
45.685419971869486
 21
-31.131018207112735
 97
        1
330
158
 75
               0
 76
               1
 98
        1
 10
0.0
 20
0.0
  0
WIPEOUT
  5
15E
100
AcDbEntity
  8
寸法
370
              -2
390
0
  6
Continuous
 62
               0
 92
        0
100
AcDbWipeout
 90
        0
 10
40.71532532450496
 20
-25.687984352946081
 30
0.0
 11
4.2333333333333414
 21
0.0
 31
0.0
 12
0.0
 22
4.2333333333333414
 32
0.0
 13
1.0
 23
1.0
340
0
 70
               7
280
               1
281
              50
282
              50
283
               0
360
0
 71
               2
 91
        5
 14
0.5
 24
0.5
 14
0.5
 24
-0.0820312499999987
 14
-0.5
 24
-0.0820312499999987
 14
-0.5
 24
0.5
 14
0.5
 24
0.5
  0
MTEXT
  5
15F
100
AcDbEntity
  8
寸法
390
0
 62
               0
100
AcDbMText
 10
41.098309699504959
 20
-25.687984352946081
 30
0.0
 40
3.257682291666673
 41
0.0
 71
               1
 72
               1
  1
{\fHGPｺﾞｼｯｸM|b0|i0|c128|p0;\l7}
 11
0.0
 21
1.0
 31
0.0
 73
               1
 44
0.7828267384257843
  0
POINT
  5
160
100
AcDbEntity
  8
Defpoints
370
               0
390
0
 62
               0
100
AcDbPoint
 10
65.967591041014373
 20
-27.956018207112734
 30
0.0
  0
POINT
  5
161
100
AcDbEntity
  8
Defpoints
370
               0
390
0
 62
               0
100
AcDbPoint
 10
65.967591041014373
 20
-20.956018207112763
 30
0.0
  0
POINT
  5
162
100
AcDbEntity
  8
Defpoints
370
               0
390
0
 62
               0
100
AcDbPoint
 10
46.5361586578383
 20
-20.956018207112763
 30
0.0
  0
ENDBLK
  5
163
100
AcDbEntity
  8
寸法
390
0
100
AcDbBlockEnd
  0
BLOCK
  5
164
100
AcDbEntity
  8
寸法
390
0
100
AcDbBlockBegin
  2
*D13
 70
               1
 10
0.0
 20
0.0
 30
0.0
  3
*D13
  1

  0
LINE
  5
165
100
AcDbEntity
  8
寸法
370
              -2
390
0
  6
Continuous
 62
               0
100
AcDbLine
 10
65.967591041014373
 20
-12.931153206070876
 30
0.0
 11
44.536158657838683
 21
-12.931153206070876
 31
0.0
  0
LINE
  5
166
100
AcDbEntity
  8
寸法
370
              -2
390
0
  6
Continuous
 62
               0
100
AcDbLine
 10
65.967591041014373
 20
-20.956018207112763
 30
0.0
 11
44.536158657838683
 21
-20.956018207112763
 31
0.0
  0
LINE
  5
167
100
AcDbEntity
  8
寸法
370
              -2
390
0
  6
Continuous
 62
               0
100
AcDbLine
 10
46.5361586578383
 20
-20.956018207112763
 30
0.0
 11
46.5361586578383
 21
-12.931153206070876
 31
0.0
  0
LINE
  5
168
100
AcDbEntity
  8
寸法
370
              -2
390
0
  6
Continuous
 62
               0
100
AcDbLine
 10
46.5361586578383
 20
-12.931153206070876
 30
0.0
 11
46.5361586578383
 21
-5.9311532060709364
 31
0.0
  0
POLYLINE
  5
169
102
{ACAD_REACTORS
330
16E
102
}
100
AcDbEntity
  8
一般
370
               5
390
0
  6
Continuous
 62
               0
100
AcDb2dPolyline
 66
               1
 10
0.0
 20
0.0
 30
0.0
 70
               1
 75
               5
  0
VERTEX
  5
16A
100
AcDbEntity
  8
一般
370
               5
390
0
  6
Continuous
 62
               0
100
AcDbVertex
100
AcDb2dVertex
 10
47.386897343807114
 20
-9.7561532060708771
 30
0.0
  0
VERTEX
  5
16B
100
AcDbEntity
  8
一般
370
               5
390
0
  6
Continuous
 62
               0
100
AcDbVertex
100
AcDb2dVertex
 10
46.5361586578383
 20
-12.931153206070876
 30
0.0
  0
VERTEX
  5
16C
100
AcDbEntity
  8
一般
370
               5
390
0
  6
Continuous
 62
               0
100
AcDbVertex
100
AcDb2dVertex
 10
45.685419971869486
 20
-9.7561532060708771
 30
0.0
  0
SEQEND
  5
16D
100
AcDbEntity
  8
一般
370
               5
390
0
  6
Continuous
 62
               0
  0
HATCH
  5
16E
100
AcDbEntity
  8
寸法
370
               0
390
0
  6
Continuous
 62
               0
100
AcDbHatch
 10
0.0
 20
0.0
 30
0.0
210
0.0
220
0.0
230
1.0
  2
SOLID
 70
               1
 71
               1
 91
        1
 92
        1
 93
        3
 72
               1
 10
47.386897343807114
 20
-9.7561532060708771
 11
46.5361586578383
 21
-12.931153206070876
 72
               1
 10
46.5361586578383
 20
-12.931153206070876
 11
45.685419971869486
 21
-9.7561532060708771
 72
               1
 10
45.685419971869486
 20
-9.7561532060708771
 11
47.386897343807114
 21
-9.7561532060708771
 97
        1
330
169
 75
               0
 76
               1
 98
        1
 10
0.0
 20
0.0
  0
LINE
  5
16F
100
AcDbEntity
  8
寸法
370
              -2
390
0
  6
Continuous
 62
               0
100
AcDbLine
 10
46.5361586578383
 20
-20.956018207112763
 30
0.0
 11
46.5361586578383
 21
-27.956018207112702
 31
0.0
  0
POLYLINE
  5
170
102
{ACAD_REACTORS
330
175
102
}
100
AcDbEntity
  8
一般
370
               5
390
0
  6
Continuous
 62
               0
100
AcDb2dPolyline
 66
               1
 10
0.0
 20
0.0
 30
0.0
 70
               1
 75
               5
  0
VERTEX
  5
171
100
AcDbEntity
  8
一般
370
               5
390
0
  6
Continuous
 62
               0
100
AcDbVertex
100
AcDb2dVertex
 10
45.685419971869486
 20
-24.131018207112763
 30
0.0
  0
VERTEX
  5
172
100
AcDbEntity
  8
一般
370
               5
390
0
  6
Continuous
 62
               0
100
AcDbVertex
100
AcDb2dVertex
 10
46.5361586578383
 20
-20.956018207112763
 30
0.0
  0
VERTEX
  5
173
100
AcDbEntity
  8
一般
370
               5
390
0
  6
Continuous
 62
               0
100
AcDbVertex
100
AcDb2dVertex
 10
47.386897343807114
 20
-24.131018207112763
 30
0.0
  0
SEQEND
  5
174
100
AcDbEntity
  8
一般
370
               5
390
0
  6
Continuous
 62
               0
  0
HATCH
  5
175
100
AcDbEntity
  8
寸法
370
               0
390
0
  6
Continuous
 62
               0
100
AcDbHatch
 10
0.0
 20
0.0
 30
0.0
210
0.0
220
0.0
230
1.0
  2
SOLID
 70
               1
 71
               1
 91
        1
 92
        1
 93
        3
 72
               1
 10
45.685419971869486
 20
-24.131018207112763
 11
46.5361586578383
 21
-20.956018207112763
 72
               1
 10
46.5361586578383
 20
-20.956018207112763
 11
47.386897343807114
 21
-24.131018207112763
 72
               1
 10
47.386897343807114
 20
-24.131018207112763
 11
45.685419971869486
 21
-24.131018207112763
 97
        1
330
170
 75
               0
 76
               1
 98
        1
 10
0.0
 20
0.0
  0
WIPEOUT
  5
176
100
AcDbEntity
  8
寸法
370
              -2
390
0
  6
Continuous
 62
               0
 92
        0
100
AcDbWipeout
 90
        0
 10
40.71532532450496
 20
-18.175551852425151
 30
0.0
 11
4.2333333333333414
 21
0.0
 31
0.0
 12
0.0
 22
4.2333333333333414
 32
0.0
 13
1.0
 23
1.0
340
0
 70
               7
280
               1
281
              50
282
              50
283
               0
360
0
 71
               2
 91
        5
 14
0.5
 24
0.5
 14
0.5
 24
-0.0820312499999987
 14
-0.5
 24
-0.0820312499999987
 14
-0.5
 24
0.5
 14
0.5
 24
0.5
  0
MTEXT
  5
177
100
AcDbEntity
  8
寸法
390
0
 62
               0
100
AcDbMText
 10
41.098309699504959
 20
-18.175551852425151
 30
0.0
 40
3.257682291666673
 41
0.0
 71
               1
 72
               1
  1
{\fHGPｺﾞｼｯｸM|b0|i0|c128|p0;\l8}
 11
0.0
 21
1.0
 31
0.0
 73
               1
 44
0.7828267384257843
  0
POINT
  5
178
100
AcDbEntity
  8
Defpoints
370
               0
390
0
 62
               0
100
AcDbPoint
 10
65.967591041014373
 20
-20.956018207112763
 30
0.0
  0
POINT
  5
179
100
AcDbEntity
  8
Defpoints
370
               0
390
0
 62
               0
100
AcDbPoint
 10
65.967591041014373
 20
-12.931153206070876
 30
0.0
  0
POINT
  5
17A
100
AcDbEntity
  8
Defpoints
370
               0
390
0
 62
               0
100
AcDbPoint
 10
46.5361586578383
 20
-12.931153206070876
 30
0.0
  0
ENDBLK
  5
17B
100
AcDbEntity
  8
寸法
390
0
100
AcDbBlockEnd
  0
ENDSEC
  0
SECTION
  2
ENTITIES
  0
WIPEOUT
  5
17C
100
AcDbEntity
  8
一般
370
              18
390
0
  6
Continuous
 62
               7
 92
        0
100
AcDbWipeout
 90
        0
 10
-53.599999999999994
 20
116.1425153148144
 30
0.0
 11
109.19999999999999
 21
0.0
 31
0.0
 12
0.0
 22
109.19999999999999
 32
0.0
 13
1.0
 23
1.0
340
0
 70
               7
280
               1
281
              50
282
              50
283
               0
360
0
 71
               2
 91
        5
 14
-0.5
 24
0.3365384615384618
 14
0.5
 24
0.3365384615384618
 14
0.5
 24
0.5
 14
-0.5
 24
0.5
 14
-0.5
 24
0.3365384615384618
  0
POLYLINE
  5
17D
100
AcDbEntity
  8
一般
370
              18
390
0
  6
Continuous
 62
               7
100
AcDb2dPolyline
 66
               1
 10
0.0
 20
0.0
 30
0.0
 70
               1
 75
               5
  0
VERTEX
  5
17E
100
AcDbEntity
  8
一般
370
              18
390
0
  6
Continuous
 62
               7
100
AcDbVertex
100
AcDb2dVertex
 10
-53.599999999999994
 20
133.99251531481437
 30
0.0
  0
VERTEX
  5
17F
100
AcDbEntity
  8
一般
370
              18
390
0
  6
Continuous
 62
               7
100
AcDbVertex
100
AcDb2dVertex
 10
55.599999999999994
 20
133.99251531481437
 30
0.0
  0
VERTEX
  5
180
100
AcDbEntity
  8
一般
370
              18
390
0
  6
Continuous
 62
               7
100
AcDbVertex
100
AcDb2dVertex
 10
55.599999999999994
 20
116.1425153148144
 30
0.0
  0
VERTEX
  5
181
100
AcDbEntity
  8
一般
370
              18
390
0
  6
Continuous
 62
               7
100
AcDbVertex
100
AcDb2dVertex
 10
-53.599999999999994
 20
116.1425153148144
 30
0.0
  0
SEQEND
  5
182
100
AcDbEntity
  8
一般
370
              18
390
0
  6
Continuous
 62
               7
  0
WIPEOUT
  5
184
100
AcDbEntity
  8
一般
370
              18
390
0
  6
Continuous
 62
               0
 92
        0
100
AcDbWipeout
 90
        0
 10
-43.207310776147764
 20
119.2622184228442
 30
0.0
 11
87.591967222425666
 21
0.0
 31
0.0
 12
0.0
 22
87.591967222425666
 32
0.0
 13
1.0
 23
1.0
340
0
 70
               7
280
               1
281
              50
282
              50
283
               0
360
0
 71
               2
 91
        5
 14
-0.5
 24
0.5
 14
0.5
 24
0.5
 14
0.5
 24
0.3815911207893128
 14
-0.5
 24
0.3815911207893128
 14
-0.5
 24
0.5
  0
MTEXT
  5
185
100
AcDbEntity
  8
一般
390
0
 62
               0
100
AcDbMText
 10
-43.207310776147764
 20
128.69557337076088
 30
0.0
 40
7.9813216145833339
 41
0.0
 71
               1
 72
               1
  1
{\fHGPｺﾞｼｯｸM|b0|i0|c128|p0;\C7;\lLC-KK15A  仕様図}
 73
               1
 44
0.7828267384257843
  0
WIPEOUT
  5
186
100
AcDbEntity
  8
一般
370
               5
390
0
  6
Continuous
 62
               7
 92
        0
100
AcDbWipeout
 90
        0
 10
-90.968193194403852
 20
-27.956018207112734
 30
0.0
 11
63.999999999999964
 21
0.0
 31
0.0
 12
0.0
 22
63.999999999999964
 32
0.0
 13
1.0
 23
1.0
340
0
 70
               7
280
               1
281
              50
282
              50
283
               0
360
0
 71
               2
 91
        6
 14
-0.5
 24
-0.5
 14
0.2031250000000013
 24
-0.5
 14
0.2031250000000013
 24
0.5
 14
-0.5
 24
0.5
 14
-0.5
 24
-0.5
 14
-0.5
 24
-0.5
  0
LWPOLYLINE
  5
187
100
AcDbEntity
  8
一般
370
              18
390
0
  6
Continuous
 62
               7
100
AcDbPolyline
 90
        4
 70
             129
 10
-90.968193194403852
 20
36.04398179288723
 10
-45.968193194403796
 20
36.04398179288723
 10
-45.968193194403796
 20
-27.956018207112734
 10
-90.968193194403852
 20
-27.956018207112734
  0
LWPOLYLINE
  5
188
102
{ACAD_REACTORS
330
189
102
}
100
AcDbEntity
  8
一般
370
              18
390
0
  6
Continuous
 62
               7
100
AcDbPolyline
 90
        4
 70
             129
 10
-46.013164176715236
 20
-21.599604030922947
 10
-25.982144032608289
 20
-21.599604030922947
 10
-25.982144032608289
 20
-22.599604030922947
 10
-46.013164176715236
 20
-22.599604030922947
  0
HATCH
  5
189
100
AcDbEntity
  8
一般
370
               0
390
0
  6
Continuous
 62
               1
100
AcDbHatch
 10
0.0
 20
0.0
 30
0.0
210
0.0
220
0.0
230
1.0
  2
SOLID
 70
               1
 71
               1
 91
        1
 92
        1
 93
        4
 72
               1
 10
-46.013164176715236
 20
-21.599604030922947
 11
-25.982144032608289
 21
-21.599604030922947
 72
               1
 10
-25.982144032608289
 20
-21.599604030922947
 11
-25.982144032608289
 21
-22.599604030922947
 72
               1
 10
-25.982144032608289
 20
-22.599604030922947
 11
-46.013164176715236
 21
-22.599604030922947
 72
               1
 10
-46.013164176715236
 20
-22.599604030922947
 11
-46.013164176715236
 21
-21.599604030922947
 97
        1
330
188
 75
               0
 76
               1
 98
        1
 10
0.0
 20
0.0
  0
WIPEOUT
  5
18A
100
AcDbEntity
  8
一般
370
               5
390
0
  6
Continuous
 62
               7
 92
        0
100
AcDbWipeout
 90
        0
 10
-46.013164176715236
 20
-24.599604030922954
 30
0.0
 11
20.031020144106947
 21
0.0
 31
0.0
 12
0.0
 22
20.031020144106947
 32
0.0
 13
1.0
 23
1.0
340
0
 70
               7
280
               1
281
              50
282
              50
283
               0
360
0
 71
               2
 91
        6
 14
-0.5
 24
0.4500774302653678
 14
0.5
 24
0.4500774302653678
 14
0.5
 24
0.5
 14
-0.5
 24
0.5
 14
-0.5
 24
0.4500774302653678
 14
-0.5
 24
0.4500774302653678
  0
LWPOLYLINE
  5
18B
100
AcDbEntity
  8
一般
370
              18
390
0
  6
Continuous
 62
               7
100
AcDbPolyline
 90
        4
 70
             129
 10
-46.013164176715236
 20
-23.599604030922954
 10
-25.982144032608289
 20
-23.599604030922954
 10
-25.982144032608289
 20
-24.599604030922954
 10
-46.013164176715236
 20
-24.599604030922954
  0
LWPOLYLINE
  5
18C
102
{ACAD_REACTORS
330
18D
102
}
100
AcDbEntity
  8
一般
370
              18
390
0
  6
Continuous
 62
               7
100
AcDbPolyline
 90
        4
 70
             129
 10
-82.530233482617746
 20
36.043981792887273
 10
-82.530233482617746
 20
82.0
 10
-81.530233482617746
 20
82.0
 10
-81.530233482617746
 20
36.043981792887273
  0
HATCH
  5
18D
100
AcDbEntity
  8
一般
370
               0
390
0
  6
Continuous
 62
               1
100
AcDbHatch
 10
0.0
 20
0.0
 30
0.0
210
0.0
220
0.0
230
1.0
  2
SOLID
 70
               1
 71
               1
 91
        1
 92
        1
 93
        4
 72
               1
 10
-82.530233482617746
 20
36.043981792887273
 11
-82.530233482617746
 21
82.0
 72
               1
 10
-82.530233482617746
 20
82.0
 11
-81.530233482617746
 21
82.0
 72
               1
 10
-81.530233482617746
 20
82.0
 11
-81.530233482617746
 21
36.043981792887273
 72
               1
 10
-81.530233482617746
 20
36.043981792887273
 11
-82.530233482617746
 21
36.043981792887273
 97
        1
330
18C
 75
               0
 76
               1
 98
        1
 10
0.0
 20
0.0
  0
WIPEOUT
  5
18E
100
AcDbEntity
  8
一般
370
               5
390
0
  6
Continuous
 62
               7
 92
        0
100
AcDbWipeout
 90
        0
 10
-60.279813520158712
 20
36.043981792887273
 30
0.0
 11
37.956018207112727
 21
0.0
 31
0.0
 12
0.0
 22
37.956018207112727
 32
0.0
 13
1.0
 23
1.0
340
0
 70
               7
280
               1
281
              50
282
              50
283
               0
360
0
 71
               2
 91
        6
 14
-0.5
 24
0.5
 14
-0.5
 24
-0.5
 14
-0.4736537169272249
 24
-0.5
 14
-0.4736537169272249
 24
0.5
 14
-0.5
 24
0.5
 14
-0.5
 24
0.5
  0
LWPOLYLINE
  5
18F
100
AcDbEntity
  8
一般
370
              18
390
0
  6
Continuous
 62
               7
100
AcDbPolyline
 90
        4
 70
             129
 10
-60.279813520158712
 20
36.043981792887273
 10
-60.279813520158712
 20
74.0
 10
-59.279813520158712
 20
74.0
 10
-59.279813520158712
 20
36.043981792887273
  0
SOLID
  5
190
100
AcDbEntity
  8
一般
370
              18
390
0
  6
Continuous
 62
               7
100
AcDbTrace
 10
-56.530233482618087
 20
36.043981792887273
 30
0.0
 11
-56.530233482618087
 21
56.075001936994191
 31
0.0
 12
-55.530233482618087
 22
36.043981792887273
 32
0.0
 13
-55.530233482618087
 23
56.075001936994191
 33
0.0
  0
WIPEOUT
  5
191
100
AcDbEntity
  8
一般
370
               5
390
0
  6
Continuous
 62
               7
 92
        0
100
AcDbWipeout
 90
        0
 10
-91.0
 20
-87.118307470430793
 30
0.0
 11
45.0
 21
0.0
 31
0.0
 12
0.0
 22
45.0
 32
0.0
 13
1.0
 23
1.0
340
0
 70
               7
280
               1
281
              50
282
              50
283
               0
360
0
 71
               2
 91
        6
 14
-0.5
 24
-0.0555555555555554
 14
0.5
 24
-0.0555555555555554
 14
0.5
 24
0.5
 14
-0.5
 24
0.5
 14
-0.5
 24
-0.0555555555555554
 14
-0.5
 24
-0.0555555555555554
  0
LWPOLYLINE
  5
192
100
AcDbEntity
  8
一般
370
              18
390
0
  6
Continuous
 62
               7
100
AcDbPolyline
 90
        4
 70
             129
 10
-91.0
 20
-62.1183074704308
 10
-46.0
 20
-62.1183074704308
 10
-46.0
 20
-87.118307470430793
 10
-91.0
 20
-87.118307470430793
  0
LWPOLYLINE
  5
193
102
{ACAD_REACTORS
330
194
102
}
100
AcDbEntity
  8
一般
370
              18
390
0
  6
Continuous
 62
               7
100
AcDbPolyline
 90
        4
 70
             129
 10
-45.995833745113544
 20
-66.341375737474905
 10
-25.964813601007222
 20
-66.341375737474905
 10
-25.964813601007222
 20
-67.341375737474905
 10
-45.995833745113544
 20
-67.341375737474905
  0
HATCH
  5
194
100
AcDbEntity
  8
一般
370
               0
390
0
  6
Continuous
 62
               1
100
AcDbHatch
 10
0.0
 20
0.0
 30
0.0
210
0.0
220
0.0
230
1.0
  2
SOLID
 70
               1
 71
               1
 91
        1
 92
        1
 93
        4
 72
               1
 10
-45.995833745113544
 20
-66.341375737474905
 11
-25.964813601007222
 21
-66.341375737474905
 72
               1
 10
-25.964813601007222
 20
-66.341375737474905
 11
-25.964813601007222
 21
-67.341375737474905
 72
               1
 10
-25.964813601007222
 20
-67.341375737474905
 11
-45.995833745113544
 21
-67.341375737474905
 72
               1
 10
-45.995833745113544
 20
-67.341375737474905
 11
-45.995833745113544
 21
-66.341375737474905
 97
        1
330
193
 75
               0
 76
               1
 98
        1
 10
0.0
 20
0.0
  0
WIPEOUT
  5
195
100
AcDbEntity
  8
一般
370
               5
390
0
  6
Continuous
 62
               7
 92
        0
100
AcDbWipeout
 90
        0
 10
-45.995833745113544
 20
-69.341375737474976
 30
0.0
 11
20.031020144106321
 21
0.0
 31
0.0
 12
0.0
 22
20.031020144106321
 32
0.0
 13
1.0
 23
1.0
340
0
 70
               7
280
               1
281
              50
282
              50
283
               0
360
0
 71
               2
 91
        6
 14
-0.5
 24
0.4500774302653663
 14
0.5
 24
0.4500774302653663
 14
0.5
 24
0.5
 14
-0.5
 24
0.5
 14
-0.5
 24
0.4500774302653663
 14
-0.5
 24
0.4500774302653663
  0
LWPOLYLINE
  5
196
100
AcDbEntity
  8
一般
370
              18
390
0
  6
Continuous
 62
               7
100
AcDbPolyline
 90
        4
 70
             129
 10
-45.995833745113544
 20
-68.341375737474976
 10
-25.964813601007222
 20
-68.341375737474976
 10
-25.964813601007222
 20
-69.341375737474976
 10
-45.995833745113544
 20
-69.341375737474976
  0
WIPEOUT
  5
197
100
AcDbEntity
  8
一般
370
               5
390
0
  6
Continuous
 62
               7
 92
        0
100
AcDbWipeout
 90
        0
 10
-38.832422687393773
 20
-42.671285319619145
 30
0.0
 11
63.801790364583326
 21
0.0
 31
0.0
 12
0.0
 22
63.801790364583326
 32
0.0
 13
1.0
 23
1.0
340
0
 70
               7
280
               1
281
              50
282
              50
283
               0
360
0
 71
               2
 91
        6
 14
-0.5
 24
0.5
 14
0.5
 24
0.5
 14
0.5
 24
0.3783559040152055
 14
-0.5
 24
0.3783559040152055
 14
-0.5
 24
0.5
 14
-0.5
 24
0.5
  0
MTEXT
  5
198
100
AcDbEntity
  8
一般
390
0
 62
               7
100
AcDbMText
 10
-38.832422687393773
 20
-35.261243218924704
 30
0.0
 40
3.3954861111111119
 41
0.0
 71
               1
 72
               1
  1
{\fHGPｺﾞｼｯｸM|b0|i0|c128|p0;\H0.8795x;\l※1　LC-MS15AKHRに接続する通信線\P　　　}
 73
               1
 44
0.7859706209094221
  0
LINE
  5
199
100
AcDbEntity
  8
一般
370
              18
390
0
  6
Continuous
 62
               7
100
AcDbLine
 10
-39.704487921287068
 20
-39.55934496711955
 30
0.0
 11
24.731523593667703
 21
-39.55934496711955
 31
0.0
  0
LINE
  5
19A
100
AcDbEntity
  8
一般
370
              18
390
0
  6
Continuous
 62
               7
100
AcDbLine
 10
-39.704487921287068
 20
-39.55934496711955
 30
0.0
 11
-39.704487921287068
 21
-22.599604030922947
 31
0.0
  0
DIMENSION
  5
19B
100
AcDbEntity
  8
寸法
370
              18
390
0
  6
Continuous
 62
               7
100
AcDbDimension
  2
*D2
 10
-15.268476406332351
 20
-27.956018207112734
 30
0.0
 11
-15.268476406332352
 21
4.0439817928872657
 31
0.0
 71
               5
 72
               1
 41
1.0
 42
0.0
  3
ISO
100
AcDbAlignedDimension
 13
-45.968193194404137
 23
36.043981792887273
 33
0.0
 14
-45.968193194404137
 24
-27.956018207112734
 34
0.0
 50
-90.0
100
AcDbRotatedDimension
1001
ACAD
1000
DSTYLE
1002
{
1070
             279
1070
               2
1070
             340
1005
30
1070
             147
1040
1.5874999999999999
1002
}
  0
WIPEOUT
  5
19C
100
AcDbEntity
  8
一般
370
               5
390
0
  6
Continuous
 62
               7
 92
        0
100
AcDbWipeout
 90
        0
 10
65.967591041014373
 20
-27.956018207112734
 30
0.0
 11
63.999999999999964
 21
0.0
 31
0.0
 12
0.0
 22
63.999999999999964
 32
0.0
 13
1.0
 23
1.0
340
0
 70
               7
280
               1
281
              50
282
              50
283
               0
360
0
 71
               2
 91
        6
 14
-0.5
 24
-0.5
 14
-0.1093749999999998
 24
-0.5
 14
-0.1093749999999998
 24
0.5
 14
-0.5
 24
0.5
 14
-0.5
 24
-0.5
 14
-0.5
 24
-0.5
  0
LWPOLYLINE
  5
19D
100
AcDbEntity
  8
一般
370
              18
390
0
  6
Continuous
 62
               7
100
AcDbPolyline
 90
        4
 70
             129
 10
65.967591041014373
 20
36.04398179288723
 10
90.967591041014373
 20
36.04398179288723
 10
90.967591041014373
 20
-27.956018207112734
 10
65.967591041014373
 20
-27.956018207112734
  0
SOLID
  5
19E
100
AcDbEntity
  8
一般
370
              18
390
0
  6
Continuous
 62
               7
100
AcDbTrace
 10
72.460006809934271
 20
36.070643961808486
 30
0.0
 11
72.460006809934271
 21
56.101664105915397
 31
0.0
 12
73.460006809934271
 22
36.070643961808486
 32
0.0
 13
73.460006809934271
 23
56.101664105915397
 33
0.0
  0
WIPEOUT
  5
19F
100
AcDbEntity
  8
一般
370
               5
390
0
  6
Continuous
 62
               7
 92
        0
100
AcDbWipeout
 90
        0
 10
70.967591041014373
 20
-20.931153206070867
 30
0.0
 11
8.0000000000000018
 21
0.0
 31
0.0
 12
0.0
 22
8.0000000000000018
 32
0.0
 13
1.0
 23
1.0
340
0
 70
               7
280
               1
281
              50
282
              50
283
               0
360
0
 71
               2
 91
        6
 14
-0.5
 24
-0.5
 14
-0.0000000000000001
 24
-0.5
 14
-0.0000000000000001
 24
0.5
 14
-0.5
 24
0.5
 14
-0.5
 24
-0.5
 14
-0.5
 24
-0.5
  0
LWPOLYLINE
  5
1A0
100
AcDbEntity
  8
一般
370
              18
390
0
  6
Continuous
 62
               7
100
AcDbPolyline
 90
        4
 70
             129
 10
70.967591041014373
 20
-12.931153206070865
 10
74.967591041014373
 20
-12.931153206070865
 10
74.967591041014373
 20
-20.931153206070867
 10
70.967591041014373
 20
-20.931153206070867
  0
LWPOLYLINE
  5
1A1
102
{ACAD_REACTORS
330
1A2
102
}
100
AcDbEntity
  8
一般
370
              18
390
0
  6
Continuous
 62
               7
100
AcDbPolyline
 90
        4
 70
             129
 10
52.936570896907483
 20
-15.956018207112765
 10
72.967591041014373
 20
-15.956018207112765
 10
72.967591041014373
 20
-16.956018207112763
 10
52.936570896907483
 20
-16.956018207112763
  0
HATCH
  5
1A2
100
AcDbEntity
  8
一般
370
               0
390
0
  6
Continuous
 62
               1
100
AcDbHatch
 10
0.0
 20
0.0
 30
0.0
210
0.0
220
0.0
230
1.0
  2
SOLID
 70
               1
 71
               1
 91
        1
 92
        1
 93
        4
 72
               1
 10
52.936570896907483
 20
-15.956018207112765
 11
72.967591041014373
 21
-15.956018207112765
 72
               1
 10
72.967591041014373
 20
-15.956018207112765
 11
72.967591041014373
 21
-16.956018207112763
 72
               1
 10
72.967591041014373
 20
-16.956018207112763
 11
52.936570896907483
 21
-16.956018207112763
 72
               1
 10
52.936570896907483
 20
-16.956018207112763
 11
52.936570896907483
 21
-15.956018207112765
 97
        1
330
1A1
 75
               0
 76
               1
 98
        1
 10
0.0
 20
0.0
  0
WIPEOUT
  5
1A3
100
AcDbEntity
  8
一般
370
               5
390
0
  6
Continuous
 62
               7
 92
        0
100
AcDbWipeout
 90
        0
 10
52.936570896907483
 20
-18.956018207112763
 30
0.0
 11
20.03102014410689
 21
0.0
 31
0.0
 12
0.0
 22
20.03102014410689
 32
0.0
 13
1.0
 23
1.0
340
0
 70
               7
280
               1
281
              50
282
              50
283
               0
360
0
 71
               2
 91
        6
 14
-0.5
 24
0.4500774302653677
 14
0.5
 24
0.4500774302653677
 14
0.5
 24
0.5
 14
-0.5
 24
0.5
 14
-0.5
 24
0.4500774302653677
 14
-0.5
 24
0.4500774302653677
  0
LWPOLYLINE
  5
1A4
100
AcDbEntity
  8
一般
370
              18
390
0
  6
Continuous
 62
               7
100
AcDbPolyline
 90
        4
 70
             129
 10
52.936570896907483
 20
-17.956018207112763
 10
72.967591041014373
 20
-17.956018207112763
 10
72.967591041014373
 20
-18.956018207112763
 10
52.936570896907483
 20
-18.956018207112763
  0
WIPEOUT
  5
1A5
100
AcDbEntity
  8
一般
370
               5
390
0
  6
Continuous
 62
               7
 92
        0
100
AcDbWipeout
 90
        0
 10
-91.0
 20
-64.618307470430793
 30
0.0
 11
45.0
 21
0.0
 31
0.0
 12
0.0
 22
45.0
 32
0.0
 13
1.0
 23
1.0
340
0
 70
               7
280
               1
281
              50
282
              50
283
               0
360
0
 71
               2
 91
        6
 14
-0.5
 24
0.4444444444444446
 14
0.5
 24
0.4444444444444446
 14
0.5
 24
0.5
 14
-0.5
 24
0.5
 14
-0.5
 24
0.4444444444444446
 14
-0.5
 24
0.4444444444444446
  0
LWPOLYLINE
  5
1A6
100
AcDbEntity
  8
一般
370
              18
390
0
  6
Continuous
 62
               7
100
AcDbPolyline
 90
        4
 70
             129
 10
-91.0
 20
-62.1183074704308
 10
-46.0
 20
-62.1183074704308
 10
-46.0
 20
-64.618307470430793
 10
-91.0
 20
-64.618307470430793
  0
DIMENSION
  5
1A7
100
AcDbEntity
  8
寸法
370
              18
390
0
  6
Continuous
 62
               7
100
AcDbDimension
  2
*D3
 10
-29.344264879944397
 20
-64.618307470430793
 30
0.0
 11
-29.344264879944397
 21
-63.368307470430793
 31
0.0
 71
               5
 72
               1
 41
1.0
 42
0.0
  3
ISO
100
AcDbAlignedDimension
 13
-46.000000000000398
 23
-62.1183074704308
 33
0.0
 14
-46.000000000000341
 24
-64.618307470430793
 34
0.0
 50
-90.0
100
AcDbRotatedDimension
1001
ACAD
1000
DSTYLE
1002
{
1070
             279
1070
               2
1070
             340
1005
30
1070
             174
1070
               0
1070
             147
1040
1.5874999999999999
1002
}
  0
WIPEOUT
  5
1A8
100
AcDbEntity
  8
一般
370
               5
390
0
  6
Continuous
 62
               7
 92
        0
100
AcDbWipeout
 90
        0
 10
90.967536403935469
 20
-25.986821896667024
 30
0.0
 11
4.0
 21
0.0
 31
0.0
 12
0.0
 22
4.0
 32
0.0
 13
1.0
 23
1.0
340
0
 70
               7
280
               1
281
              50
282
              50
283
               0
360
0
 71
               2
 91
        6
 14
-0.5
 24
-0.5
 14
0.0
 24
-0.5
 14
0.0
 24
0.5
 14
-0.5
 24
0.5
 14
-0.5
 24
-0.5
 14
-0.5
 24
-0.5
  0
LWPOLYLINE
  5
1A9
100
AcDbEntity
  8
一般
370
              18
390
0
  6
Continuous
 62
               7
100
AcDbPolyline
 90
        4
 70
             129
 10
90.967536403935469
 20
-21.986821896667024
 10
92.967536403935469
 20
-21.986821896667024
 10
92.967536403935469
 20
-25.986821896667024
 10
90.967536403935469
 20
-25.986821896667024
  0
DIMENSION
  5
1AA
100
AcDbEntity
  8
寸法
370
              18
390
0
  6
Continuous
 62
               7
100
AcDbDimension
  2
*D4
 10
101.53615865783833
 20
-25.979177569877976
 30
0.0
 11
101.53615865783833
 21
-26.979177569877976
 31
0.0
 71
               5
 72
               1
 41
1.0
 42
0.0
  3
ISO
100
AcDbAlignedDimension
 13
90.967591041014373
 23
-27.979177569877976
 33
0.0
 14
90.901373570643386
 24
-25.979177569877976
 34
0.0
 50
-90.0
100
AcDbRotatedDimension
1001
ACAD
1000
DSTYLE
1002
{
1070
             279
1070
               2
1070
             340
1005
30
1070
             140
1040
1.6288411458333327
1070
             147
1040
1.5874999999999999
1002
}
  0
DIMENSION
  5
1AB
100
AcDbEntity
  8
寸法
370
              18
390
0
  6
Continuous
 62
               7
100
AcDbDimension
  2
*D5
 10
101.53610402075914
 20
-21.977523291567188
 30
0.0
 11
101.53610402075914
 21
-23.977523291567181
 31
0.0
 71
               5
 72
               1
 41
1.0
 42
0.0
  3
ISO
100
AcDbAlignedDimension
 13
92.967536403935469
 23
-25.977523291567174
 33
0.0
 14
92.967536403935469
 24
-21.977523291567188
 34
0.0
 50
-90.0
100
AcDbRotatedDimension
1001
ACAD
1000
DSTYLE
1002
{
1070
             279
1070
               2
1070
             340
1005
30
1070
             140
1040
1.6288411458333327
1070
             147
1040
1.5874999999999999
1002
}
  0
WIPEOUT
  5
1AC
100
AcDbEntity
  8
一般
370
               5
390
0
  6
Continuous
 62
               7
 92
        0
100
AcDbWipeout
 90
        0
 10
90.985271188356762
 20
30.043981792887259
 30
0.0
 11
4.0
 21
0.0
 31
0.0
 12
0.0
 22
4.0
 32
0.0
 13
1.0
 23
1.0
340
0
 70
               7
280
               1
281
              50
282
              50
283
               0
360
0
 71
               2
 91
        6
 14
-0.5
 24
-0.5
 14
0.0
 24
-0.5
 14
0.0
 24
0.5
 14
-0.5
 24
0.5
 14
-0.5
 24
-0.5
 14
-0.5
 24
-0.5
  0
LWPOLYLINE
  5
1AD
100
AcDbEntity
  8
一般
370
              18
390
0
  6
Continuous
 62
               7
100
AcDbPolyline
 90
        4
 70
             129
 10
90.985271188356762
 20
34.043981792887266
 10
92.985271188356762
 20
34.043981792887266
 10
92.985271188356762
 20
30.043981792887259
 10
90.985271188356762
 20
30.043981792887259
  0
WIPEOUT
  5
1AE
100
AcDbEntity
  8
一般
370
               5
390
0
  6
Continuous
 62
               7
 92
        0
100
AcDbWipeout
 90
        0
 10
-51.000000000000398
 20
-89.118307470430793
 30
0.0
 11
3.0
 21
0.0
 31
0.0
 12
0.0
 22
3.0
 32
0.0
 13
1.0
 23
1.0
340
0
 70
               7
280
               1
281
              50
282
              50
283
               0
360
0
 71
               2
 91
        6
 14
-0.5
 24
0.5
 14
-0.5
 24
-0.1666666666666666
 14
0.5
 24
-0.1666666666666666
 14
0.5
 24
0.5
 14
-0.5
 24
0.5
 14
-0.5
 24
0.5
  0
LWPOLYLINE
  5
1AF
100
AcDbEntity
  8
一般
370
              18
390
0
  6
Continuous
 62
               7
100
AcDbPolyline
 90
        4
 70
             129
 10
-51.000000000000398
 20
-89.118307470430793
 10
-51.000000000000398
 20
-87.118307470430793
 10
-48.000000000000398
 20
-87.118307470430793
 10
-48.000000000000398
 20
-89.118307470430793
  0
WIPEOUT
  5
1B0
100
AcDbEntity
  8
一般
370
               5
390
0
  6
Continuous
 62
               7
 92
        0
100
AcDbWipeout
 90
        0
 10
-89.0
 20
-89.121032549792062
 30
0.0
 11
2.0
 21
0.0
 31
0.0
 12
0.0
 22
2.0
 32
0.0
 13
1.0
 23
1.0
340
0
 70
               7
280
               1
281
              50
282
              50
283
               0
360
0
 71
               2
 91
        6
 14
-0.5
 24
0.5
 14
-0.5
 24
-0.5
 14
0.5
 24
-0.5
 14
0.5
 24
0.5
 14
-0.5
 24
0.5
 14
-0.5
 24
0.5
  0
LWPOLYLINE
  5
1B1
100
AcDbEntity
  8
一般
370
              18
390
0
  6
Continuous
 62
               7
100
AcDbPolyline
 90
        4
 70
             129
 10
-89.0
 20
-89.121032549792062
 10
-89.0
 20
-87.121032549792062
 10
-87.0
 20
-87.121032549792062
 10
-87.0
 20
-89.121032549792062
  0
DIMENSION
  5
1B2
100
AcDbEntity
  8
寸法
370
              18
390
0
  6
Continuous
 62
               7
100
AcDbDimension
  2
*D6
 10
-48.000000000000398
 20
-98.902997376446876
 30
0.0
 11
-47.000000000000398
 21
-98.902997376446876
 31
0.0
 71
               5
 72
               1
 41
1.0
 42
0.0
  3
ISO
100
AcDbAlignedDimension
 13
-46.000000000000398
 23
-87.118307470430793
 33
0.0
 14
-48.000000000000398
 24
-87.118307470430793
 34
0.0
100
AcDbRotatedDimension
1001
ACAD
1000
DSTYLE
1002
{
1070
             279
1070
               2
1070
             340
1005
30
1070
             140
1040
1.6288411458333327
1070
             147
1040
1.5874999999999999
1002
}
  0
LINE
  5
1B3
100
AcDbEntity
  8
一般
370
              18
390
0
  6
Continuous
 62
               7
100
AcDbLine
 10
68.467591041014373
 20
-28.136619634661926
 30
0.0
 11
68.467591041014373
 21
35.863380365338081
 31
0.0
  0
DIMENSION
  5
1B4
100
AcDbEntity
  8
寸法
370
              18
390
0
  6
Continuous
 62
               7
100
AcDbDimension
  2
*D7
 10
100.53615865783831
 20
34.043981792887266
 30
0.0
 11
100.53615865783831
 21
35.043981792887266
 31
0.0
 71
               5
 72
               1
 41
1.0
 42
0.0
  3
ISO
100
AcDbAlignedDimension
 13
90.967591041014373
 23
36.043981792887266
 33
0.0
 14
90.985271188356762
 24
34.043981792887266
 34
0.0
 50
-90.0
100
AcDbRotatedDimension
1001
ACAD
1000
DSTYLE
1002
{
1070
             279
1070
               2
1070
             340
1005
30
1070
             140
1040
1.6288411458333327
1070
             147
1040
1.5874999999999999
1002
}
  0
DIMENSION
  5
1B5
100
AcDbEntity
  8
寸法
370
              18
390
0
  6
Continuous
 62
               7
100
AcDbDimension
  2
*D8
 10
100.53615865783831
 20
30.043981792887259
 30
0.0
 11
100.53615865783831
 21
32.043981792887266
 31
0.0
 71
               5
 72
               1
 41
1.0
 42
0.0
  3
ISO
100
AcDbAlignedDimension
 13
92.985271188356762
 23
34.043981792887266
 33
0.0
 14
92.985271188356762
 24
30.043981792887259
 34
0.0
 50
-90.0
100
AcDbRotatedDimension
1001
ACAD
1000
DSTYLE
1002
{
1070
             279
1070
               2
1070
             340
1005
30
1070
             140
1040
1.6288411458333327
1070
             147
1040
1.5874999999999999
1002
}
  0
WIPEOUT
  5
1B6
100
AcDbEntity
  8
一般
370
               5
390
0
  6
Continuous
 62
               7
 92
        0
100
AcDbWipeout
 90
        0
 10
-89.000000000000114
 20
-89.121032549792062
 30
0.0
 11
3.0
 21
0.0
 31
0.0
 12
0.0
 22
3.0
 32
0.0
 13
1.0
 23
1.0
340
0
 70
               7
280
               1
281
              50
282
              50
283
               0
360
0
 71
               2
 91
        6
 14
-0.5
 24
0.5
 14
-0.5
 24
-0.1666666666666666
 14
0.5
 24
-0.1666666666666666
 14
0.5
 24
0.5
 14
-0.5
 24
0.5
 14
-0.5
 24
0.5
  0
LWPOLYLINE
  5
1B7
100
AcDbEntity
  8
一般
370
              18
390
0
  6
Continuous
 62
               7
100
AcDbPolyline
 90
        4
 70
             129
 10
-89.000000000000114
 20
-89.121032549792062
 10
-89.000000000000114
 20
-87.121032549792062
 10
-86.000000000000114
 20
-87.121032549792062
 10
-86.000000000000114
 20
-89.121032549792062
  0
DIMENSION
  5
1B8
100
AcDbEntity
  8
寸法
370
              18
390
0
  6
Continuous
 62
               7
100
AcDbDimension
  2
*D9
 10
65.967591041014373
 20
7.5439817928872603
 30
0.0
 11
67.217591041014373
 21
7.5439817928872603
 31
0.0
 71
               5
 72
               1
 41
1.0
 42
0.0
  3
ISO
100
AcDbAlignedDimension
 13
68.467591041014373
 23
5.0439817928872603
 33
0.0
 14
65.967591041014373
 24
5.0439817928872603
 34
0.0
100
AcDbRotatedDimension
1001
ACAD
1000
DSTYLE
1002
{
1070
             279
1070
               2
1070
             340
1005
30
1070
             174
1070
               0
1070
             147
1040
1.5874999999999999
1002
}
  0
WIPEOUT
  5
1B9
100
AcDbEntity
  8
一般
370
               5
390
0
  6
Continuous
 62
               7
 92
        0
100
AcDbWipeout
 90
        0
 10
65.967591041014373
 20
-27.956018207112734
 30
0.0
 11
7.0
 21
0.0
 31
0.0
 12
0.0
 22
7.0
 32
0.0
 13
1.0
 23
1.0
340
0
 70
               7
280
               1
281
              50
282
              50
283
               0
360
0
 71
               2
 91
        6
 14
-0.5
 24
-0.5
 14
0.2142857142857143
 24
-0.5
 14
0.2142857142857143
 24
0.5
 14
-0.5
 24
0.5
 14
-0.5
 24
-0.5
 14
-0.5
 24
-0.5
  0
LWPOLYLINE
  5
1BA
100
AcDbEntity
  8
一般
370
              18
390
0
  6
Continuous
 62
               7
100
AcDbPolyline
 90
        4
 70
             129
 10
65.967591041014373
 20
-20.956018207112734
 10
70.967591041014373
 20
-20.956018207112734
 10
70.967591041014373
 20
-27.956018207112734
 10
65.967591041014373
 20
-27.956018207112734
  0
DIMENSION
  5
1BB
100
AcDbEntity
  8
寸法
370
              18
390
0
  6
Continuous
 62
               7
100
AcDbDimension
  2
*D10
 10
70.967591041014373
 20
-40.310990380305242
 30
0.0
 11
68.467591041014373
 21
-40.310990380305242
 31
0.0
 71
               5
 72
               1
 41
1.0
 42
0.0
  3
ISO
100
AcDbAlignedDimension
 13
65.967591041014373
 23
-27.956018207112734
 33
0.0
 14
70.967591041014373
 24
-27.956018207112734
 34
0.0
100
AcDbRotatedDimension
1001
ACAD
1000
DSTYLE
1002
{
1070
             279
1070
               2
1070
             340
1005
30
1070
             147
1040
1.5874999999999999
1002
}
  0
DIMENSION
  5
1BC
100
AcDbEntity
  8
寸法
370
              18
390
0
  6
Continuous
 62
               7
100
AcDbDimension
  2
*D11
 10
74.967591041014373
 20
-40.31099038030527
 30
0.0
 11
72.967591041014373
 21
-40.31099038030527
 31
0.0
 71
               5
 72
               1
 41
1.0
 42
0.0
  3
ISO
100
AcDbAlignedDimension
 13
70.967591041014373
 23
-20.956018207112763
 33
0.0
 14
74.967591041014373
 24
-20.931153206070867
 34
0.0
100
AcDbRotatedDimension
1001
ACAD
1000
DSTYLE
1002
{
1070
             279
1070
               2
1070
             340
1005
30
1070
             147
1040
1.5874999999999999
1002
}
  0
DIMENSION
  5
1BD
100
AcDbEntity
  8
寸法
370
              18
390
0
  6
Continuous
 62
               7
100
AcDbDimension
  2
*D12
 10
46.5361586578383
 20
-20.956018207112763
 30
0.0
 11
46.5361586578383
 21
-24.456018207112749
 31
0.0
 71
               5
 72
               1
 41
1.0
 42
0.0
  3
ISO
100
AcDbAlignedDimension
 13
65.967591041014373
 23
-27.956018207112734
 33
0.0
 14
65.967591041014373
 24
-20.956018207112763
 34
0.0
 50
-90.0
100
AcDbRotatedDimension
1001
ACAD
1000
DSTYLE
1002
{
1070
             279
1070
               2
1070
             340
1005
30
1070
             147
1040
1.5874999999999999
1002
}
  0
DIMENSION
  5
1BE
100
AcDbEntity
  8
寸法
370
              18
390
0
  6
Continuous
 62
               7
100
AcDbDimension
  2
*D13
 10
46.5361586578383
 20
-12.931153206070876
 30
0.0
 11
46.5361586578383
 21
-16.943585706591819
 31
0.0
 71
               5
 72
               1
 41
1.0
 42
0.0
  3
ISO
100
AcDbAlignedDimension
 13
65.967591041014373
 23
-20.956018207112763
 33
0.0
 14
65.967591041014373
 24
-12.931153206070876
 34
0.0
 50
-90.0
100
AcDbRotatedDimension
1001
ACAD
1000
DSTYLE
1002
{
1070
             279
1070
               2
1070
             340
1005
30
1070
             147
1040
1.5874999999999999
1002
}
  0
WIPEOUT
  5
1BF
100
AcDbEntity
  8
一般
370
               5
390
0
  6
Continuous
 62
               7
 92
        0
100
AcDbWipeout
 90
        0
 10
-43.344264879944376
 20
-19.713980884331988
 30
0.0
 11
14.816668012407035
 21
0.0
 31
0.0
 12
0.0
 22
14.816668012407035
 32
0.0
 13
1.0
 23
1.0
340
0
 70
               7
280
               1
281
              50
282
              50
283
               0
360
0
 71
               2
 91
        6
 14
-0.5
 24
0.5
 14
0.5
 24
0.5
 14
0.5
 24
0.1666666969420335
 14
-0.5
 24
0.1666666969420335
 14
-0.5
 24
0.5
 14
-0.5
 24
0.5
  0
MTEXT
  5
1C0
100
AcDbEntity
  8
一般
390
0
 62
               7
100
AcDbMText
 10
-43.344264879944376
 20
-15.221907099609709
 30
0.0
 40
4.3215277777778347
 41
0.0
 71
               1
 72
               1
  1
{\fHGPｺﾞｼｯｸM|b0|i0|c128|p0;\H0.8795x;\l信号線}
 73
               1
 44
0.7859706209094221
  0
LWPOLYLINE
  5
1C1
102
{ACAD_REACTORS
330
1C2
102
}
100
AcDbEntity
  8
一般
370
              18
390
0
  6
Continuous
 62
               7
100
AcDbPolyline
 90
        4
 70
             129
 10
-77.463841342161686
 20
59.021990896443633
 10
-77.463841342161686
 20
82.0
 10
-76.463841342161686
 20
82.0
 10
-76.463841342161686
 20
59.021990896443633
  0
HATCH
  5
1C2
100
AcDbEntity
  8
一般
370
               0
390
0
  6
Continuous
 62
               1
100
AcDbHatch
 10
0.0
 20
0.0
 30
0.0
210
0.0
220
0.0
230
1.0
  2
SOLID
 70
               1
 71
               1
 91
        1
 92
        1
 93
        4
 72
               1
 10
-77.463841342161686
 20
59.021990896443633
 11
-77.463841342161686
 21
82.0
 72
               1
 10
-77.463841342161686
 20
82.0
 11
-76.463841342161686
 21
82.0
 72
               1
 10
-76.463841342161686
 20
82.0
 11
-76.463841342161686
 21
59.021990896443633
 72
               1
 10
-76.463841342161686
 20
59.021990896443633
 11
-77.463841342161686
 21
59.021990896443633
 97
        1
330
1C1
 75
               0
 76
               1
 98
        1
 10
0.0
 20
0.0
  0
LWPOLYLINE
  5
1C3
102
{ACAD_REACTORS
330
1C4
102
}
100
AcDbEntity
  8
一般
370
              18
390
0
  6
Continuous
 62
               7
100
AcDbPolyline
 90
        4
 70
             129
 10
-76.463841342161686
 20
60.021990896443633
 10
-22.463841342161686
 20
60.021990896443633
 10
-22.463841342161686
 20
59.021990896443633
 10
-76.463841342161686
 20
59.021990896443633
  0
HATCH
  5
1C4
100
AcDbEntity
  8
一般
370
               0
390
0
  6
Continuous
 62
               1
100
AcDbHatch
 10
0.0
 20
0.0
 30
0.0
210
0.0
220
0.0
230
1.0
  2
SOLID
 70
               1
 71
               1
 91
        1
 92
        1
 93
        4
 72
               1
 10
-76.463841342161686
 20
60.021990896443633
 11
-22.463841342161686
 21
60.021990896443633
 72
               1
 10
-22.463841342161686
 20
60.021990896443633
 11
-22.463841342161686
 21
59.021990896443633
 72
               1
 10
-22.463841342161686
 20
59.021990896443633
 11
-76.463841342161686
 21
59.021990896443633
 72
               1
 10
-76.463841342161686
 20
59.021990896443633
 11
-76.463841342161686
 21
60.021990896443633
 97
        1
330
1C3
 75
               0
 76
               1
 98
        1
 10
0.0
 20
0.0
  0
LWPOLYLINE
  5
1C5
102
{ACAD_REACTORS
330
1C6
102
}
100
AcDbEntity
  8
一般
370
              18
390
0
  6
Continuous
 62
               7
100
AcDbPolyline
 90
        4
 70
             129
 10
-72.963841342161686
 20
77.0
 10
-72.963841342161686
 20
82.0
 10
-71.963841342161686
 20
82.0
 10
-71.963841342161686
 20
77.0
  0
HATCH
  5
1C6
100
AcDbEntity
  8
一般
370
               0
390
0
  6
Continuous
 62
               1
100
AcDbHatch
 10
0.0
 20
0.0
 30
0.0
210
0.0
220
0.0
230
1.0
  2
SOLID
 70
               1
 71
               1
 91
        1
 92
        1
 93
        4
 72
               1
 10
-72.963841342161686
 20
77.0
 11
-72.963841342161686
 21
82.0
 72
               1
 10
-72.963841342161686
 20
82.0
 11
-71.963841342161686
 21
82.0
 72
               1
 10
-71.963841342161686
 20
82.0
 11
-71.963841342161686
 21
77.0
 72
               1
 10
-71.963841342161686
 20
77.0
 11
-72.963841342161686
 21
77.0
 97
        1
330
1C5
 75
               0
 76
               1
 98
        1
 10
0.0
 20
0.0
  0
LWPOLYLINE
  5
1C7
102
{ACAD_REACTORS
330
1C8
102
}
100
AcDbEntity
  8
一般
370
              18
390
0
  6
Continuous
 62
               7
100
AcDbPolyline
 90
        4
 70
             129
 10
-71.963841342161686
 20
78.0
 10
-22.463841342161686
 20
78.0
 10
-22.463841342161686
 20
77.0
 10
-71.963841342161686
 20
77.0
  0
HATCH
  5
1C8
100
AcDbEntity
  8
一般
370
               0
390
0
  6
Continuous
 62
               1
100
AcDbHatch
 10
0.0
 20
0.0
 30
0.0
210
0.0
220
0.0
230
1.0
  2
SOLID
 70
               1
 71
               1
 91
        1
 92
        1
 93
        4
 72
               1
 10
-71.963841342161686
 20
78.0
 11
-22.463841342161686
 21
78.0
 72
               1
 10
-22.463841342161686
 20
78.0
 11
-22.463841342161686
 21
77.0
 72
               1
 10
-22.463841342161686
 20
77.0
 11
-71.963841342161686
 21
77.0
 72
               1
 10
-71.963841342161686
 20
77.0
 11
-71.963841342161686
 21
78.0
 97
        1
330
1C7
 75
               0
 76
               1
 98
        1
 10
0.0
 20
0.0
  0
SOLID
  5
1C9
100
AcDbEntity
  8
一般
370
              18
390
0
  6
Continuous
 62
               7
100
AcDbTrace
 10
-56.030233482618087
 20
55.075001936994191
 30
0.0
 11
-56.030233482618087
 21
56.075001936994191
 31
0.0
 12
-22.463841342161686
 22
55.075001936994191
 32
0.0
 13
-22.463841342161686
 23
56.075001936994191
 33
0.0
  0
WIPEOUT
  5
1CA
100
AcDbEntity
  8
一般
370
               5
390
0
  6
Continuous
 62
               7
 92
        0
100
AcDbWipeout
 90
        0
 10
-86.463841342161686
 20
81.296261398517714
 30
0.0
 11
18.0
 21
0.0
 31
0.0
 12
0.0
 22
18.0
 32
0.0
 13
1.0
 23
1.0
340
0
 70
               7
280
               1
281
              50
282
              50
283
               0
360
0
 71
               2
 91
        6
 14
-0.5
 24
-0.1502077000823492
 14
0.5
 24
-0.1502077000823492
 14
0.5
 24
0.5
 14
-0.5
 24
0.5
 14
-0.5
 24
-0.1502077000823492
 14
-0.5
 24
-0.1502077000823492
  0
LWPOLYLINE
  5
1CB
100
AcDbEntity
  8
一般
370
              18
390
0
  6
Continuous
 62
               7
100
AcDbPolyline
 90
        4
 70
             129
 10
-86.463841342161686
 20
93.0
 10
-68.463841342161686
 20
93.0
 10
-68.463841342161686
 20
81.296261398517714
 10
-86.463841342161686
 20
81.296261398517714
  0
WIPEOUT
  5
1CC
100
AcDbEntity
  8
一般
370
               5
390
0
  6
Continuous
 62
               7
 92
        0
100
AcDbWipeout
 90
        0
 10
-36.669592210217274
 20
79.883333333333411
 30
0.0
 11
14.579644097222285
 21
0.0
 31
0.0
 12
0.0
 22
14.579644097222285
 32
0.0
 13
1.0
 23
1.0
340
0
 70
               7
280
               1
281
              50
282
              50
283
               0
360
0
 71
               2
 91
        6
 14
-0.5
 24
0.5
 14
0.5
 24
0.5
 14
0.5
 24
0.2580340264650298
 14
-0.5
 24
0.2580340264650298
 14
-0.5
 24
0.5
 14
-0.5
 24
0.5
  0
MTEXT
  5
1CD
100
AcDbEntity
  8
一般
390
0
 62
               7
100
AcDbMText
 10
-36.669592210217274
 20
83.091957465277844
 30
0.0
 40
3.0868055555555558
 41
0.0
 71
               1
 72
               1
  1
{\fHGPｺﾞｼｯｸM|b0|i0|c128|p0;\H0.8795x;\lDC +（赤）}
 73
               1
 44
0.7859706209094221
  0
WIPEOUT
  5
1CE
100
AcDbEntity
  8
一般
370
               5
390
0
  6
Continuous
 62
               7
 92
        0
100
AcDbWipeout
 90
        0
 10
-37.299614208814944
 20
68.500534864933982
 30
0.0
 11
15.7509765625
 21
0.0
 31
0.0
 12
0.0
 22
15.7509765625
 32
0.0
 13
1.0
 23
1.0
340
0
 70
               7
280
               1
281
              50
282
              50
283
               0
360
0
 71
               2
 91
        6
 14
-0.5
 24
0.5
 14
0.5
 24
0.5
 14
0.5
 24
0.2760279965004379
 14
-0.5
 24
0.2760279965004379
 14
-0.5
 24
0.5
 14
-0.5
 24
0.5
  0
MTEXT
  5
1CF
100
AcDbEntity
  8
一般
390
0
 62
               7
100
AcDbMText
 10
-37.299614208814944
 20
71.709158996878415
 30
0.0
 40
3.0868055555555558
 41
0.0
 71
               1
 72
               1
  1
{\fHGPｺﾞｼｯｸM|b0|i0|c128|p0;\H0.8795x;\lDC　-（白）}
 73
               1
 44
0.7859706209094221
  0
WIPEOUT
  5
1D0
100
AcDbEntity
  8
一般
370
               5
390
0
  6
Continuous
 62
               7
 92
        0
100
AcDbWipeout
 90
        0
 10
-38.463841342161686
 20
61.472222222222221
 30
0.0
 11
16.191948784722229
 21
0.0
 31
0.0
 12
0.0
 22
16.191948784722229
 32
0.0
 13
1.0
 23
1.0
340
0
 70
               7
280
               1
281
              50
282
              50
283
               0
360
0
 71
               2
 91
        6
 14
-0.5
 24
0.5
 14
0.5
 24
0.5
 14
0.5
 24
0.2821276595744681
 14
-0.5
 24
0.2821276595744681
 14
-0.5
 24
0.5
 14
-0.5
 24
0.5
  0
MTEXT
  5
1D1
100
AcDbEntity
  8
一般
390
0
 62
               7
100
AcDbMText
 10
-38.463841342161686
 20
64.680846354166661
 30
0.0
 40
3.0868055555555558
 41
0.0
 71
               1
 72
               1
  1
{\fHGPｺﾞｼｯｸM|b0|i0|c128|p0;\H0.8795x;\lLED +（赤）}
 73
               1
 44
0.7859706209094221
  0
WIPEOUT
  5
1D2
100
AcDbEntity
  8
一般
370
               5
390
0
  6
Continuous
 62
               7
 92
        0
100
AcDbWipeout
 90
        0
 10
-38.463841342161686
 20
50.472222222222214
 30
0.0
 11
16.191948784722229
 21
0.0
 31
0.0
 12
0.0
 22
16.191948784722229
 32
0.0
 13
1.0
 23
1.0
340
0
 70
               7
280
               1
281
              50
282
              50
283
               0
360
0
 71
               2
 91
        6
 14
-0.5
 24
0.5
 14
0.5
 24
0.5
 14
0.5
 24
0.2821276595744681
 14
-0.5
 24
0.2821276595744681
 14
-0.5
 24
0.5
 14
-0.5
 24
0.5
  0
MTEXT
  5
1D3
100
AcDbEntity
  8
一般
390
0
 62
               7
100
AcDbMText
 10
-38.463841342161686
 20
53.680846354166661
 30
0.0
 40
3.0868055555555558
 41
0.0
 71
               1
 72
               1
  1
{\fHGPｺﾞｼｯｸM|b0|i0|c128|p0;\H0.8795x;\lLED -（黒）}
 73
               1
 44
0.7859706209094221
  0
WIPEOUT
  5
1D4
100
AcDbEntity
  8
一般
370
               5
390
0
  6
Continuous
 62
               7
 92
        0
100
AcDbWipeout
 90
        0
 10
-85.463841342161686
 20
84.67868625481438
 30
0.0
 11
15.453321658240384
 21
0.0
 31
0.0
 12
0.0
 22
15.453321658240384
 32
0.0
 13
1.0
 23
1.0
340
0
 70
               7
280
               1
281
              50
282
              50
283
               0
360
0
 71
               2
 91
        6
 14
-0.5
 24
0.5
 14
0.5
 24
0.5
 14
0.5
 24
0.1803995284563741
 14
-0.5
 24
0.1803995284563741
 14
-0.5
 24
0.5
 14
-0.5
 24
0.5
  0
MTEXT
  5
1D5
100
AcDbEntity
  8
一般
390
0
 62
               7
100
AcDbMText
 10
-85.463841342161686
 20
89.17076003953666
 30
0.0
 40
4.3215277777778347
 41
0.0
 71
               1
 72
               1
  1
{\fHGPｺﾞｼｯｸM|b0|i0|c128|p0;\H0.8795x;\lコネクタ }
 73
               1
 44
0.7859706209094221
  0
WIPEOUT
  5
1D6
100
AcDbEntity
  8
一般
370
               5
390
0
  6
Continuous
 62
               7
 92
        0
100
AcDbWipeout
 90
        0
 10
-60.279813520158712
 20
36.043981792887273
 30
0.0
 11
37.956018207112727
 21
0.0
 31
0.0
 12
0.0
 22
37.956018207112727
 32
0.0
 13
1.0
 23
1.0
340
0
 70
               7
280
               1
281
              50
282
              50
283
               0
360
0
 71
               2
 91
        9
 14
-0.4736537169272249
 24
0.5
 14
-0.4736537169272249
 24
-0.4736537169272248
 14
0.4991591139514513
 24
-0.4736537169272248
 14
0.4991591139514513
 24
-0.5
 14
-0.5
 24
-0.5
 14
-0.5
 24
0.5
 14
-0.4868268584636124
 24
0.5
 14
-0.4736537169272249
 24
0.5
 14
-0.4736537169272249
 24
0.5
  0
LWPOLYLINE
  5
1D7
100
AcDbEntity
  8
一般
370
              18
390
0
  6
Continuous
 62
               7
100
AcDbPolyline
 90
        7
 70
             128
 10
-59.279813520158712
 20
36.043981792887273
 10
-59.279813520158712
 20
73.0
 10
-22.355711999214805
 20
73.0
 10
-22.355711999214805
 20
74.0
 10
-60.279813520158712
 20
74.0
 10
-60.279813520158712
 20
36.043981792887273
 10
-59.779813520158712
 20
36.043981792887273
  0
ENDSEC
  0
SECTION
  2
OBJECTS
  0
DICTIONARY
  5
19
100
AcDbDictionary
280
               0
281
               1
  3
ACAD_GROUP
350
1A
  3
ACAD_MLINESTYLE
350
1B
  3
ACAD_LAYOUT
350
1E
  3
ACAD_PLOTSETTINGS
350
22
  3
ACAD_PLOTSTYLENAME
350
1F
  3
ACAD_WIPEOUT_VARS
350
23
  0
DICTIONARY
  5
1A
102
{ACAD_REACTORS
330
19
102
}
100
AcDbDictionary
280
               0
281
               1
  0
DICTIONARY
  5
1B
102
{ACAD_REACTORS
330
19
102
}
100
AcDbDictionary
280
               0
281
               1
  3
Standard
350
1C
  0
MLINESTYLE
  5
1C
102
{ACAD_REACTORS
330
1B
102
}
100
AcDbMlineStyle
  2
Standard
 70
               0
  3

 62
               0
 51
90.0
 52
90.0
 71
               2
 49
0.5
 62
             256
  6
ByLayer
 49
-0.5
 62
             256
  6
ByLayer
  0
ACDBDICTIONARYWDFLT
  5
1F
102
{ACAD_REACTORS
330
19
102
}
100
AcDbDictionary
281
               1
  3
Normal
350
1D
100
AcDbDictionaryWithDefault
340
1D
  0
ACDBPLACEHOLDER
  5
1D
102
{ACAD_REACTORS
330
1F
102
}
  0
LAYOUT
  5
20
102
{ACAD_REACTORS
330
1E
102
}
100
AcDbPlotSettings
  1

  2

  4

  6

 40
0.0
 41
0.0
 42
0.0
 43
0.0
 44
0.0
 45
0.0
 46
0.0
 47
0.0
 48
0.0
 49
0.0
140
0.0
141
0.0
142
1.0
143
1.0
 70
            1024
 72
               0
 73
               0
 74
               0
  7

 75
               0
147
1.0
148
0.0
149
0.0
100
AcDbLayout
  1
Model
 70
               0
 71
               0
 10
0.0
 20
0.0
 11
0.0
 21
0.0
 12
0.0
 22
0.0
 32
0.0
 14
0.0
 24
0.0
 34
0.0
 15
0.0
 25
0.0
 35
0.0
146
0.0
 13
0.0
 23
0.0
 33
0.0
 16
0.0
 26
0.0
 36
0.0
 17
0.0
 27
0.0
 37
0.0
 76
               0
330
A
331
0
345
0
346
0
  0
LAYOUT
  5
21
102
{ACAD_REACTORS
330
1E
102
}
100
AcDbPlotSettings
  1

  2

  4

  6

 40
0.0
 41
0.0
 42
0.0
 43
0.0
 44
0.0
 45
0.0
 46
0.0
 47
0.0
 48
0.0
 49
0.0
140
0.0
141
0.0
142
1.0
143
1.0
 70
               0
 72
               0
 73
               0
 74
               0
  7

 75
               0
147
1.0
148
0.0
149
0.0
100
AcDbLayout
  1
Layout1
 70
               0
 71
               0
 10
0.0
 20
0.0
 11
0.0
 21
0.0
 12
0.0
 22
0.0
 32
0.0
 14
0.0
 24
0.0
 34
0.0
 15
0.0
 25
0.0
 35
0.0
146
0.0
 13
0.0
 23
0.0
 33
0.0
 16
0.0
 26
0.0
 36
0.0
 17
0.0
 27
0.0
 37
0.0
 76
               0
330
B
331
0
345
0
346
0
  0
DICTIONARY
  5
1E
102
{ACAD_REACTORS
330
19
102
}
100
AcDbDictionary
280
               0
281
               1
  3
Layout1
350
21
  3
Model
350
20
  0
DICTIONARY
  5
22
102
{ACAD_REACTORS
330
19
102
}
100
AcDbDictionary
280
               0
281
               1
  0
WIPEOUTVARIABLES
  5
23
100
AcDbWipeoutVariables
 70
               0
  0
ENDSEC
  0
EOF
