  0
SECTION
  2
HEADER
  9
$ACADVER
  1
AC1032
  9
$ACADMAINTVER
 90
        4
  9
$DWGCODEPAGE
  3
ANSI_932
  9
$LASTSAVEDBY
  1
MSP-eigyou
  9
$REQUIREDVERSIONS
160
                 0
  9
$INSBASE
 10
0.0
 20
0.0
 30
0.0
  9
$EXTMIN
 10
43.18943181818179
 20
73.48151275478304
 30
0.0
  9
$EXTMAX
 10
577.288783331502
 20
260.0908768730776
 30
0.0
  9
$LIMMIN
 10
0.0
 20
0.0
  9
$LIMMAX
 10
420.0
 20
297.0
  9
$ORTHOMODE
 70
     0
  9
$REGENMODE
 70
     1
  9
$FILLMODE
 70
     1
  9
$QTEXTMODE
 70
     0
  9
$MIRRTEXT
 70
     0
  9
$LTSCALE
 40
1.0
  9
$ATTMODE
 70
     1
  9
$TEXTSIZE
 40
2.5
  9
$TRACEWID
 40
1.0
  9
$TEXTSTYLE
  7
Standard
  9
$CLAYER
  8
0
  9
$CELTYPE
  6
ByLayer
  9
$CECOLOR
 62
   256
  9
$CELTSCALE
 40
1.0
  9
$DISPSILH
 70
     0
  9
$DIMSCALE
 40
1.0
  9
$DIMASZ
 40
2.5
  9
$DIMEXO
 40
0.625
  9
$DIMDLI
 40
3.75
  9
$DIMRND
 40
0.0
  9
$DIMDLE
 40
0.0
  9
$DIMEXE
 40
1.25
  9
$DIMTP
 40
0.0
  9
$DIMTM
 40
0.0
  9
$DIMTXT
 40
2.5
  9
$DIMCEN
 40
2.5
  9
$DIMTSZ
 40
0.0
  9
$DIMTOL
 70
     0
  9
$DIMLIM
 70
     0
  9
$DIMTIH
 70
     0
  9
$DIMTOH
 70
     0
  9
$DIMSE1
 70
     0
  9
$DIMSE2
 70
     0
  9
$DIMTAD
 70
     1
  9
$DIMZIN
 70
     8
  9
$DIMBLK
  1

  9
$DIMASO
 70
     1
  9
$DIMSHO
 70
     1
  9
$DIMPOST
  1

  9
$DIMAPOST
  1

  9
$DIMALT
 70
     0
  9
$DIMALTD
 70
     3
  9
$DIMALTF
 40
0.03937007874016
  9
$DIMLFAC
 40
1.0
  9
$DIMTOFL
 70
     1
  9
$DIMTVP
 40
0.0
  9
$DIMTIX
 70
     0
  9
$DIMSOXD
 70
     0
  9
$DIMSAH
 70
     0
  9
$DIMBLK1
  1

  9
$DIMBLK2
  1

  9
$DIMSTYLE
  2
ISO-25
  9
$DIMCLRD
 70
     0
  9
$DIMCLRE
 70
     0
  9
$DIMCLRT
 70
     0
  9
$DIMTFAC
 40
1.0
  9
$DIMGAP
 40
0.625
  9
$DIMJUST
 70
     0
  9
$DIMSD1
 70
     0
  9
$DIMSD2
 70
     0
  9
$DIMTOLJ
 70
     0
  9
$DIMTZIN
 70
     8
  9
$DIMALTZ
 70
     0
  9
$DIMALTTZ
 70
     0
  9
$DIMUPT
 70
     0
  9
$DIMDEC
 70
     2
  9
$DIMTDEC
 70
     2
  9
$DIMALTU
 70
     2
  9
$DIMALTTD
 70
     3
  9
$DIMTXSTY
  7
Standard
  9
$DIMAUNIT
 70
     0
  9
$DIMADEC
 70
     0
  9
$DIMALTRND
 40
0.0
  9
$DIMAZIN
 70
     0
  9
$DIMDSEP
 70
    44
  9
$DIMATFIT
 70
     3
  9
$DIMFRAC
 70
     0
  9
$DIMLDRBLK
  1

  9
$DIMLUNIT
 70
     2
  9
$DIMLWD
 70
    -2
  9
$DIMLWE
 70
    -2
  9
$DIMTMOVE
 70
     0
  9
$DIMFXL
 40
1.0
  9
$DIMFXLON
 70
     0
  9
$DIMJOGANG
 40
0.7853981633974483
  9
$DIMTFILL
 70
     0
  9
$DIMTFILLCLR
 70
     0
  9
$DIMARCSYM
 70
     0
  9
$DIMLTYPE
  6

  9
$DIMLTEX1
  6

  9
$DIMLTEX2
  6

  9
$DIMTXTDIRECTION
 70
     0
  9
$LUNITS
 70
     2
  9
$LUPREC
 70
     3
  9
$SKETCHINC
 40
1.0
  9
$FILLETRAD
 40
10.0
  9
$AUNITS
 70
     0
  9
$AUPREC
 70
     0
  9
$MENU
  1
.
  9
$ELEVATION
 40
0.0
  9
$PELEVATION
 40
0.0
  9
$THICKNESS
 40
0.0
  9
$LIMCHECK
 70
     0
  9
$CHAMFERA
 40
10.0
  9
$CHAMFERB
 40
10.0
  9
$CHAMFERC
 40
20.0
  9
$CHAMFERD
 40
0.0
  9
$SKPOLY
 70
     0
  9
$TDCREATE
 40
2455023.012359514
  9
$TDUCREATE
 40
2455022.637359514
  9
$TDUPDATE
 40
2459929.489986678
  9
$TDUUPDATE
 40
2459929.114986678
  9
$TDINDWG
 40
0.0021246181
  9
$TDUSRTIMER
 40
0.0021246181
  9
$USRTIMER
 70
     1
  9
$ANGBASE
 50
0.0
  9
$ANGDIR
 70
     0
  9
$PDMODE
 70
     0
  9
$PDSIZE
 40
0.0
  9
$PLINEWID
 40
0.0
  9
$SPLFRAME
 70
     0
  9
$SPLINETYPE
 70
     6
  9
$SPLINESEGS
 70
     8
  9
$HANDSEED
  5
44D
  9
$SURFTAB1
 70
     6
  9
$SURFTAB2
 70
     6
  9
$SURFTYPE
 70
     6
  9
$SURFU
 70
     6
  9
$SURFV
 70
     6
  9
$UCSBASE
  2

  9
$UCSNAME
  2

  9
$UCSORG
 10
0.0
 20
0.0
 30
0.0
  9
$UCSXDIR
 10
1.0
 20
0.0
 30
0.0
  9
$UCSYDIR
 10
0.0
 20
1.0
 30
0.0
  9
$UCSORTHOREF
  2

  9
$UCSORTHOVIEW
 70
     0
  9
$UCSORGTOP
 10
0.0
 20
0.0
 30
0.0
  9
$UCSORGBOTTOM
 10
0.0
 20
0.0
 30
0.0
  9
$UCSORGLEFT
 10
0.0
 20
0.0
 30
0.0
  9
$UCSORGRIGHT
 10
0.0
 20
0.0
 30
0.0
  9
$UCSORGFRONT
 10
0.0
 20
0.0
 30
0.0
  9
$UCSORGBACK
 10
0.0
 20
0.0
 30
0.0
  9
$PUCSBASE
  2

  9
$PUCSNAME
  2

  9
$PUCSORG
 10
0.0
 20
0.0
 30
0.0
  9
$PUCSXDIR
 10
1.0
 20
0.0
 30
0.0
  9
$PUCSYDIR
 10
0.0
 20
1.0
 30
0.0
  9
$PUCSORTHOREF
  2

  9
$PUCSORTHOVIEW
 70
     0
  9
$PUCSORGTOP
 10
0.0
 20
0.0
 30
0.0
  9
$PUCSORGBOTTOM
 10
0.0
 20
0.0
 30
0.0
  9
$PUCSORGLEFT
 10
0.0
 20
0.0
 30
0.0
  9
$PUCSORGRIGHT
 10
0.0
 20
0.0
 30
0.0
  9
$PUCSORGFRONT
 10
0.0
 20
0.0
 30
0.0
  9
$PUCSORGBACK
 10
0.0
 20
0.0
 30
0.0
  9
$USERI1
 70
     0
  9
$USERI2
 70
     0
  9
$USERI3
 70
     0
  9
$USERI4
 70
     0
  9
$USERI5
 70
     0
  9
$USERR1
 40
0.0
  9
$USERR2
 40
0.0
  9
$USERR3
 40
0.0
  9
$USERR4
 40
0.0
  9
$USERR5
 40
0.0
  9
$WORLDVIEW
 70
     1
  9
$SHADEDGE
 70
     3
  9
$SHADEDIF
 70
    70
  9
$TILEMODE
 70
     1
  9
$MAXACTVP
 70
    64
  9
$PINSBASE
 10
0.0
 20
0.0
 30
0.0
  9
$PLIMCHECK
 70
     0
  9
$PEXTMIN
 10
1.000000000000000E+20
 20
1.000000000000000E+20
 30
1.000000000000000E+20
  9
$PEXTMAX
 10
-1.000000000000000E+20
 20
-1.000000000000000E+20
 30
-1.000000000000000E+20
  9
$PLIMMIN
 10
0.0
 20
0.0
  9
$PLIMMAX
 10
0.0
 20
0.0
  9
$UNITMODE
 70
     0
  9
$VISRETAIN
 70
     1
  9
$PLINEGEN
 70
     0
  9
$PSLTSCALE
 70
     1
  9
$TREEDEPTH
 70
  3020
  9
$CMLSTYLE
  2
Standard
  9
$CMLJUST
 70
     0
  9
$CMLSCALE
 40
20.0
  9
$PROXYGRAPHICS
 70
     1
  9
$MEASUREMENT
 70
     1
  9
$CELWEIGHT
370
    -1
  9
$ENDCAPS
280
     0
  9
$JOINSTYLE
280
     0
  9
$LWDISPLAY
290
     0
  9
$INSUNITS
 70
     4
  9
$HYPERLINKBASE
  1

  9
$STYLESHEET
  1

  9
$XEDIT
290
     1
  9
$CEPSNTYPE
380
     0
  9
$PSTYLEMODE
290
     1
  9
$FINGERPRINTGUID
  2
{EC6BB858-51AA-46EC-B484-6C9CC7AB3E2E}
  9
$VERSIONGUID
  2
{FAEB1C32-E019-11D5-929B-00C0DF256EC4}
  9
$EXTNAMES
290
     1
  9
$PSVPSCALE
 40
0.0
  9
$OLESTARTUP
290
     0
  9
$SORTENTS
280
   127
  9
$INDEXCTL
280
     0
  9
$HIDETEXT
280
     1
  9
$XCLIPFRAME
280
     0
  9
$HALOGAP
280
     0
  9
$OBSCOLOR
 70
   257
  9
$OBSLTYPE
280
     0
  9
$INTERSECTIONDISPLAY
280
     0
  9
$INTERSECTIONCOLOR
 70
   257
  9
$DIMASSOC
280
     2
  9
$PROJECTNAME
  1

  9
$CAMERADISPLAY
290
     0
  9
$LENSLENGTH
 40
50.0
  9
$CAMERAHEIGHT
 40
0.0
  9
$STEPSPERSEC
 40
2.0
  9
$STEPSIZE
 40
6.0
  9
$3DDWFPREC
 40
2.0
  9
$PSOLWIDTH
 40
5.0
  9
$PSOLHEIGHT
 40
80.0
  9
$LOFTANG1
 40
1.570796326794897
  9
$LOFTANG2
 40
1.570796326794897
  9
$LOFTMAG1
 40
0.0
  9
$LOFTMAG2
 40
0.0
  9
$LOFTPARAM
 70
     7
  9
$LOFTNORMALS
280
     1
  9
$LATITUDE
 40
37.795
  9
$LONGITUDE
 40
-122.394
  9
$NORTHDIRECTION
 40
0.0
  9
$TIMEZONE
 70
 -8000
  9
$LIGHTGLYPHDISPLAY
280
     1
  9
$TILEMODELIGHTSYNCH
280
     1
  9
$SOLIDHIST
280
     1
  9
$SHOWHIST
280
     1
  9
$DWFFRAME
280
     2
  9
$DGNFRAME
280
     2
  9
$REALWORLDSCALE
290
     1
  9
$INTERFERECOLOR
 62
   256
  9
$CSHADOW
280
     0
  9
$SHADOWPLANELOCATION
 40
0.0
  0
ENDSEC
  0
SECTION
  2
CLASSES
  0
CLASS
  1
ACDBDICTIONARYWDFLT
  2
AcDbDictionaryWithDefault
  3
ObjectDBX Classes
 90
        0
 91
        3
280
     0
281
     0
  0
CLASS
  1
VISUALSTYLE
  2
AcDbVisualStyle
  3
ObjectDBX Classes
 90
     4095
 91
        3
280
     0
281
     0
  0
CLASS
  1
TABLESTYLE
  2
AcDbTableStyle
  3
ObjectDBX Classes
 90
     4095
 91
        3
280
     0
281
     0
  0
CLASS
  1
DICTIONARYVAR
  2
AcDbDictionaryVar
  3
ObjectDBX Classes
 90
        0
 91
        3
280
     0
281
     0
  0
CLASS
  1
SCALE
  2
AcDbScale
  3
ObjectDBX Classes
 90
     1153
 91
        3
280
     0
281
     0
  0
CLASS
  1
CELLSTYLEMAP
  2
AcDbCellStyleMap
  3
ObjectDBX Classes
 90
     1152
 91
        3
280
     0
281
     0
  0
CLASS
  1
RASTERVARIABLES
  2
AcDbRasterVariables
  3
ISM
 90
        0
 91
        3
280
     0
281
     0
  0
CLASS
  1
MATERIAL
  2
AcDbMaterial
  3
ObjectDBX Classes
 90
     1153
 91
        3
280
     0
281
     0
  0
CLASS
  1
SUN
  2
AcDbSun
  3
SCENEOE
 90
     1153
 91
        3
280
     0
281
     0
  0
CLASS
  1
MLEADERSTYLE
  2
AcDbMLeaderStyle
  3
ACDB_MLEADERSTYLE_CLASS
 90
     4095
 91
        3
280
     0
281
     0
  0
CLASS
  1
SORTENTSTABLE
  2
AcDbSortentsTable
  3
ObjectDBX Classes
 90
        0
 91
        3
280
     0
281
     0
  0
CLASS
  1
BREAKDATA
  2
AcDbBreakData
  3
ObjectDBX Classes
 90
     1024
 91
        3
280
     0
281
     0
  0
ENDSEC
  0
SECTION
  2
TABLES
  0
TABLE
  2
VPORT
  5
8
330
0
100
AcDbSymbolTable
 70
     1
  0
VPORT
  5
29
330
8
100
AcDbSymbolTableRecord
100
AcDbViewportTableRecord
  2
*Active
 70
     0
 10
0.0
 20
0.0
 11
1.0
 21
1.0
 12
435.4530522514867
 22
190.1935227272728
 13
0.0
 23
0.0
 14
10.0
 24
10.0
 15
10.0
 25
10.0
 16
0.0
 26
0.0
 36
1.0
 17
-134.1869158878504
 27
0.0
 37
0.0
 40
601.875
 41
1.336363636363637
 42
50.0
 43
0.0
 44
0.0
 50
0.0
 51
0.0
 71
    16
 72
  1000
 73
     1
 74
     3
 75
     0
 76
     0
 77
     0
 78
     0
281
     0
 65
     1
110
0.0
120
0.0
130
0.0
111
1.0
121
0.0
131
0.0
112
0.0
122
1.0
132
0.0
 79
     0
146
0.0
348
2F
 60
     3
 61
     5
292
     1
282
     1
141
0.0
142
0.0
 63
   256
361
80
  0
ENDTAB
  0
TABLE
  2
LTYPE
  5
5
330
0
100
AcDbSymbolTable
 70
     3
  0
LTYPE
  5
14
330
5
100
AcDbSymbolTableRecord
100
AcDbLinetypeTableRecord
  2
ByBlock
 70
     0
  3

 72
    65
 73
     0
 40
0.0
  0
LTYPE
  5
15
330
5
100
AcDbSymbolTableRecord
100
AcDbLinetypeTableRecord
  2
ByLayer
 70
     0
  3

 72
    65
 73
     0
 40
0.0
  0
LTYPE
  5
16
330
5
100
AcDbSymbolTableRecord
100
AcDbLinetypeTableRecord
  2
Continuous
 70
     0
  3
Solid line
 72
    65
 73
     0
 40
0.0
  0
LTYPE
  5
C3
330
5
100
AcDbSymbolTableRecord
100
AcDbLinetypeTableRecord
  2
WACOM_LSTYLE_M1
 70
     0
  3
実線     [---------]
 72
    65
 73
     2
 40
24.0
 49
12.0
 74
     0
 49
12.0
 74
     0
  0
LTYPE
  5
C4
330
5
100
AcDbSymbolTableRecord
100
AcDbLinetypeTableRecord
  2
CENTERX2
 70
     0
  3
________  __  ________  __  ________  __  _____
 72
    65
 73
     4
 40
4.0
 49
2.5
 74
     0
 49
-0.5
 74
     0
 49
0.5
 74
     0
 49
-0.5
 74
     0
  0
ENDTAB
  0
TABLE
  2
LAYER
  5
2
102
{ACAD_XDICTIONARY
360
29B
102
}
330
0
100
AcDbSymbolTable
 70
     3
  0
LAYER
  5
10
330
2
100
AcDbSymbolTableRecord
100
AcDbLayerTableRecord
  2
0
 70
     0
 62
     7
  6
Continuous
370
    -3
390
F
347
75
348
0
  0
LAYER
  5
BE
330
2
100
AcDbSymbolTableRecord
100
AcDbLayerTableRecord
  2
Defpoints
 70
     0
 62
     7
  6
Continuous
290
     0
370
    -3
390
F
347
75
348
0
  0
LAYER
  5
BF
102
{ACAD_XDICTIONARY
360
C0
102
}
330
2
100
AcDbSymbolTableRecord
100
AcDbLayerTableRecord
  2
寸法線
 70
     0
 62
     2
  6
WACOM_LSTYLE_M1
370
    13
390
F
347
75
348
0
  0
ENDTAB
  0
TABLE
  2
STYLE
  5
3
330
0
100
AcDbSymbolTable
 70
     2
  0
STYLE
  5
11
330
3
100
AcDbSymbolTableRecord
100
AcDbTextStyleTableRecord
  2
Standard
 70
     0
 40
0.0
 41
1.0
 50
0.0
 71
     0
 42
2.5
  3
arial.ttf
  4

1001
ACAD
1000
Arial
1071
        0
  0
STYLE
  5
B8
330
3
100
AcDbSymbolTableRecord
100
AcDbTextStyleTableRecord
  2
Annotative
 70
     0
 40
0.0
 41
1.0
 50
0.0
 71
     0
 42
2.5
  3
arial.ttf
  4

1001
ACAD
1000
Arial
1071
        0
1001
AcadAnnotative
1000
AnnotativeData
1002
{
1070
     1
1070
     1
1002
}
  0
ENDTAB
  0
TABLE
  2
VIEW
  5
6
330
0
100
AcDbSymbolTable
 70
     0
  0
ENDTAB
  0
TABLE
  2
UCS
  5
7
330
0
100
AcDbSymbolTable
 70
     0
  0
ENDTAB
  0
TABLE
  2
APPID
  5
9
330
0
100
AcDbSymbolTable
 70
     6
  0
APPID
  5
12
330
9
100
AcDbSymbolTableRecord
100
AcDbRegAppTableRecord
  2
ACAD
 70
     0
  0
APPID
  5
B9
330
9
100
AcDbSymbolTableRecord
100
AcDbRegAppTableRecord
  2
AcadAnnotative
 70
     0
  0
APPID
  5
D1
330
9
100
AcDbSymbolTableRecord
100
AcDbRegAppTableRecord
  2
ACAD_PSEXT
 70
     0
  0
APPID
  5
D2
330
9
100
AcDbSymbolTableRecord
100
AcDbRegAppTableRecord
  2
ACAD_NAV_VCDISPLAY
 70
     0
  0
APPID
  5
D3
330
9
100
AcDbSymbolTableRecord
100
AcDbRegAppTableRecord
  2
ACAD_DSTYLE_DIMRADIAL_EXTENSION
 70
     0
  0
APPID
  5
D4
330
9
100
AcDbSymbolTableRecord
100
AcDbRegAppTableRecord
  2
ENABLE_CUSTOM_SPLIT
 70
     0
  0
ENDTAB
  0
TABLE
  2
DIMSTYLE
  5
A
330
0
100
AcDbSymbolTable
 70
     7
100
AcDbDimStyleTable
  0
DIMSTYLE
105
27
330
A
100
AcDbSymbolTableRecord
100
AcDbDimStyleTableRecord
  2
ISO-25
 70
     0
 41
2.5
 42
0.625
 43
3.75
 44
1.25
 73
     0
 74
     0
 77
     1
 78
     8
140
2.5
141
2.5
143
0.03937007874016
147
0.625
171
     3
172
     1
178
     0
271
     2
272
     2
274
     3
278
    44
283
     0
284
     8
340
11
  0
DIMSTYLE
105
BA
330
A
100
AcDbSymbolTableRecord
100
AcDbDimStyleTableRecord
  2
Annotative
 70
     0
 40
0.0
 41
2.5
 42
0.625
 43
3.75
 44
1.25
 73
     0
 74
     0
 77
     1
 78
     8
140
2.5
141
2.5
143
0.03937007874016
147
0.625
171
     3
172
     1
178
     0
271
     2
272
     2
274
     3
278
    44
283
     0
284
     8
340
11
1001
AcadAnnotative
1000
AnnotativeData
1002
{
1070
     1
1070
     1
1002
}
  0
DIMSTYLE
105
C5
330
A
100
AcDbSymbolTableRecord
100
AcDbDimStyleTableRecord
  2
WACOM_NORMAL-toko
 70
     0
 41
2.0
 42
0.5
 43
8.0
 44
0.5
 45
0.00001
 73
     0
 74
     0
 77
     1
 78
     8
140
3.5
141
0.0
146
0.7
147
1.0
172
     1
176
     3
177
     3
271
     1
178
     7
271
     1
272
     1
284
     8
340
11
341
C7
342
C7
371
    -1
372
    -1
  0
DIMSTYLE
105
CD
102
{ACAD_REACTORS
330
138
330
150
330
182
330
196
330
1AD
330
1CE
330
1DE
330
1F0
330
2D7
330
2E3
330
2F3
330
2FB
330
306
330
31B
330
31E
330
321
102
}
330
A
100
AcDbSymbolTableRecord
100
AcDbDimStyleTableRecord
  2
WACOM_NORMAL-toko$0
 70
     0
 41
2.0
 42
0.5
 43
8.0
 44
0.5
 45
0.00001
 73
     0
 74
     0
 77
     1
 78
     8
140
3.5
146
0.7
147
1.0
172
     1
176
     3
177
     3
271
     1
178
     7
271
     1
272
     1
284
     8
340
11
341
C7
342
C7
371
    -1
372
    -1
  0
DIMSTYLE
105
CE
102
{ACAD_REACTORS
330
121
330
201
330
2CC
330
326
102
}
330
A
100
AcDbSymbolTableRecord
100
AcDbDimStyleTableRecord
  2
WACOM_NORMAL-toko$2
 70
     0
 41
2.0
 42
0.5
 43
8.0
 44
0.5
 45
0.00001
 73
     0
 74
     0
 77
     3
 78
     8
140
3.5
141
0.0
146
0.7
147
1.0
172
     1
176
     3
177
     3
271
     1
178
     7
179
     1
271
     1
272
     1
340
11
341
C7
342
C7
371
    -1
372
    -1
  0
DIMSTYLE
105
CF
102
{ACAD_REACTORS
330
166
330
172
330
2ED
330
2EE
102
}
330
A
100
AcDbSymbolTableRecord
100
AcDbDimStyleTableRecord
  2
WACOM_NORMAL-toko$3
 70
     0
  3
φ<>
 41
2.0
 42
0.5
 43
8.0
 44
0.5
 45
0.00001
 73
     0
 74
     0
 77
     1
 78
     8
140
3.5
141
0.0
146
0.7
147
1.0
172
     1
176
     3
177
     3
271
     1
178
     7
271
     1
272
     1
284
     8
289
     2
340
11
341
C7
342
C7
371
    -1
372
    -1
  0
DIMSTYLE
105
D0
102
{ACAD_REACTORS
330
21C
330
335
102
}
330
A
100
AcDbSymbolTableRecord
100
AcDbDimStyleTableRecord
  2
WACOM_NORMAL-toko$4
 70
     0
  3
R<>
 41
2.0
 42
0.5
 43
8.0
 44
0.5
 45
0.00001
 73
     0
 74
     0
 77
     1
 78
     8
140
3.5
141
0.0
146
0.7
147
1.0
172
     1
176
     3
177
     3
271
     1
178
     7
271
     1
272
     1
284
     8
289
     2
340
11
341
C7
342
C7
371
    -1
372
    -1
  0
ENDTAB
  0
TABLE
  2
BLOCK_RECORD
  5
1
330
0
100
AcDbSymbolTable
 70
    28
  0
BLOCK_RECORD
  5
1F
102
{ACAD_XDICTIONARY
360
448
102
}
330
1
100
AcDbSymbolTableRecord
100
AcDbBlockTableRecord
  2
*Model_Space
340
22
 70
     0
280
     1
281
     0
  0
BLOCK_RECORD
  5
1B
330
1
100
AcDbSymbolTableRecord
100
AcDbBlockTableRecord
  2
*Paper_Space
340
1E
 70
     0
280
     1
281
     0
  0
BLOCK_RECORD
  5
23
330
1
100
AcDbSymbolTableRecord
100
AcDbBlockTableRecord
  2
*Paper_Space0
340
26
 70
     0
280
     1
281
     0
  0
BLOCK_RECORD
  5
C7
330
1
100
AcDbSymbolTableRecord
100
AcDbBlockTableRecord
  2
_Open30
340
0
102
{BLKREFS
331
129
331
12A
331
3B1
331
3B2
331
3BF
331
3C0
331
3CB
331
3CC
331
3D8
331
3D9
331
3E3
331
3E4
331
3ED
331
3EE
331
3F9
331
3FA
331
405
331
406
331
412
331
413
331
421
331
422
331
42D
331
42E
331
437
331
438
331
445
102
}
 70
     0
280
     1
281
     0
  0
BLOCK_RECORD
  5
124
330
1
100
AcDbSymbolTableRecord
100
AcDbBlockTableRecord
  2
*D3
340
0
 70
     0
280
     1
281
     0
  0
BLOCK_RECORD
  5
139
330
1
100
AcDbSymbolTableRecord
100
AcDbBlockTableRecord
  2
*D4
340
0
 70
     0
280
     1
281
     0
  0
BLOCK_RECORD
  5
151
330
1
100
AcDbSymbolTableRecord
100
AcDbBlockTableRecord
  2
*D5
340
0
 70
     0
280
     1
281
     0
  0
BLOCK_RECORD
  5
167
330
1
100
AcDbSymbolTableRecord
100
AcDbBlockTableRecord
  2
*D6
340
0
 70
     0
280
     1
281
     0
  0
BLOCK_RECORD
  5
173
330
1
100
AcDbSymbolTableRecord
100
AcDbBlockTableRecord
  2
*D7
340
0
 70
     0
280
     1
281
     0
  0
BLOCK_RECORD
  5
185
330
1
100
AcDbSymbolTableRecord
100
AcDbBlockTableRecord
  2
*D8
340
0
 70
     0
280
     1
281
     0
  0
BLOCK_RECORD
  5
199
330
1
100
AcDbSymbolTableRecord
100
AcDbBlockTableRecord
  2
*D9
340
0
 70
     0
280
     1
281
     0
  0
BLOCK_RECORD
  5
1B0
330
1
100
AcDbSymbolTableRecord
100
AcDbBlockTableRecord
  2
*D10
340
0
 70
     0
280
     1
281
     0
  0
BLOCK_RECORD
  5
1D1
330
1
100
AcDbSymbolTableRecord
100
AcDbBlockTableRecord
  2
*D11
340
0
 70
     0
280
     1
281
     0
  0
BLOCK_RECORD
  5
1E1
330
1
100
AcDbSymbolTableRecord
100
AcDbBlockTableRecord
  2
*D12
340
0
 70
     0
280
     1
281
     0
  0
BLOCK_RECORD
  5
1F3
330
1
100
AcDbSymbolTableRecord
100
AcDbBlockTableRecord
  2
*D13
340
0
 70
     0
280
     1
281
     0
  0
BLOCK_RECORD
  5
204
330
1
100
AcDbSymbolTableRecord
100
AcDbBlockTableRecord
  2
*D14
340
0
 70
     0
280
     1
281
     0
  0
BLOCK_RECORD
  5
21D
330
1
100
AcDbSymbolTableRecord
100
AcDbBlockTableRecord
  2
*D15
340
0
 70
     0
280
     1
281
     0
  0
BLOCK_RECORD
  5
3AB
330
1
100
AcDbSymbolTableRecord
100
AcDbBlockTableRecord
  2
*D16
340
0
 70
     0
280
     1
281
     0
  0
BLOCK_RECORD
  5
3B9
330
1
100
AcDbSymbolTableRecord
100
AcDbBlockTableRecord
  2
*D17
340
0
 70
     0
280
     1
281
     0
  0
BLOCK_RECORD
  5
3C5
330
1
100
AcDbSymbolTableRecord
100
AcDbBlockTableRecord
  2
*D18
340
0
 70
     0
280
     1
281
     0
  0
BLOCK_RECORD
  5
3D1
330
1
100
AcDbSymbolTableRecord
100
AcDbBlockTableRecord
  2
*D19
340
0
 70
     0
280
     1
281
     0
  0
BLOCK_RECORD
  5
3DC
330
1
100
AcDbSymbolTableRecord
100
AcDbBlockTableRecord
  2
*D20
340
0
 70
     0
280
     1
281
     0
  0
BLOCK_RECORD
  5
3E7
330
1
100
AcDbSymbolTableRecord
100
AcDbBlockTableRecord
  2
*D21
340
0
 70
     0
280
     1
281
     0
  0
BLOCK_RECORD
  5
3F3
330
1
100
AcDbSymbolTableRecord
100
AcDbBlockTableRecord
  2
*D22
340
0
 70
     0
280
     1
281
     0
  0
BLOCK_RECORD
  5
3FF
330
1
100
AcDbSymbolTableRecord
100
AcDbBlockTableRecord
  2
*D23
340
0
 70
     0
280
     1
281
     0
  0
BLOCK_RECORD
  5
40B
330
1
100
AcDbSymbolTableRecord
100
AcDbBlockTableRecord
  2
*D24
340
0
 70
     0
280
     1
281
     0
  0
BLOCK_RECORD
  5
418
330
1
100
AcDbSymbolTableRecord
100
AcDbBlockTableRecord
  2
*D25
340
0
 70
     0
280
     1
281
     0
  0
BLOCK_RECORD
  5
427
330
1
100
AcDbSymbolTableRecord
100
AcDbBlockTableRecord
  2
*D26
340
0
 70
     0
280
     1
281
     0
  0
BLOCK_RECORD
  5
433
330
1
100
AcDbSymbolTableRecord
100
AcDbBlockTableRecord
  2
*D27
340
0
 70
     0
280
     1
281
     0
  0
BLOCK_RECORD
  5
43F
330
1
100
AcDbSymbolTableRecord
100
AcDbBlockTableRecord
  2
*D28
340
0
 70
     0
280
     1
281
     0
  0
ENDTAB
  0
ENDSEC
  0
SECTION
  2
BLOCKS
  0
BLOCK
  5
20
330
1F
100
AcDbEntity
  8
0
100
AcDbBlockBegin
  2
*Model_Space
 70
     0
 10
0.0
 20
0.0
 30
0.0
  3
*Model_Space
  1

  0
ENDBLK
  5
21
330
1F
100
AcDbEntity
  8
0
100
AcDbBlockEnd
  0
BLOCK
  5
1C
330
1B
100
AcDbEntity
 67
     1
  8
0
100
AcDbBlockBegin
  2
*Paper_Space
 70
     0
 10
0.0
 20
0.0
 30
0.0
  3
*Paper_Space
  1

  0
ENDBLK
  5
1D
330
1B
100
AcDbEntity
 67
     1
  8
0
100
AcDbBlockEnd
  0
BLOCK
  5
24
330
23
100
AcDbEntity
  8
0
100
AcDbBlockBegin
  2
*Paper_Space0
 70
     0
 10
0.0
 20
0.0
 30
0.0
  3
*Paper_Space0
  1

  0
ENDBLK
  5
25
330
23
100
AcDbEntity
  8
0
100
AcDbBlockEnd
  0
BLOCK
  5
C8
330
C7
100
AcDbEntity
  8
0
100
AcDbBlockBegin
  2
_Open30
 70
     0
 10
0.0
 20
0.0
 30
0.0
  3
_Open30
  1

  0
LINE
  5
C9
330
C7
100
AcDbEntity
  8
0
  6
ByBlock
 62
     0
370
    -2
100
AcDbLine
 10
-1.0
 20
0.26794919
 30
0.0
 11
0.0
 21
0.0
 31
0.0
  0
LINE
  5
CA
330
C7
100
AcDbEntity
  8
0
  6
ByBlock
 62
     0
370
    -2
100
AcDbLine
 10
0.0
 20
0.0
 30
0.0
 11
-1.0
 21
-0.26794919
 31
0.0
  0
LINE
  5
CB
330
C7
100
AcDbEntity
  8
0
  6
ByBlock
 62
     0
370
    -2
100
AcDbLine
 10
0.0
 20
0.0
 30
0.0
 11
-1.0
 21
0.0
 31
0.0
  0
ENDBLK
  5
CC
330
C7
100
AcDbEntity
  8
0
100
AcDbBlockEnd
  0
BLOCK
  5
125
330
124
100
AcDbEntity
  8
0
100
AcDbBlockBegin
  2
*D3
 70
     1
 10
0.0
 20
0.0
 30
0.0
  3
*D3
  1

  0
LINE
  5
126
330
124
100
AcDbEntity
  8
寸法線
 62
     3
100
AcDbLine
 10
264.3711238192535
 20
48.03954891599312
 30
0.0
 11
268.356808555278
 21
33.24968335084949
 31
0.0
  0
ARC
  5
127
330
124
100
AcDbEntity
  8
寸法線
 62
     3
100
AcDbCircle
 10
256.9331997251129
 20
46.03512092446408
 30
0.0
 40
7.703275043994055
100
AcDbArc
 50
15.08220573169246
 51
29.99999999999148
  0
ARC
  5
128
330
124
100
AcDbEntity
  8
寸法線
 62
     3
100
AcDbCircle
 10
256.9331997251129
 20
46.03512092446408
 30
0.0
 40
7.703275043994055
100
AcDbArc
 50
44.91779426829051
 51
165.0822057316768
  0
INSERT
  5
129
330
124
100
AcDbEntity
  8
寸法線
 62
     3
100
AcDbBlockReference
  2
_Open30
 10
263.604431605551
 20
49.88675844646011
 30
0.0
 41
2.0
 42
2.0
 43
2.0
 50
307.458897134141
  0
INSERT
  5
12A
330
124
100
AcDbEntity
  8
寸法線
 62
     3
100
AcDbBlockReference
  2
_Open30
 10
249.2299246811188
 20
46.03512092446733
 30
0.0
 41
2.0
 42
2.0
 43
2.0
 50
262.5411028658263
  0
MTEXT
  5
12B
330
124
100
AcDbEntity
  8
寸法線
 62
     7
100
AcDbMText
 10
269.0766887141318
 20
41.37566109936621
 30
0.0
 40
3.5
 41
0.0
 46
0.0
 71
     5
 72
     1
  1
\A1;150.0%%d
 11
0.2602046506299699
 21
-0.965553488829353
 31
0.0
 73
     1
 44
1.0
  0
POINT
  5
12C
330
124
100
AcDbEntity
  8
Defpoints
 62
     0
100
AcDbPoint
 10
251.9816299728279
 20
51.93617196573445
 30
0.0
  0
POINT
  5
12D
330
124
100
AcDbEntity
  8
Defpoints
 62
     0
100
AcDbPoint
 10
278.6256089011235
 20
58.55923920160103
 30
0.0
  0
POINT
  5
12E
330
124
100
AcDbEntity
  8
Defpoints
 62
     0
100
AcDbPoint
 10
256.9331997251129
 20
46.03512092446408
 30
0.0
  0
POINT
  5
29F
330
124
100
AcDbEntity
  8
Defpoints
 62
     0
100
AcDbPoint
 10
235.3771401611493
 20
46.03512092447318
 30
0.0
  0
POINT
  5
2A0
330
124
100
AcDbEntity
  8
Defpoints
 62
     0
100
AcDbPoint
 10
256.9331997251129
 20
46.03512092446408
 30
0.0
  0
ENDBLK
  5
12F
330
124
100
AcDbEntity
  8
0
100
AcDbBlockEnd
  0
BLOCK
  5
13A
330
139
100
AcDbEntity
  8
0
100
AcDbBlockBegin
  2
*D4
 70
     1
 10
0.0
 20
0.0
 30
0.0
  3
*D4
  1

  0
LINE
  5
13B
330
139
100
AcDbEntity
  8
寸法線
 62
     3
100
AcDbLine
 10
504.4653381773451
 20
135.8499685307402
 30
0.0
 11
534.0634531333203
 21
135.8499685307402
 31
0.0
  0
LINE
  5
13C
330
139
100
AcDbEntity
  8
寸法線
 62
     3
100
AcDbLine
 10
504.4653381773451
 20
120.8499685307402
 30
0.0
 11
534.0634531333203
 21
120.8499685307402
 31
0.0
  0
LINE
  5
13D
330
139
100
AcDbEntity
  8
寸法線
 62
     3
100
AcDbLine
 10
533.5634531333203
 20
133.8499685307402
 30
0.0
 11
533.5634531333203
 21
122.8499685307402
 31
0.0
  0
INSERT
  5
13E
330
139
100
AcDbEntity
  8
寸法線
 62
     3
100
AcDbBlockReference
  2
_Open30
 10
533.5634531333203
 20
135.8499685307402
 30
0.0
 41
2.0
 42
2.0
 43
2.0
 50
90.0
  0
INSERT
  5
13F
330
139
100
AcDbEntity
  8
寸法線
 62
     3
100
AcDbBlockReference
  2
_Open30
 10
533.5634531333203
 20
120.8499685307402
 30
0.0
 41
2.0
 42
2.0
 43
2.0
 50
270.0
  0
MTEXT
  5
140
330
139
100
AcDbEntity
  8
寸法線
 62
     7
100
AcDbMText
 10
530.7767031333203
 20
128.3499685307402
 30
0.0
 40
3.5
 41
0.0
 46
0.0
 71
     5
 72
     1
  1
\A1;15
 11
0.0
 21
1.0
 31
0.0
 73
     1
 44
1.0
  0
POINT
  5
141
330
139
100
AcDbEntity
  8
Defpoints
 62
     0
100
AcDbPoint
 10
503.9653381773451
 20
135.8499685307402
 30
0.0
  0
POINT
  5
142
330
139
100
AcDbEntity
  8
Defpoints
 62
     0
100
AcDbPoint
 10
503.9653381773451
 20
120.8499685307402
 30
0.0
  0
POINT
  5
143
330
139
100
AcDbEntity
  8
Defpoints
 62
     0
100
AcDbPoint
 10
533.5634531333203
 20
120.8499685307402
 30
0.0
  0
ENDBLK
  5
144
330
139
100
AcDbEntity
  8
0
100
AcDbBlockEnd
  0
BLOCK
  5
152
330
151
100
AcDbEntity
  8
0
100
AcDbBlockBegin
  2
*D5
 70
     1
 10
0.0
 20
0.0
 30
0.0
  3
*D5
  1

  0
LINE
  5
153
330
151
100
AcDbEntity
  8
寸法線
 62
     3
100
AcDbLine
 10
504.4653381773451
 20
135.8499685307402
 30
0.0
 11
534.0634531333203
 21
135.8499685307402
 31
0.0
  0
LINE
  5
154
330
151
100
AcDbEntity
  8
寸法線
 62
     3
100
AcDbLine
 10
504.4653381773451
 20
120.8499685307402
 30
0.0
 11
534.0634531333203
 21
120.8499685307402
 31
0.0
  0
LINE
  5
155
330
151
100
AcDbEntity
  8
寸法線
 62
     3
100
AcDbLine
 10
533.5634531333203
 20
133.8499685307402
 30
0.0
 11
533.5634531333203
 21
122.8499685307402
 31
0.0
  0
INSERT
  5
156
330
151
100
AcDbEntity
  8
寸法線
 62
     3
100
AcDbBlockReference
  2
_Open30
 10
533.5634531333203
 20
135.8499685307402
 30
0.0
 41
2.0
 42
2.0
 43
2.0
 50
90.0
  0
INSERT
  5
157
330
151
100
AcDbEntity
  8
寸法線
 62
     3
100
AcDbBlockReference
  2
_Open30
 10
533.5634531333203
 20
120.8499685307402
 30
0.0
 41
2.0
 42
2.0
 43
2.0
 50
270.0
  0
MTEXT
  5
158
330
151
100
AcDbEntity
  8
寸法線
 62
     7
100
AcDbMText
 10
530.7767031333203
 20
128.3499685307402
 30
0.0
 40
3.5
 41
0.0
 46
0.0
 71
     5
 72
     1
  1
\A1;15
 11
0.0
 21
1.0
 31
0.0
 73
     1
 44
1.0
  0
POINT
  5
159
330
151
100
AcDbEntity
  8
Defpoints
 62
     0
100
AcDbPoint
 10
503.9653381773451
 20
135.8499685307402
 30
0.0
  0
POINT
  5
15A
330
151
100
AcDbEntity
  8
Defpoints
 62
     0
100
AcDbPoint
 10
503.9653381773451
 20
120.8499685307402
 30
0.0
  0
POINT
  5
15B
330
151
100
AcDbEntity
  8
Defpoints
 62
     0
100
AcDbPoint
 10
533.5634531333203
 20
120.8499685307402
 30
0.0
  0
ENDBLK
  5
15C
330
151
100
AcDbEntity
  8
0
100
AcDbBlockEnd
  0
BLOCK
  5
168
330
167
100
AcDbEntity
  8
0
100
AcDbBlockBegin
  2
*D6
 70
     1
 10
0.0
 20
0.0
 30
0.0
  3
*D6
  1

  0
LINE
  5
169
330
167
100
AcDbEntity
  8
寸法線
 62
     3
100
AcDbLine
 10
427.2579816062866
 20
111.953819499136
 30
0.0
 11
394.9161144143029
 21
124.0604208675194
 31
0.0
  0
LINE
  5
16A
330
167
100
AcDbEntity
  8
寸法線
 62
     3
100
AcDbLine
 10
431.9406548197053
 20
110.2009442678841
 30
0.0
 11
429.1310508916539
 21
111.2526694066353
 31
0.0
  0
MTEXT
  5
16B
330
167
100
AcDbEntity
  8
寸法線
 62
     7
100
AcDbMText
 10
401.5896180116912
 20
125.0237447282455
 30
0.0
 40
3.5
 41
0.0
 46
0.0
 71
     5
 72
     1
  1
\A1;3-φ5
 11
0.9365346426836377
 21
-0.3505750462503447
 31
0.0
 73
     1
 44
1.0
  0
LINE
  5
16C
330
167
100
AcDbEntity
  8
寸法線
 62
     3
100
AcDbLine
 10
431.9406548197053
 20
110.2009442678841
 30
0.0
 11
427.2579816062866
 21
111.953819499136
 31
0.0
  0
INSERT
  5
16D
330
167
100
AcDbEntity
  8
寸法線
 62
     3
100
AcDbBlockReference
  2
_Open30
 10
431.9406548197053
 20
110.2009442678841
 30
0.0
 41
2.0
 42
2.0
 43
2.0
 50
339.477508461295
  0
INSERT
  5
16E
330
167
100
AcDbEntity
  8
寸法線
 62
     3
100
AcDbBlockReference
  2
_Open30
 10
427.2579816062866
 20
111.953819499136
 30
0.0
 41
2.0
 42
2.0
 43
2.0
 50
159.477508461295
  0
POINT
  5
16F
330
167
100
AcDbEntity
  8
Defpoints
 62
     0
100
AcDbPoint
 10
427.2579816062866
 20
111.953819499136
 30
0.0
  0
POINT
  5
170
330
167
100
AcDbEntity
  8
Defpoints
 62
     0
100
AcDbPoint
 10
431.9406548197053
 20
110.2009442678841
 30
0.0
  0
ENDBLK
  5
171
330
167
100
AcDbEntity
  8
0
100
AcDbBlockEnd
  0
BLOCK
  5
174
330
173
100
AcDbEntity
  8
0
100
AcDbBlockBegin
  2
*D7
 70
     1
 10
0.0
 20
0.0
 30
0.0
  3
*D7
  1

  0
LINE
  5
175
330
173
100
AcDbEntity
  8
寸法線
 62
     3
100
AcDbLine
 10
427.2579816062866
 20
111.953819499136
 30
0.0
 11
394.9161144143029
 21
124.0604208675194
 31
0.0
  0
LINE
  5
176
330
173
100
AcDbEntity
  8
寸法線
 62
     3
100
AcDbLine
 10
431.9406548197053
 20
110.2009442678841
 30
0.0
 11
429.1310508916539
 21
111.2526694066353
 31
0.0
  0
MTEXT
  5
177
330
173
100
AcDbEntity
  8
寸法線
 62
     7
100
AcDbMText
 10
401.5896180116912
 20
125.0237447282455
 30
0.0
 40
3.5
 41
0.0
 46
0.0
 71
     5
 72
     1
  1
\A1;3-φ5
 11
0.9365346426836377
 21
-0.3505750462503447
 31
0.0
 73
     1
 44
1.0
  0
LINE
  5
178
330
173
100
AcDbEntity
  8
寸法線
 62
     3
100
AcDbLine
 10
431.9406548197053
 20
110.2009442678841
 30
0.0
 11
427.2579816062866
 21
111.953819499136
 31
0.0
  0
INSERT
  5
179
330
173
100
AcDbEntity
  8
寸法線
 62
     3
100
AcDbBlockReference
  2
_Open30
 10
431.9406548197053
 20
110.2009442678841
 30
0.0
 41
2.0
 42
2.0
 43
2.0
 50
339.477508461295
  0
INSERT
  5
17A
330
173
100
AcDbEntity
  8
寸法線
 62
     3
100
AcDbBlockReference
  2
_Open30
 10
427.2579816062866
 20
111.953819499136
 30
0.0
 41
2.0
 42
2.0
 43
2.0
 50
159.477508461295
  0
POINT
  5
17B
330
173
100
AcDbEntity
  8
Defpoints
 62
     0
100
AcDbPoint
 10
427.2579816062866
 20
111.953819499136
 30
0.0
  0
POINT
  5
17C
330
173
100
AcDbEntity
  8
Defpoints
 62
     0
100
AcDbPoint
 10
431.9406548197053
 20
110.2009442678841
 30
0.0
  0
ENDBLK
  5
17D
330
173
100
AcDbEntity
  8
0
100
AcDbBlockEnd
  0
BLOCK
  5
186
330
185
100
AcDbEntity
  8
0
100
AcDbBlockBegin
  2
*D8
 70
     1
 10
0.0
 20
0.0
 30
0.0
  3
*D8
  1

  0
LINE
  5
187
330
185
100
AcDbEntity
  8
寸法線
 62
     3
100
AcDbLine
 10
504.3188915679374
 20
62.09649536372809
 30
0.0
 11
512.0675715282836
 21
54.34781540337961
 31
0.0
  0
LINE
  5
188
330
185
100
AcDbEntity
  8
寸法線
 62
     3
100
AcDbLine
 10
486.3039637380706
 20
44.08156753386675
 30
0.0
 11
494.0526436984167
 21
36.33288757351828
 31
0.0
  0
LINE
  5
189
330
185
100
AcDbEntity
  8
寸法線
 62
     3
100
AcDbLine
 10
510.299804575317
 20
53.28715523160006
 30
0.0
 11
495.1133038701968
 21
38.10065452648448
 31
0.0
  0
INSERT
  5
18A
330
185
100
AcDbEntity
  8
寸法線
 62
     3
100
AcDbBlockReference
  2
_Open30
 10
511.7140181376903
 20
54.70136879397294
 30
0.0
 41
2.0
 42
2.0
 43
2.0
 50
44.99999999999132
  0
INSERT
  5
18B
330
185
100
AcDbEntity
  8
寸法線
 62
     3
100
AcDbBlockReference
  2
_Open30
 10
493.6990903078235
 20
36.6864409641116
 30
0.0
 41
2.0
 42
2.0
 43
2.0
 50
224.9999999999913
  0
MTEXT
  5
18C
330
185
100
AcDbEntity
  8
寸法線
 62
     7
100
AcDbMText
 10
500.7360244002856
 20
47.66443470151418
 30
0.0
 40
3.5
 41
0.0
 46
0.0
 71
     5
 72
     1
  1
\A1;25.5
 11
0.7071067811866546
 21
0.7071067811864404
 31
0.0
 73
     1
 44
1.0
  0
POINT
  5
18D
330
185
100
AcDbEntity
  8
Defpoints
 62
     0
100
AcDbPoint
 10
503.9653381773442
 20
62.45004875432141
 30
0.0
  0
POINT
  5
18E
330
185
100
AcDbEntity
  8
Defpoints
 62
     0
100
AcDbPoint
 10
485.9504103474774
 20
44.43512092446008
 30
0.0
  0
POINT
  5
18F
330
185
100
AcDbEntity
  8
Defpoints
 62
     0
100
AcDbPoint
 10
493.6990903078235
 20
36.6864409641116
 30
0.0
  0
ENDBLK
  5
190
330
185
100
AcDbEntity
  8
0
100
AcDbBlockEnd
  0
BLOCK
  5
19A
330
199
100
AcDbEntity
  8
0
100
AcDbBlockBegin
  2
*D9
 70
     1
 10
0.0
 20
0.0
 30
0.0
  3
*D9
  1

  0
LINE
  5
19B
330
199
100
AcDbEntity
  8
寸法線
 62
     3
100
AcDbLine
 10
504.3188915679374
 20
62.09649536372809
 30
0.0
 11
512.0675715282836
 21
54.34781540337961
 31
0.0
  0
LINE
  5
19C
330
199
100
AcDbEntity
  8
寸法線
 62
     3
100
AcDbLine
 10
486.3039637380706
 20
44.08156753386675
 30
0.0
 11
494.0526436984167
 21
36.33288757351828
 31
0.0
  0
LINE
  5
19D
330
199
100
AcDbEntity
  8
寸法線
 62
     3
100
AcDbLine
 10
510.299804575317
 20
53.28715523160006
 30
0.0
 11
495.1133038701968
 21
38.10065452648448
 31
0.0
  0
INSERT
  5
19E
330
199
100
AcDbEntity
  8
寸法線
 62
     3
100
AcDbBlockReference
  2
_Open30
 10
511.7140181376903
 20
54.70136879397294
 30
0.0
 41
2.0
 42
2.0
 43
2.0
 50
44.99999999999132
  0
INSERT
  5
19F
330
199
100
AcDbEntity
  8
寸法線
 62
     3
100
AcDbBlockReference
  2
_Open30
 10
493.6990903078235
 20
36.6864409641116
 30
0.0
 41
2.0
 42
2.0
 43
2.0
 50
224.9999999999913
  0
MTEXT
  5
1A0
330
199
100
AcDbEntity
  8
寸法線
 62
     7
100
AcDbMText
 10
500.7360244002856
 20
47.66443470151418
 30
0.0
 40
3.5
 41
0.0
 46
0.0
 71
     5
 72
     1
  1
\A1;25.5
 11
0.7071067811866546
 21
0.7071067811864404
 31
0.0
 73
     1
 44
1.0
  0
POINT
  5
1A1
330
199
100
AcDbEntity
  8
Defpoints
 62
     0
100
AcDbPoint
 10
503.9653381773442
 20
62.45004875432141
 30
0.0
  0
POINT
  5
1A2
330
199
100
AcDbEntity
  8
Defpoints
 62
     0
100
AcDbPoint
 10
485.9504103474774
 20
44.43512092446008
 30
0.0
  0
POINT
  5
1A3
330
199
100
AcDbEntity
  8
Defpoints
 62
     0
100
AcDbPoint
 10
493.6990903078235
 20
36.6864409641116
 30
0.0
  0
ENDBLK
  5
1A4
330
199
100
AcDbEntity
  8
0
100
AcDbBlockEnd
  0
BLOCK
  5
1B1
330
1B0
100
AcDbEntity
  8
0
100
AcDbBlockBegin
  2
*D10
 70
     1
 10
0.0
 20
0.0
 30
0.0
  3
*D10
  1

  0
LINE
  5
1B2
330
1B0
100
AcDbEntity
  8
寸法線
 62
     3
100
AcDbLine
 10
485.9504103474774
 20
43.93512092446008
 30
0.0
 11
485.9504103474774
 21
33.9351209244619
 31
0.0
  0
LINE
  5
1B3
330
1B0
100
AcDbEntity
  8
寸法線
 62
     3
100
AcDbLine
 10
463.9656320756194
 20
43.93512092446554
 30
0.0
 11
463.9656320756194
 21
33.9351209244619
 31
0.0
  0
LINE
  5
1B4
330
1B0
100
AcDbEntity
  8
寸法線
 62
     3
100
AcDbLine
 10
483.9504103474774
 20
34.4351209244619
 30
0.0
 11
465.9656320756194
 21
34.4351209244619
 31
0.0
  0
INSERT
  5
1B5
330
1B0
100
AcDbEntity
  8
寸法線
 62
     3
100
AcDbBlockReference
  2
_Open30
 10
485.9504103474774
 20
34.4351209244619
 30
0.0
 41
2.0
 42
2.0
 43
2.0
  0
INSERT
  5
1B6
330
1B0
100
AcDbEntity
  8
寸法線
 62
     3
100
AcDbBlockReference
  2
_Open30
 10
463.9656320756194
 20
34.4351209244619
 30
0.0
 41
2.0
 42
2.0
 43
2.0
 50
180.0
  0
MTEXT
  5
1B7
330
1B0
100
AcDbEntity
  8
寸法線
 62
     7
100
AcDbMText
 10
474.9580212115484
 20
37.1921209244619
 30
0.0
 40
3.5
 41
0.0
 46
0.0
 71
     5
 72
     1
  1
\A1;22
 73
     1
 44
1.0
  0
POINT
  5
1B8
330
1B0
100
AcDbEntity
  8
Defpoints
 62
     0
100
AcDbPoint
 10
485.9504103474774
 20
44.43512092446008
 30
0.0
  0
POINT
  5
1B9
330
1B0
100
AcDbEntity
  8
Defpoints
 62
     0
100
AcDbPoint
 10
463.9656320756194
 20
44.43512092446554
 30
0.0
  0
POINT
  5
1BA
330
1B0
100
AcDbEntity
  8
Defpoints
 62
     0
100
AcDbPoint
 10
463.9656320756194
 20
34.4351209244619
 30
0.0
  0
ENDBLK
  5
1BB
330
1B0
100
AcDbEntity
  8
0
100
AcDbBlockEnd
  0
BLOCK
  5
1D2
330
1D1
100
AcDbEntity
  8
0
100
AcDbBlockBegin
  2
*D11
 70
     1
 10
0.0
 20
0.0
 30
0.0
  3
*D11
  1

  0
LINE
  5
1D3
330
1D1
100
AcDbEntity
  8
寸法線
 62
     3
100
AcDbLine
 10
463.9656320756208
 20
136.3499685307402
 30
0.0
 11
463.9656320756208
 21
151.3499685307402
 31
0.0
  0
LINE
  5
1D4
330
1D1
100
AcDbEntity
  8
寸法線
 62
     3
100
AcDbLine
 10
470.4970029255192
 20
141.3499685307402
 30
0.0
 11
470.4970029255192
 21
151.3499685307402
 31
0.0
  0
LINE
  5
1D5
330
1D1
100
AcDbEntity
  8
寸法線
 62
     3
100
AcDbLine
 10
470.4970029255192
 20
150.8499685307402
 30
0.0
 11
480.9090029255192
 21
150.8499685307402
 31
0.0
  0
LINE
  5
1D6
330
1D1
100
AcDbEntity
  8
寸法線
 62
     3
100
AcDbLine
 10
465.9656320756208
 20
150.8499685307402
 30
0.0
 11
468.4970029255192
 21
150.8499685307402
 31
0.0
  0
INSERT
  5
1D7
330
1D1
100
AcDbEntity
  8
寸法線
 62
     3
100
AcDbBlockReference
  2
_Open30
 10
463.9656320756208
 20
150.8499685307402
 30
0.0
 41
2.0
 42
2.0
 43
2.0
 50
180.0
  0
INSERT
  5
1D8
330
1D1
100
AcDbEntity
  8
寸法線
 62
     3
100
AcDbBlockReference
  2
_Open30
 10
470.4970029255192
 20
150.8499685307402
 30
0.0
 41
2.0
 42
2.0
 43
2.0
  0
MTEXT
  5
1D9
330
1D1
100
AcDbEntity
  8
寸法線
 62
     7
100
AcDbMText
 10
476.7030029255192
 20
153.6367185307402
 30
0.0
 40
3.5
 41
0.0
 46
0.0
 71
     5
 72
     1
  1
\A1;6.5
 73
     1
 44
1.0
  0
POINT
  5
1DA
330
1D1
100
AcDbEntity
  8
Defpoints
 62
     0
100
AcDbPoint
 10
463.9656320756208
 20
135.8499685307402
 30
0.0
  0
POINT
  5
1DB
330
1D1
100
AcDbEntity
  8
Defpoints
 62
     0
100
AcDbPoint
 10
470.4970029255192
 20
140.8499685307402
 30
0.0
  0
POINT
  5
1DC
330
1D1
100
AcDbEntity
  8
Defpoints
 62
     0
100
AcDbPoint
 10
470.4970029255192
 20
150.8499685307402
 30
0.0
  0
ENDBLK
  5
1DD
330
1D1
100
AcDbEntity
  8
0
100
AcDbBlockEnd
  0
BLOCK
  5
1E2
330
1E1
100
AcDbEntity
  8
0
100
AcDbBlockBegin
  2
*D12
 70
     1
 10
0.0
 20
0.0
 30
0.0
  3
*D12
  1

  0
LINE
  5
1E3
330
1E1
100
AcDbEntity
  8
寸法線
 62
     3
100
AcDbLine
 10
436.8118073810897
 20
129.6035795505845
 30
0.0
 11
427.9729726162569
 21
138.4424143154174
 31
0.0
  0
LINE
  5
1E4
330
1E1
100
AcDbEntity
  8
寸法線
 62
     3
100
AcDbLine
 10
429.8821609254701
 20
129.745000906832
 30
0.0
 11
424.5788600665708
 21
135.0483017657313
 31
0.0
  0
LINE
  5
1E5
330
1E1
100
AcDbEntity
  8
寸法線
 62
     3
100
AcDbLine
 10
428.3265260068501
 20
138.0888609248241
 30
0.0
 11
440.2388909796313
 21
150.0012258976052
 31
0.0
  0
LINE
  5
1E6
330
1E1
100
AcDbEntity
  8
寸法線
 62
     3
100
AcDbLine
 10
428.3265260068501
 20
138.0888609248241
 30
0.0
 11
424.9324134571641
 21
134.694748375138
 31
0.0
  0
LINE
  5
1E7
330
1E1
100
AcDbEntity
  8
寸法線
 62
     3
100
AcDbLine
 10
429.7407395692233
 20
139.5030744871972
 30
0.0
 11
431.1549531315964
 21
140.9172880495703
 31
0.0
  0
LINE
  5
1E8
330
1E1
100
AcDbEntity
  8
寸法線
 62
     3
100
AcDbLine
 10
423.518199894791
 20
133.2805348127649
 30
0.0
 11
422.1039863324179
 21
131.8663212503918
 31
0.0
  0
INSERT
  5
1E9
330
1E1
100
AcDbEntity
  8
寸法線
 62
     3
100
AcDbBlockReference
  2
_Open30
 10
428.3265260068501
 20
138.0888609248241
 30
0.0
 41
2.0
 42
2.0
 43
2.0
 50
225.0
  0
INSERT
  5
1EA
330
1E1
100
AcDbEntity
  8
寸法線
 62
     3
100
AcDbBlockReference
  2
_Open30
 10
424.9324134571641
 20
134.694748375138
 30
0.0
 41
2.0
 42
2.0
 43
2.0
 50
45.0
  0
MTEXT
  5
1EB
330
1E1
100
AcDbEntity
  8
寸法線
 62
     7
100
AcDbMText
 10
435.2583843663438
 20
148.961778929261
 30
0.0
 40
3.5
 41
0.0
 46
0.0
 71
     5
 72
     1
  1
\A1;4.8
 11
0.7071067811865475
 21
0.7071067811865475
 31
0.0
 73
     1
 44
1.0
  0
POINT
  5
1EC
330
1E1
100
AcDbEntity
  8
Defpoints
 62
     0
100
AcDbPoint
 10
437.165360771683
 20
129.2500261599912
 30
0.0
  0
POINT
  5
1ED
330
1E1
100
AcDbEntity
  8
Defpoints
 62
     0
100
AcDbPoint
 10
430.2357143160634
 20
129.3914475162387
 30
0.0
  0
POINT
  5
1EE
330
1E1
100
AcDbEntity
  8
Defpoints
 62
     0
100
AcDbPoint
 10
424.9324134571641
 20
134.694748375138
 30
0.0
  0
ENDBLK
  5
1EF
330
1E1
100
AcDbEntity
  8
0
100
AcDbBlockEnd
  0
BLOCK
  5
1F4
330
1F3
100
AcDbEntity
  8
0
100
AcDbBlockBegin
  2
*D13
 70
     1
 10
0.0
 20
0.0
 30
0.0
  3
*D13
  1

  0
LINE
  5
1F5
330
1F3
100
AcDbEntity
  8
寸法線
 62
     3
100
AcDbLine
 10
429.8821609254701
 20
129.745000906832
 30
0.0
 11
424.5788600665711
 21
135.0483017657311
 31
0.0
  0
LINE
  5
1F6
330
1F3
100
AcDbEntity
  8
寸法線
 62
     3
100
AcDbLine
 10
420.4069300575739
 20
120.2697700389376
 30
0.0
 11
415.1036291986757
 21
125.5730708978357
 31
0.0
  0
LINE
  5
1F7
330
1F3
100
AcDbEntity
  8
寸法線
 62
     3
100
AcDbLine
 10
423.5181998947912
 20
133.2805348127647
 30
0.0
 11
416.8713961516421
 21
126.6337310696156
 31
0.0
  0
INSERT
  5
1F8
330
1F3
100
AcDbEntity
  8
寸法線
 62
     3
100
AcDbBlockReference
  2
_Open30
 10
424.9324134571643
 20
134.6947483751378
 30
0.0
 41
2.0
 42
2.0
 43
2.0
 50
45.0
  0
INSERT
  5
1F9
330
1F3
100
AcDbEntity
  8
寸法線
 62
     3
100
AcDbBlockReference
  2
_Open30
 10
415.457182589269
 20
125.2195175072425
 30
0.0
 41
2.0
 42
2.0
 43
2.0
 50
225.0
  0
MTEXT
  5
1FA
330
1F3
100
AcDbEntity
  8
寸法線
 62
     7
100
AcDbMText
 10
418.224268200745
 20
131.9276627636618
 30
0.0
 40
3.5
 41
0.0
 46
0.0
 71
     5
 72
     1
  1
\A1;13.4
 11
0.7071067811865475
 21
0.7071067811865475
 31
0.0
 73
     1
 44
1.0
  0
POINT
  5
1FB
330
1F3
100
AcDbEntity
  8
Defpoints
 62
     0
100
AcDbPoint
 10
430.2357143160634
 20
129.3914475162387
 30
0.0
  0
POINT
  5
1FC
330
1F3
100
AcDbEntity
  8
Defpoints
 62
     0
100
AcDbPoint
 10
420.7604834481672
 20
119.9162166483443
 30
0.0
  0
POINT
  5
1FD
330
1F3
100
AcDbEntity
  8
Defpoints
 62
     0
100
AcDbPoint
 10
415.457182589269
 20
125.2195175072425
 30
0.0
  0
ENDBLK
  5
1FE
330
1F3
100
AcDbEntity
  8
0
100
AcDbBlockEnd
  0
BLOCK
  5
205
330
204
100
AcDbEntity
  8
0
100
AcDbBlockBegin
  2
*D14
 70
     1
 10
0.0
 20
0.0
 30
0.0
  3
*D14
  1

  0
ARC
  5
206
330
204
100
AcDbEntity
  8
寸法線
 62
     3
100
AcDbCircle
 10
485.2876686476802
 20
46.03512092445862
 30
0.0
 40
12.08258013527575
100
AcDbArc
 50
54.49489140673818
 51
170.5051085932285
  0
INSERT
  5
207
330
204
100
AcDbEntity
  8
寸法線
 62
     3
100
AcDbBlockReference
  2
_Open30
 10
493.8313429955649
 20
54.57879527234065
 30
0.0
 41
2.0
 42
2.0
 43
2.0
 50
319.7474457033646
  0
INSERT
  5
208
330
204
100
AcDbEntity
  8
寸法線
 62
     3
100
AcDbBlockReference
  2
_Open30
 10
473.2050885124045
 20
46.03512092446378
 30
0.0
 41
2.0
 42
2.0
 43
2.0
 50
265.252554296602
  0
MTEXT
  5
209
330
204
100
AcDbEntity
  8
寸法線
 62
     7
100
AcDbMText
 10
479.5887163064609
 20
59.79360895795946
 30
0.0
 40
3.5
 41
0.0
 46
0.0
 71
     5
 72
     1
  1
\A1;135.0%%d
 11
0.923879532511398
 21
0.3826834323648212
 31
0.0
 73
     1
 44
1.0
  0
POINT
  5
20A
330
204
100
AcDbEntity
  8
Defpoints
 62
     0
100
AcDbPoint
 10
485.2876686476832
 20
58.11770105973437
 30
0.0
  0
POINT
  5
20B
330
204
100
AcDbEntity
  8
Defpoints
 62
     0
100
AcDbPoint
 10
485.2876686476802
 20
46.03512092445862
 30
0.0
  0
POINT
  5
20C
330
204
100
AcDbEntity
  8
Defpoints
 62
     0
100
AcDbPoint
 10
502.8339673274468
 20
63.58141960421972
 30
0.0
  0
POINT
  5
20D
330
204
100
AcDbEntity
  8
Defpoints
 62
     0
100
AcDbPoint
 10
485.2876686476802
 20
46.03512092445862
 30
0.0
  0
POINT
  5
20E
330
204
100
AcDbEntity
  8
Defpoints
 62
     0
100
AcDbPoint
 10
463.9656320756212
 20
46.03512092446772
 30
0.0
  0
ENDBLK
  5
20F
330
204
100
AcDbEntity
  8
0
100
AcDbBlockEnd
  0
BLOCK
  5
21E
330
21D
100
AcDbEntity
  8
0
100
AcDbBlockBegin
  2
*D15
 70
     1
 10
0.0
 20
0.0
 30
0.0
  3
*D15
  1

  0
LINE
  5
21F
330
21D
100
AcDbEntity
  8
寸法線
 62
     3
100
AcDbLine
 10
462.5015304604833
 20
135.8499685307403
 30
0.0
 11
444.9666326001899
 21
145.9737465305948
 31
0.0
  0
MTEXT
  5
220
330
21D
100
AcDbEntity
  8
寸法線
 62
     7
100
AcDbMText
 10
451.6562498952488
 20
145.2950035688281
 30
0.0
 40
3.5
 41
0.0
 46
0.0
 71
     5
 72
     1
  1
\A1;4-R2
 11
0.8660254037844055
 21
-0.5000000000000575
 31
0.0
 73
     1
 44
1.0
  0
LINE
  5
221
330
21D
100
AcDbEntity
  8
寸法線
 62
     3
100
AcDbLine
 10
465.9656320756208
 20
133.8499685307402
 30
0.0
 11
464.2335812680521
 21
134.8499685307402
 31
0.0
  0
INSERT
  5
222
330
21D
100
AcDbEntity
  8
寸法線
 62
     3
100
AcDbBlockReference
  2
_Open30
 10
464.2335812680521
 20
134.8499685307402
 30
0.0
 41
2.0
 42
2.0
 43
2.0
 50
329.9999999999962
  0
POINT
  5
223
330
21D
100
AcDbEntity
  8
Defpoints
 62
     0
100
AcDbPoint
 10
464.2335812680521
 20
134.8499685307402
 30
0.0
  0
POINT
  5
224
330
21D
100
AcDbEntity
  8
Defpoints
 62
     0
100
AcDbPoint
 10
465.9656320756208
 20
133.8499685307402
 30
0.0
  0
ENDBLK
  5
225
330
21D
100
AcDbEntity
  8
0
100
AcDbBlockEnd
  0
BLOCK
  5
3AC
330
3AB
100
AcDbEntity
  8
0
100
AcDbBlockBegin
  2
*D16
 70
     1
 10
0.0
 20
0.0
 30
0.0
  3
*D16
  1

  0
LINE
  5
3AE
330
3AB
100
AcDbEntity
  8
寸法線
 62
     3
100
AcDbLine
 10
307.5605556374352
 20
124.2415943705386
 30
0.0
 11
311.5462403734599
 21
109.451728805395
 31
0.0
  0
ARC
  5
3AF
330
3AB
100
AcDbEntity
  8
寸法線
 62
     3
100
AcDbCircle
 10
300.1226315432947
 20
122.2371663790095
 30
0.0
 40
7.703275043994045
100
AcDbArc
 50
15.08220573169244
 51
29.99999999999148
  0
ARC
  5
3B0
330
3AB
100
AcDbEntity
  8
寸法線
 62
     3
100
AcDbCircle
 10
300.1226315432947
 20
122.2371663790095
 30
0.0
 40
7.703275043994045
100
AcDbArc
 50
44.91779426829052
 51
165.0822057316768
  0
INSERT
  5
3B1
330
3AB
100
AcDbEntity
  8
寸法線
 62
     3
100
AcDbBlockReference
  2
_Open30
 10
306.7938634237328
 20
126.0888039010055
 30
0.0
 41
2.0
 42
2.0
 43
2.0
 50
307.458897134141
  0
INSERT
  5
3B2
330
3AB
100
AcDbEntity
  8
寸法線
 62
     3
100
AcDbBlockReference
  2
_Open30
 10
292.4193564993006
 20
122.2371663790128
 30
0.0
 41
2.0
 42
2.0
 43
2.0
 50
262.5411028658263
  0
MTEXT
  5
3B3
330
3AB
100
AcDbEntity
  8
寸法線
 62
     7
100
AcDbMText
 10
312.2661205323136
 20
117.5777065539117
 30
0.0
 40
3.5
 41
0.0
 46
0.0
 71
     5
 72
     1
  1
\A1;150.0%%d
 11
0.2602046506299729
 21
-0.9655534888293521
 31
0.0
 73
     1
 44
1.0
  0
POINT
  5
3B4
330
3AB
100
AcDbEntity
  8
Defpoints
 62
     0
100
AcDbPoint
 10
295.1710617910098
 20
128.1382174202799
 30
0.0
  0
POINT
  5
3B5
330
3AB
100
AcDbEntity
  8
Defpoints
 62
     0
100
AcDbPoint
 10
321.8150407193053
 20
134.7612846561465
 30
0.0
  0
POINT
  5
3B6
330
3AB
100
AcDbEntity
  8
Defpoints
 62
     0
100
AcDbPoint
 10
300.1226315432947
 20
122.2371663790095
 30
0.0
  0
POINT
  5
3B7
330
3AB
100
AcDbEntity
  8
Defpoints
 62
     0
100
AcDbPoint
 10
278.5665719793311
 20
122.2371663790186
 30
0.0
  0
POINT
  5
3B8
330
3AB
100
AcDbEntity
  8
Defpoints
 62
     0
100
AcDbPoint
 10
300.1226315432947
 20
122.2371663790095
 30
0.0
  0
ENDBLK
  5
3AD
330
3AB
100
AcDbEntity
  8
0
100
AcDbBlockEnd
  0
BLOCK
  5
3BA
330
3B9
100
AcDbEntity
  8
0
100
AcDbBlockBegin
  2
*D17
 70
     1
 10
0.0
 20
0.0
 30
0.0
  3
*D17
  1

  0
LINE
  5
3BC
330
3B9
100
AcDbEntity
  8
寸法線
 62
     3
100
AcDbLine
 10
547.6547699955269
 20
212.0520139852856
 30
0.0
 11
577.2528849515021
 21
212.0520139852856
 31
0.0
  0
LINE
  5
3BD
330
3B9
100
AcDbEntity
  8
寸法線
 62
     3
100
AcDbLine
 10
547.6547699955269
 20
197.0520139852856
 30
0.0
 11
577.2528849515021
 21
197.0520139852856
 31
0.0
  0
LINE
  5
3BE
330
3B9
100
AcDbEntity
  8
寸法線
 62
     3
100
AcDbLine
 10
576.7528849515021
 20
210.0520139852856
 30
0.0
 11
576.7528849515021
 21
199.0520139852856
 31
0.0
  0
INSERT
  5
3BF
330
3B9
100
AcDbEntity
  8
寸法線
 62
     3
100
AcDbBlockReference
  2
_Open30
 10
576.7528849515021
 20
212.0520139852856
 30
0.0
 41
2.0
 42
2.0
 43
2.0
 50
90.0
  0
INSERT
  5
3C0
330
3B9
100
AcDbEntity
  8
寸法線
 62
     3
100
AcDbBlockReference
  2
_Open30
 10
576.7528849515021
 20
197.0520139852856
 30
0.0
 41
2.0
 42
2.0
 43
2.0
 50
270.0
  0
MTEXT
  5
3C1
330
3B9
100
AcDbEntity
  8
寸法線
 62
     7
100
AcDbMText
 10
573.9661349515021
 20
204.5520139852856
 30
0.0
 40
3.5
 41
0.0
 46
0.0
 71
     5
 72
     1
  1
\A1;15
 11
0.0
 21
1.0
 31
0.0
 73
     1
 44
1.0
  0
POINT
  5
3C2
330
3B9
100
AcDbEntity
  8
Defpoints
 62
     0
100
AcDbPoint
 10
547.1547699955269
 20
212.0520139852856
 30
0.0
  0
POINT
  5
3C3
330
3B9
100
AcDbEntity
  8
Defpoints
 62
     0
100
AcDbPoint
 10
547.1547699955269
 20
197.0520139852856
 30
0.0
  0
POINT
  5
3C4
330
3B9
100
AcDbEntity
  8
Defpoints
 62
     0
100
AcDbPoint
 10
576.7528849515021
 20
197.0520139852856
 30
0.0
  0
ENDBLK
  5
3BB
330
3B9
100
AcDbEntity
  8
0
100
AcDbBlockEnd
  0
BLOCK
  5
3C6
330
3C5
100
AcDbEntity
  8
0
100
AcDbBlockBegin
  2
*D18
 70
     1
 10
0.0
 20
0.0
 30
0.0
  3
*D18
  1

  0
LINE
  5
3C8
330
3C5
100
AcDbEntity
  8
寸法線
 62
     3
100
AcDbLine
 10
547.6547699955269
 20
212.0520139852856
 30
0.0
 11
577.2528849515021
 21
212.0520139852856
 31
0.0
  0
LINE
  5
3C9
330
3C5
100
AcDbEntity
  8
寸法線
 62
     3
100
AcDbLine
 10
547.6547699955269
 20
197.0520139852856
 30
0.0
 11
577.2528849515021
 21
197.0520139852856
 31
0.0
  0
LINE
  5
3CA
330
3C5
100
AcDbEntity
  8
寸法線
 62
     3
100
AcDbLine
 10
576.7528849515021
 20
210.0520139852856
 30
0.0
 11
576.7528849515021
 21
199.0520139852856
 31
0.0
  0
INSERT
  5
3CB
330
3C5
100
AcDbEntity
  8
寸法線
 62
     3
100
AcDbBlockReference
  2
_Open30
 10
576.7528849515021
 20
212.0520139852856
 30
0.0
 41
2.0
 42
2.0
 43
2.0
 50
90.0
  0
INSERT
  5
3CC
330
3C5
100
AcDbEntity
  8
寸法線
 62
     3
100
AcDbBlockReference
  2
_Open30
 10
576.7528849515021
 20
197.0520139852856
 30
0.0
 41
2.0
 42
2.0
 43
2.0
 50
270.0
  0
MTEXT
  5
3CD
330
3C5
100
AcDbEntity
  8
寸法線
 62
     7
100
AcDbMText
 10
573.9661349515021
 20
204.5520139852856
 30
0.0
 40
3.5
 41
0.0
 46
0.0
 71
     5
 72
     1
  1
\A1;15
 11
0.0
 21
1.0
 31
0.0
 73
     1
 44
1.0
  0
POINT
  5
3CE
330
3C5
100
AcDbEntity
  8
Defpoints
 62
     0
100
AcDbPoint
 10
547.1547699955269
 20
212.0520139852856
 30
0.0
  0
POINT
  5
3CF
330
3C5
100
AcDbEntity
  8
Defpoints
 62
     0
100
AcDbPoint
 10
547.1547699955269
 20
197.0520139852856
 30
0.0
  0
POINT
  5
3D0
330
3C5
100
AcDbEntity
  8
Defpoints
 62
     0
100
AcDbPoint
 10
576.7528849515021
 20
197.0520139852856
 30
0.0
  0
ENDBLK
  5
3C7
330
3C5
100
AcDbEntity
  8
0
100
AcDbBlockEnd
  0
BLOCK
  5
3D2
330
3D1
100
AcDbEntity
  8
0
100
AcDbBlockBegin
  2
*D19
 70
     1
 10
0.0
 20
0.0
 30
0.0
  3
*D19
  1

  0
LINE
  5
3D4
330
3D1
100
AcDbEntity
  8
寸法線
 62
     3
100
AcDbLine
 10
470.4474134244684
 20
188.1558649536814
 30
0.0
 11
438.1055462324846
 21
200.2624663220649
 31
0.0
  0
LINE
  5
3D5
330
3D1
100
AcDbEntity
  8
寸法線
 62
     3
100
AcDbLine
 10
475.1300866378871
 20
186.4029897224295
 30
0.0
 11
472.3204827098357
 21
187.4547148611807
 31
0.0
  0
MTEXT
  5
3D6
330
3D1
100
AcDbEntity
  8
寸法線
 62
     7
100
AcDbMText
 10
444.779049829873
 20
201.2257901827909
 30
0.0
 40
3.5
 41
0.0
 46
0.0
 71
     5
 72
     1
  1
\A1;3-φ5
 11
0.9365346426836377
 21
-0.3505750462503447
 31
0.0
 73
     1
 44
1.0
  0
LINE
  5
3D7
330
3D1
100
AcDbEntity
  8
寸法線
 62
     3
100
AcDbLine
 10
475.1300866378871
 20
186.4029897224295
 30
0.0
 11
470.4474134244684
 21
188.1558649536814
 31
0.0
  0
INSERT
  5
3D8
330
3D1
100
AcDbEntity
  8
寸法線
 62
     3
100
AcDbBlockReference
  2
_Open30
 10
475.1300866378871
 20
186.4029897224295
 30
0.0
 41
2.0
 42
2.0
 43
2.0
 50
339.477508461295
  0
INSERT
  5
3D9
330
3D1
100
AcDbEntity
  8
寸法線
 62
     3
100
AcDbBlockReference
  2
_Open30
 10
470.4474134244684
 20
188.1558649536814
 30
0.0
 41
2.0
 42
2.0
 43
2.0
 50
159.477508461295
  0
POINT
  5
3DA
330
3D1
100
AcDbEntity
  8
Defpoints
 62
     0
100
AcDbPoint
 10
470.4474134244684
 20
188.1558649536814
 30
0.0
  0
POINT
  5
3DB
330
3D1
100
AcDbEntity
  8
Defpoints
 62
     0
100
AcDbPoint
 10
475.1300866378871
 20
186.4029897224295
 30
0.0
  0
ENDBLK
  5
3D3
330
3D1
100
AcDbEntity
  8
0
100
AcDbBlockEnd
  0
BLOCK
  5
3DD
330
3DC
100
AcDbEntity
  8
0
100
AcDbBlockBegin
  2
*D20
 70
     1
 10
0.0
 20
0.0
 30
0.0
  3
*D20
  1

  0
LINE
  5
3DF
330
3DC
100
AcDbEntity
  8
寸法線
 62
     3
100
AcDbLine
 10
470.4474134244684
 20
188.1558649536814
 30
0.0
 11
438.1055462324846
 21
200.2624663220649
 31
0.0
  0
LINE
  5
3E0
330
3DC
100
AcDbEntity
  8
寸法線
 62
     3
100
AcDbLine
 10
475.1300866378871
 20
186.4029897224295
 30
0.0
 11
472.3204827098357
 21
187.4547148611807
 31
0.0
  0
MTEXT
  5
3E1
330
3DC
100
AcDbEntity
  8
寸法線
 62
     7
100
AcDbMText
 10
444.779049829873
 20
201.2257901827909
 30
0.0
 40
3.5
 41
0.0
 46
0.0
 71
     5
 72
     1
  1
\A1;3-φ5
 11
0.9365346426836377
 21
-0.3505750462503447
 31
0.0
 73
     1
 44
1.0
  0
LINE
  5
3E2
330
3DC
100
AcDbEntity
  8
寸法線
 62
     3
100
AcDbLine
 10
475.1300866378871
 20
186.4029897224295
 30
0.0
 11
470.4474134244684
 21
188.1558649536814
 31
0.0
  0
INSERT
  5
3E3
330
3DC
100
AcDbEntity
  8
寸法線
 62
     3
100
AcDbBlockReference
  2
_Open30
 10
475.1300866378871
 20
186.4029897224295
 30
0.0
 41
2.0
 42
2.0
 43
2.0
 50
339.477508461295
  0
INSERT
  5
3E4
330
3DC
100
AcDbEntity
  8
寸法線
 62
     3
100
AcDbBlockReference
  2
_Open30
 10
470.4474134244684
 20
188.1558649536814
 30
0.0
 41
2.0
 42
2.0
 43
2.0
 50
159.477508461295
  0
POINT
  5
3E5
330
3DC
100
AcDbEntity
  8
Defpoints
 62
     0
100
AcDbPoint
 10
470.4474134244684
 20
188.1558649536814
 30
0.0
  0
POINT
  5
3E6
330
3DC
100
AcDbEntity
  8
Defpoints
 62
     0
100
AcDbPoint
 10
475.1300866378871
 20
186.4029897224295
 30
0.0
  0
ENDBLK
  5
3DE
330
3DC
100
AcDbEntity
  8
0
100
AcDbBlockEnd
  0
BLOCK
  5
3E8
330
3E7
100
AcDbEntity
  8
0
100
AcDbBlockBegin
  2
*D21
 70
     1
 10
0.0
 20
0.0
 30
0.0
  3
*D21
  1

  0
LINE
  5
3EA
330
3E7
100
AcDbEntity
  8
寸法線
 62
     3
100
AcDbLine
 10
547.5083233861192
 20
138.2985408182735
 30
0.0
 11
555.2570033464652
 21
130.5498608579251
 31
0.0
  0
LINE
  5
3EB
330
3E7
100
AcDbEntity
  8
寸法線
 62
     3
100
AcDbLine
 10
529.4933955562524
 20
120.2836129884122
 30
0.0
 11
537.2420755165984
 21
112.5349330280638
 31
0.0
  0
LINE
  5
3EC
330
3E7
100
AcDbEntity
  8
寸法線
 62
     3
100
AcDbLine
 10
553.4892363934987
 20
129.4892006861456
 30
0.0
 11
538.3027356883786
 21
114.30269998103
 31
0.0
  0
INSERT
  5
3ED
330
3E7
100
AcDbEntity
  8
寸法線
 62
     3
100
AcDbBlockReference
  2
_Open30
 10
554.903449955872
 20
130.9034142485184
 30
0.0
 41
2.0
 42
2.0
 43
2.0
 50
44.99999999999132
  0
INSERT
  5
3EE
330
3E7
100
AcDbEntity
  8
寸法線
 62
     3
100
AcDbBlockReference
  2
_Open30
 10
536.8885221260052
 20
112.8884864186571
 30
0.0
 41
2.0
 42
2.0
 43
2.0
 50
224.9999999999913
  0
MTEXT
  5
3EF
330
3E7
100
AcDbEntity
  8
寸法線
 62
     7
100
AcDbMText
 10
543.9254562184673
 20
123.8664801560597
 30
0.0
 40
3.5
 41
0.0
 46
0.0
 71
     5
 72
     1
  1
\A1;25.5
 11
0.7071067811866546
 21
0.7071067811864404
 31
0.0
 73
     1
 44
1.0
  0
POINT
  5
3F0
330
3E7
100
AcDbEntity
  8
Defpoints
 62
     0
100
AcDbPoint
 10
547.154769995526
 20
138.6520942088669
 30
0.0
  0
POINT
  5
3F1
330
3E7
100
AcDbEntity
  8
Defpoints
 62
     0
100
AcDbPoint
 10
529.1398421656592
 20
120.6371663790055
 30
0.0
  0
POINT
  5
3F2
330
3E7
100
AcDbEntity
  8
Defpoints
 62
     0
100
AcDbPoint
 10
536.8885221260052
 20
112.8884864186571
 30
0.0
  0
ENDBLK
  5
3E9
330
3E7
100
AcDbEntity
  8
0
100
AcDbBlockEnd
  0
BLOCK
  5
3F4
330
3F3
100
AcDbEntity
  8
0
100
AcDbBlockBegin
  2
*D22
 70
     1
 10
0.0
 20
0.0
 30
0.0
  3
*D22
  1

  0
LINE
  5
3F6
330
3F3
100
AcDbEntity
  8
寸法線
 62
     3
100
AcDbLine
 10
547.5083233861192
 20
138.2985408182735
 30
0.0
 11
555.2570033464652
 21
130.5498608579251
 31
0.0
  0
LINE
  5
3F7
330
3F3
100
AcDbEntity
  8
寸法線
 62
     3
100
AcDbLine
 10
529.4933955562524
 20
120.2836129884122
 30
0.0
 11
537.2420755165984
 21
112.5349330280638
 31
0.0
  0
LINE
  5
3F8
330
3F3
100
AcDbEntity
  8
寸法線
 62
     3
100
AcDbLine
 10
553.4892363934987
 20
129.4892006861456
 30
0.0
 11
538.3027356883786
 21
114.30269998103
 31
0.0
  0
INSERT
  5
3F9
330
3F3
100
AcDbEntity
  8
寸法線
 62
     3
100
AcDbBlockReference
  2
_Open30
 10
554.903449955872
 20
130.9034142485184
 30
0.0
 41
2.0
 42
2.0
 43
2.0
 50
44.99999999999132
  0
INSERT
  5
3FA
330
3F3
100
AcDbEntity
  8
寸法線
 62
     3
100
AcDbBlockReference
  2
_Open30
 10
536.8885221260052
 20
112.8884864186571
 30
0.0
 41
2.0
 42
2.0
 43
2.0
 50
224.9999999999913
  0
MTEXT
  5
3FB
330
3F3
100
AcDbEntity
  8
寸法線
 62
     7
100
AcDbMText
 10
543.9254562184673
 20
123.8664801560597
 30
0.0
 40
3.5
 41
0.0
 46
0.0
 71
     5
 72
     1
  1
\A1;25.5
 11
0.7071067811866546
 21
0.7071067811864404
 31
0.0
 73
     1
 44
1.0
  0
POINT
  5
3FC
330
3F3
100
AcDbEntity
  8
Defpoints
 62
     0
100
AcDbPoint
 10
547.154769995526
 20
138.6520942088669
 30
0.0
  0
POINT
  5
3FD
330
3F3
100
AcDbEntity
  8
Defpoints
 62
     0
100
AcDbPoint
 10
529.1398421656592
 20
120.6371663790055
 30
0.0
  0
POINT
  5
3FE
330
3F3
100
AcDbEntity
  8
Defpoints
 62
     0
100
AcDbPoint
 10
536.8885221260052
 20
112.8884864186571
 30
0.0
  0
ENDBLK
  5
3F5
330
3F3
100
AcDbEntity
  8
0
100
AcDbBlockEnd
  0
BLOCK
  5
400
330
3FF
100
AcDbEntity
  8
0
100
AcDbBlockBegin
  2
*D23
 70
     1
 10
0.0
 20
0.0
 30
0.0
  3
*D23
  1

  0
LINE
  5
402
330
3FF
100
AcDbEntity
  8
寸法線
 62
     3
100
AcDbLine
 10
529.1398421656592
 20
120.1371663790055
 30
0.0
 11
529.1398421656592
 21
110.1371663790073
 31
0.0
  0
LINE
  5
403
330
3FF
100
AcDbEntity
  8
寸法線
 62
     3
100
AcDbLine
 10
507.1550638938012
 20
120.137166379011
 30
0.0
 11
507.1550638938012
 21
110.1371663790073
 31
0.0
  0
LINE
  5
404
330
3FF
100
AcDbEntity
  8
寸法線
 62
     3
100
AcDbLine
 10
527.1398421656592
 20
110.6371663790073
 30
0.0
 11
509.1550638938012
 21
110.6371663790073
 31
0.0
  0
INSERT
  5
405
330
3FF
100
AcDbEntity
  8
寸法線
 62
     3
100
AcDbBlockReference
  2
_Open30
 10
529.1398421656592
 20
110.6371663790073
 30
0.0
 41
2.0
 42
2.0
 43
2.0
  0
INSERT
  5
406
330
3FF
100
AcDbEntity
  8
寸法線
 62
     3
100
AcDbBlockReference
  2
_Open30
 10
507.1550638938012
 20
110.6371663790073
 30
0.0
 41
2.0
 42
2.0
 43
2.0
 50
180.0
  0
MTEXT
  5
407
330
3FF
100
AcDbEntity
  8
寸法線
 62
     7
100
AcDbMText
 10
518.1474530297302
 20
113.3941663790073
 30
0.0
 40
3.5
 41
0.0
 46
0.0
 71
     5
 72
     1
  1
\A1;22
 73
     1
 44
1.0
  0
POINT
  5
408
330
3FF
100
AcDbEntity
  8
Defpoints
 62
     0
100
AcDbPoint
 10
529.1398421656592
 20
120.6371663790055
 30
0.0
  0
POINT
  5
409
330
3FF
100
AcDbEntity
  8
Defpoints
 62
     0
100
AcDbPoint
 10
507.1550638938012
 20
120.637166379011
 30
0.0
  0
POINT
  5
40A
330
3FF
100
AcDbEntity
  8
Defpoints
 62
     0
100
AcDbPoint
 10
507.1550638938012
 20
110.6371663790073
 30
0.0
  0
ENDBLK
  5
401
330
3FF
100
AcDbEntity
  8
0
100
AcDbBlockEnd
  0
BLOCK
  5
40C
330
40B
100
AcDbEntity
  8
0
100
AcDbBlockBegin
  2
*D24
 70
     1
 10
0.0
 20
0.0
 30
0.0
  3
*D24
  1

  0
LINE
  5
40E
330
40B
100
AcDbEntity
  8
寸法線
 62
     3
100
AcDbLine
 10
507.1550638938025
 20
212.5520139852856
 30
0.0
 11
507.1550638938025
 21
227.5520139852856
 31
0.0
  0
LINE
  5
40F
330
40B
100
AcDbEntity
  8
寸法線
 62
     3
100
AcDbLine
 10
513.6864347437009
 20
217.5520139852856
 30
0.0
 11
513.6864347437009
 21
227.5520139852856
 31
0.0
  0
LINE
  5
410
330
40B
100
AcDbEntity
  8
寸法線
 62
     3
100
AcDbLine
 10
513.6864347437009
 20
227.0520139852856
 30
0.0
 11
524.098434743701
 21
227.0520139852856
 31
0.0
  0
LINE
  5
411
330
40B
100
AcDbEntity
  8
寸法線
 62
     3
100
AcDbLine
 10
509.1550638938025
 20
227.0520139852856
 30
0.0
 11
511.6864347437009
 21
227.0520139852856
 31
0.0
  0
INSERT
  5
412
330
40B
100
AcDbEntity
  8
寸法線
 62
     3
100
AcDbBlockReference
  2
_Open30
 10
507.1550638938025
 20
227.0520139852856
 30
0.0
 41
2.0
 42
2.0
 43
2.0
 50
180.0
  0
INSERT
  5
413
330
40B
100
AcDbEntity
  8
寸法線
 62
     3
100
AcDbBlockReference
  2
_Open30
 10
513.6864347437009
 20
227.0520139852856
 30
0.0
 41
2.0
 42
2.0
 43
2.0
  0
MTEXT
  5
414
330
40B
100
AcDbEntity
  8
寸法線
 62
     7
100
AcDbMText
 10
519.892434743701
 20
229.8387639852856
 30
0.0
 40
3.5
 41
0.0
 46
0.0
 71
     5
 72
     1
  1
\A1;6.5
 73
     1
 44
1.0
  0
POINT
  5
415
330
40B
100
AcDbEntity
  8
Defpoints
 62
     0
100
AcDbPoint
 10
507.1550638938025
 20
212.0520139852856
 30
0.0
  0
POINT
  5
416
330
40B
100
AcDbEntity
  8
Defpoints
 62
     0
100
AcDbPoint
 10
513.6864347437009
 20
217.0520139852856
 30
0.0
  0
POINT
  5
417
330
40B
100
AcDbEntity
  8
Defpoints
 62
     0
100
AcDbPoint
 10
513.6864347437009
 20
227.0520139852856
 30
0.0
  0
ENDBLK
  5
40D
330
40B
100
AcDbEntity
  8
0
100
AcDbBlockEnd
  0
BLOCK
  5
419
330
418
100
AcDbEntity
  8
0
100
AcDbBlockBegin
  2
*D25
 70
     1
 10
0.0
 20
0.0
 30
0.0
  3
*D25
  1

  0
LINE
  5
41B
330
418
100
AcDbEntity
  8
寸法線
 62
     3
100
AcDbLine
 10
480.0012391992715
 20
205.8056250051299
 30
0.0
 11
471.1624044344387
 21
214.6444597699628
 31
0.0
  0
LINE
  5
41C
330
418
100
AcDbEntity
  8
寸法線
 62
     3
100
AcDbLine
 10
473.0715927436519
 20
205.9470463613774
 30
0.0
 11
467.7682918847526
 21
211.2503472202768
 31
0.0
  0
LINE
  5
41D
330
418
100
AcDbEntity
  8
寸法線
 62
     3
100
AcDbLine
 10
471.5159578250319
 20
214.2909063793695
 30
0.0
 11
483.4283227978131
 21
226.2032713521507
 31
0.0
  0
LINE
  5
41E
330
418
100
AcDbEntity
  8
寸法線
 62
     3
100
AcDbLine
 10
471.5159578250319
 20
214.2909063793695
 30
0.0
 11
468.1218452753459
 21
210.8967938296835
 31
0.0
  0
LINE
  5
41F
330
418
100
AcDbEntity
  8
寸法線
 62
     3
100
AcDbLine
 10
472.930171387405
 20
215.7051199417426
 30
0.0
 11
474.3443849497781
 21
217.1193335041157
 31
0.0
  0
LINE
  5
420
330
418
100
AcDbEntity
  8
寸法線
 62
     3
100
AcDbLine
 10
466.7076317129728
 20
209.4825802673104
 30
0.0
 11
465.2934181505997
 21
208.0683667049373
 31
0.0
  0
INSERT
  5
421
330
418
100
AcDbEntity
  8
寸法線
 62
     3
100
AcDbBlockReference
  2
_Open30
 10
471.5159578250319
 20
214.2909063793695
 30
0.0
 41
2.0
 42
2.0
 43
2.0
 50
225.0
  0
INSERT
  5
422
330
418
100
AcDbEntity
  8
寸法線
 62
     3
100
AcDbBlockReference
  2
_Open30
 10
468.1218452753459
 20
210.8967938296835
 30
0.0
 41
2.0
 42
2.0
 43
2.0
 50
45.0
  0
MTEXT
  5
423
330
418
100
AcDbEntity
  8
寸法線
 62
     7
100
AcDbMText
 10
478.4478161845256
 20
225.1638243838065
 30
0.0
 40
3.5
 41
0.0
 46
0.0
 71
     5
 72
     1
  1
\A1;4.8
 11
0.7071067811865475
 21
0.7071067811865475
 31
0.0
 73
     1
 44
1.0
  0
POINT
  5
424
330
418
100
AcDbEntity
  8
Defpoints
 62
     0
100
AcDbPoint
 10
480.3547925898648
 20
205.4520716145366
 30
0.0
  0
POINT
  5
425
330
418
100
AcDbEntity
  8
Defpoints
 62
     0
100
AcDbPoint
 10
473.4251461342452
 20
205.5934929707842
 30
0.0
  0
POINT
  5
426
330
418
100
AcDbEntity
  8
Defpoints
 62
     0
100
AcDbPoint
 10
468.1218452753459
 20
210.8967938296835
 30
0.0
  0
ENDBLK
  5
41A
330
418
100
AcDbEntity
  8
0
100
AcDbBlockEnd
  0
BLOCK
  5
428
330
427
100
AcDbEntity
  8
0
100
AcDbBlockBegin
  2
*D26
 70
     1
 10
0.0
 20
0.0
 30
0.0
  3
*D26
  1

  0
LINE
  5
42A
330
427
100
AcDbEntity
  8
寸法線
 62
     3
100
AcDbLine
 10
473.0715927436519
 20
205.9470463613774
 30
0.0
 11
467.7682918847528
 21
211.2503472202765
 31
0.0
  0
LINE
  5
42B
330
427
100
AcDbEntity
  8
寸法線
 62
     3
100
AcDbLine
 10
463.5963618757557
 20
196.471815493483
 30
0.0
 11
458.2930610168575
 21
201.7751163523812
 31
0.0
  0
LINE
  5
42C
330
427
100
AcDbEntity
  8
寸法線
 62
     3
100
AcDbLine
 10
466.707631712973
 20
209.4825802673101
 30
0.0
 11
460.0608279698239
 21
202.835776524161
 31
0.0
  0
INSERT
  5
42D
330
427
100
AcDbEntity
  8
寸法線
 62
     3
100
AcDbBlockReference
  2
_Open30
 10
468.1218452753461
 20
210.8967938296832
 30
0.0
 41
2.0
 42
2.0
 43
2.0
 50
45.0
  0
INSERT
  5
42E
330
427
100
AcDbEntity
  8
寸法線
 62
     3
100
AcDbBlockReference
  2
_Open30
 10
458.6466144074508
 20
201.4215629617879
 30
0.0
 41
2.0
 42
2.0
 43
2.0
 50
225.0
  0
MTEXT
  5
42F
330
427
100
AcDbEntity
  8
寸法線
 62
     7
100
AcDbMText
 10
461.4137000189268
 20
208.1297082182072
 30
0.0
 40
3.5
 41
0.0
 46
0.0
 71
     5
 72
     1
  1
\A1;13.4
 11
0.7071067811865475
 21
0.7071067811865475
 31
0.0
 73
     1
 44
1.0
  0
POINT
  5
430
330
427
100
AcDbEntity
  8
Defpoints
 62
     0
100
AcDbPoint
 10
473.4251461342452
 20
205.5934929707842
 30
0.0
  0
POINT
  5
431
330
427
100
AcDbEntity
  8
Defpoints
 62
     0
100
AcDbPoint
 10
463.949915266349
 20
196.1182621028897
 30
0.0
  0
POINT
  5
432
330
427
100
AcDbEntity
  8
Defpoints
 62
     0
100
AcDbPoint
 10
458.6466144074508
 20
201.4215629617879
 30
0.0
  0
ENDBLK
  5
429
330
427
100
AcDbEntity
  8
0
100
AcDbBlockEnd
  0
BLOCK
  5
434
330
433
100
AcDbEntity
  8
0
100
AcDbBlockBegin
  2
*D27
 70
     1
 10
0.0
 20
0.0
 30
0.0
  3
*D27
  1

  0
ARC
  5
436
330
433
100
AcDbEntity
  8
寸法線
 62
     3
100
AcDbCircle
 10
528.477100465862
 20
122.2371663790041
 30
0.0
 40
12.08258013527575
100
AcDbArc
 50
54.49489140673818
 51
170.5051085932285
  0
INSERT
  5
437
330
433
100
AcDbEntity
  8
寸法線
 62
     3
100
AcDbBlockReference
  2
_Open30
 10
537.0207748137467
 20
130.7808407268861
 30
0.0
 41
2.0
 42
2.0
 43
2.0
 50
319.7474457033646
  0
INSERT
  5
438
330
433
100
AcDbEntity
  8
寸法線
 62
     3
100
AcDbBlockReference
  2
_Open30
 10
516.3945203305863
 20
122.2371663790092
 30
0.0
 41
2.0
 42
2.0
 43
2.0
 50
265.252554296602
  0
MTEXT
  5
439
330
433
100
AcDbEntity
  8
寸法線
 62
     7
100
AcDbMText
 10
522.7781481246428
 20
135.9956544125049
 30
0.0
 40
3.5
 41
0.0
 46
0.0
 71
     5
 72
     1
  1
\A1;135.0%%d
 11
0.9238795325113996
 21
0.3826834323648172
 31
0.0
 73
     1
 44
1.0
  0
POINT
  5
43A
330
433
100
AcDbEntity
  8
Defpoints
 62
     0
100
AcDbPoint
 10
528.4771004658651
 20
134.3197465142798
 30
0.0
  0
POINT
  5
43B
330
433
100
AcDbEntity
  8
Defpoints
 62
     0
100
AcDbPoint
 10
528.477100465862
 20
122.2371663790041
 30
0.0
  0
POINT
  5
43C
330
433
100
AcDbEntity
  8
Defpoints
 62
     0
100
AcDbPoint
 10
546.0233991456286
 20
139.7834650587652
 30
0.0
  0
POINT
  5
43D
330
433
100
AcDbEntity
  8
Defpoints
 62
     0
100
AcDbPoint
 10
528.477100465862
 20
122.2371663790041
 30
0.0
  0
POINT
  5
43E
330
433
100
AcDbEntity
  8
Defpoints
 62
     0
100
AcDbPoint
 10
507.155063893803
 20
122.2371663790132
 30
0.0
  0
ENDBLK
  5
435
330
433
100
AcDbEntity
  8
0
100
AcDbBlockEnd
  0
BLOCK
  5
440
330
43F
100
AcDbEntity
  8
0
100
AcDbBlockBegin
  2
*D28
 70
     1
 10
0.0
 20
0.0
 30
0.0
  3
*D28
  1

  0
LINE
  5
442
330
43F
100
AcDbEntity
  8
寸法線
 62
     3
100
AcDbLine
 10
505.6909622786651
 20
212.0520139852857
 30
0.0
 11
488.1560644183717
 21
222.1757919851403
 31
0.0
  0
MTEXT
  5
443
330
43F
100
AcDbEntity
  8
寸法線
 62
     7
100
AcDbMText
 10
494.8456817134306
 20
221.4970490233736
 30
0.0
 40
3.5
 41
0.0
 46
0.0
 71
     5
 72
     1
  1
\A1;4-R2
 11
0.8660254037844055
 21
-0.5000000000000575
 31
0.0
 73
     1
 44
1.0
  0
LINE
  5
444
330
43F
100
AcDbEntity
  8
寸法線
 62
     3
100
AcDbLine
 10
509.1550638938025
 20
210.0520139852856
 30
0.0
 11
507.4230130862339
 21
211.0520139852856
 31
0.0
  0
INSERT
  5
445
330
43F
100
AcDbEntity
  8
寸法線
 62
     3
100
AcDbBlockReference
  2
_Open30
 10
507.4230130862339
 20
211.0520139852856
 30
0.0
 41
2.0
 42
2.0
 43
2.0
 50
329.9999999999962
  0
POINT
  5
446
330
43F
100
AcDbEntity
  8
Defpoints
 62
     0
100
AcDbPoint
 10
507.4230130862339
 20
211.0520139852856
 30
0.0
  0
POINT
  5
447
330
43F
100
AcDbEntity
  8
Defpoints
 62
     0
100
AcDbPoint
 10
509.1550638938025
 20
210.0520139852856
 30
0.0
  0
ENDBLK
  5
441
330
43F
100
AcDbEntity
  8
0
100
AcDbBlockEnd
  0
ENDSEC
  0
SECTION
  2
ENTITIES
  0
LINE
  5
2A2
330
1F
100
AcDbEntity
  8
寸法線
 62
     6
100
AcDbLine
 10
321.8150407193053
 20
134.7612846561465
 30
0.0
 11
300.1226315432947
 21
122.2371663790095
 31
0.0
  0
LINE
  5
2A3
330
1F
100
AcDbEntity
  8
寸法線
 62
     6
100
AcDbLine
 10
320.6231822906012
 20
132.2256440100914
 30
0.0
 11
319.8231822906001
 21
133.6112846561477
 31
0.0
  0
LINE
  5
2A4
330
1F
100
AcDbEntity
  8
寸法線
 62
     6
100
AcDbLine
 10
316.2930552716772
 20
129.7256440100923
 30
0.0
 11
315.4930552716779
 21
131.1112846561487
 31
0.0
  0
LINE
  5
2A5
330
1F
100
AcDbEntity
  8
寸法線
 62
     6
100
AcDbLine
 10
311.9629282527541
 20
127.2256440100923
 30
0.0
 11
300.5513502511873
 21
120.637166379011
 31
0.0
  0
LINE
  5
2A6
330
1F
100
AcDbEntity
  8
寸法線
 62
     6
100
AcDbLine
 10
322.6150407193046
 20
133.375644010091
 30
0.0
 11
321.8150407193053
 21
134.7612846561465
 31
0.0
  0
LINE
  5
2A7
330
1F
100
AcDbEntity
  8
寸法線
 62
     6
100
AcDbLine
 10
321.8150407193053
 20
134.7612846561465
 30
0.0
 11
300.1226315432947
 21
122.2371663790095
 31
0.0
  0
LINE
  5
2A8
330
1F
100
AcDbEntity
  8
寸法線
 62
     6
100
AcDbLine
 10
320.6231822906012
 20
132.2256440100914
 30
0.0
 11
319.8231822906001
 21
133.6112846561477
 31
0.0
  0
LINE
  5
2A9
330
1F
100
AcDbEntity
  8
寸法線
 62
     6
100
AcDbLine
 10
316.2930552716772
 20
129.7256440100923
 30
0.0
 11
315.4930552716779
 21
131.1112846561487
 31
0.0
  0
LINE
  5
2AA
330
1F
100
AcDbEntity
  8
寸法線
 62
     6
100
AcDbLine
 10
322.6150407193046
 20
133.375644010091
 30
0.0
 11
300.5513502511873
 21
120.637166379011
 31
0.0
  0
LINE
  5
2AB
330
1F
100
AcDbEntity
  8
寸法線
 62
     6
100
AcDbLine
 10
322.6150407193046
 20
133.375644010091
 30
0.0
 11
321.8150407193053
 21
134.7612846561465
 31
0.0
  0
LINE
  5
2AC
330
1F
100
AcDbEntity
  8
寸法線
 62
     6
100
AcDbLine
 10
300.5513502511873
 20
120.637166379011
 30
0.0
 11
278.5665719793293
 21
120.6371663790164
 31
0.0
  0
LINE
  5
2AD
330
1F
100
AcDbEntity
  8
寸法線
 62
     6
100
AcDbLine
 10
300.1226315432942
 20
122.2371663790095
 30
0.0
 11
278.5665719793311
 21
122.2371663790186
 31
0.0
  0
LINE
  5
2AE
330
1F
100
AcDbEntity
  8
寸法線
 62
     6
100
AcDbLine
 10
300.5513502511873
 20
120.637166379011
 30
0.0
 11
278.5665719793293
 21
120.6371663790164
 31
0.0
  0
LINE
  5
2AF
330
1F
100
AcDbEntity
  8
寸法線
 62
     6
100
AcDbLine
 10
300.1226315432947
 20
122.2371663790095
 30
0.0
 11
278.5665719793311
 21
122.2371663790186
 31
0.0
  0
LINE
  5
2B0
330
1F
100
AcDbEntity
  8
寸法線
 62
     6
100
AcDbLine
 10
278.5665719793311
 20
122.2371663790186
 30
0.0
 11
278.5665719793293
 21
120.6371663790164
 31
0.0
  0
LINE
  5
2B1
330
1F
100
AcDbEntity
  8
寸法線
 62
     6
100
AcDbLine
 10
282.5665719793311
 20
122.2371663790168
 30
0.0
 11
282.5665719793302
 21
120.6371663790164
 31
0.0
  0
LINE
  5
2B2
330
1F
100
AcDbEntity
  8
寸法線
 62
     6
100
AcDbLine
 10
287.5665719793302
 20
122.2371663790186
 30
0.0
 11
287.5665719793293
 21
120.6371663790164
 31
0.0
  0
LINE
  5
2B3
330
1F
100
AcDbEntity
  8
寸法線
 62
     6
100
AcDbLine
 10
309.0184418798918
 20
125.5256440100961
 30
0.0
 11
308.2184418798917
 21
126.9112846561497
 31
0.0
  0
LINE
  5
2B4
330
1F
100
AcDbEntity
  8
寸法線
 62
     6
100
AcDbLine
 10
304.6883148609678
 20
123.0256440100961
 30
0.0
 11
303.8883148609685
 21
124.4112846561507
 31
0.0
  0
LINE
  5
2B5
330
1F
100
AcDbEntity
  8
寸法線
 62
     6
100
AcDbLine
 10
309.0184418798918
 20
125.5256440100961
 30
0.0
 11
308.2184418798917
 21
126.9112846561497
 31
0.0
  0
LINE
  5
2B6
330
1F
100
AcDbEntity
  8
寸法線
 62
     6
100
AcDbLine
 10
304.6883148609678
 20
123.0256440100961
 30
0.0
 11
303.8883148609685
 21
124.4112846561507
 31
0.0
  0
LINE
  5
2B7
330
1F
100
AcDbEntity
  8
寸法線
 62
     6
100
AcDbLine
 10
117.056350853231
 20
130.8543064625323
 30
0.0
 11
93.38095305346599
 21
122.2371663790095
 31
0.0
  0
LINE
  5
2B8
330
1F
100
AcDbEntity
  8
寸法線
 62
     6
100
AcDbLine
 10
115.4422900547439
 20
128.5641519396263
 30
0.0
 11
114.8950578254222
 21
130.0676601328837
 31
0.0
  0
LINE
  5
2B9
330
1F
100
AcDbEntity
  8
寸法線
 62
     6
100
AcDbLine
 10
110.7438269508126
 20
126.8540512229979
 30
0.0
 11
110.1965947214927
 21
128.3575594162571
 31
0.0
  0
LINE
  5
2BA
330
1F
100
AcDbEntity
  8
寸法線
 62
     6
100
AcDbLine
 10
106.0453638468822
 20
125.1439505063704
 30
0.0
 11
93.66307622259922
 21
120.637166379011
 31
0.0
  0
LINE
  5
2BB
330
1F
100
AcDbEntity
  8
寸法線
 62
     6
100
AcDbLine
 10
117.6035830825509
 20
129.3507982692749
 30
0.0
 11
117.056350853231
 21
130.8543064625323
 31
0.0
  0
LINE
  5
2BC
330
1F
100
AcDbEntity
  8
寸法線
 62
     6
100
AcDbLine
 10
117.056350853231
 20
130.8543064625323
 30
0.0
 11
93.38095305346599
 21
122.2371663790095
 31
0.0
  0
LINE
  5
2BD
330
1F
100
AcDbEntity
  8
寸法線
 62
     6
100
AcDbLine
 10
115.4422900547439
 20
128.5641519396263
 30
0.0
 11
114.8950578254222
 21
130.0676601328837
 31
0.0
  0
LINE
  5
2BE
330
1F
100
AcDbEntity
  8
寸法線
 62
     6
100
AcDbLine
 10
110.7438269508126
 20
126.8540512229979
 30
0.0
 11
110.1965947214927
 21
128.3575594162571
 31
0.0
  0
LINE
  5
2BF
330
1F
100
AcDbEntity
  8
寸法線
 62
     6
100
AcDbLine
 10
117.6035830825509
 20
129.3507982692749
 30
0.0
 11
93.66307622259922
 21
120.637166379011
 31
0.0
  0
LINE
  5
2C0
330
1F
100
AcDbEntity
  8
寸法線
 62
     6
100
AcDbLine
 10
117.6035830825509
 20
129.3507982692749
 30
0.0
 11
117.056350853231
 21
130.8543064625323
 31
0.0
  0
LINE
  5
2C1
330
1F
100
AcDbEntity
  8
寸法線
 62
     6
100
AcDbLine
 10
93.66307622259876
 20
120.637166379011
 30
0.0
 11
71.67829795074078
 21
120.6371663790164
 31
0.0
  0
LINE
  5
2C2
330
1F
100
AcDbEntity
  8
寸法線
 62
     6
100
AcDbLine
 10
93.38095305346644
 20
122.2371663790095
 30
0.0
 11
71.6782979507426
 21
122.2371663790186
 31
0.0
  0
LINE
  5
2C3
330
1F
100
AcDbEntity
  8
寸法線
 62
     6
100
AcDbLine
 10
93.66307622259876
 20
120.637166379011
 30
0.0
 11
71.67829795074078
 21
120.6371663790164
 31
0.0
  0
LINE
  5
2C4
330
1F
100
AcDbEntity
  8
寸法線
 62
     6
100
AcDbLine
 10
93.38095305346644
 20
122.2371663790095
 30
0.0
 11
71.6782979507426
 21
122.2371663790186
 31
0.0
  0
LINE
  5
2C5
330
1F
100
AcDbEntity
  8
寸法線
 62
     6
100
AcDbLine
 10
71.6782979507426
 20
122.2371663790186
 30
0.0
 11
71.67829795074078
 21
120.6371663790164
 31
0.0
  0
LINE
  5
2C6
330
1F
100
AcDbEntity
  8
寸法線
 62
     6
100
AcDbLine
 10
75.6782979507426
 20
122.2371663790168
 30
0.0
 11
75.6782979507417
 21
120.6371663790164
 31
0.0
  0
LINE
  5
2C7
330
1F
100
AcDbEntity
  8
寸法線
 62
     6
100
AcDbLine
 10
80.6782979507417
 20
122.2371663790186
 30
0.0
 11
80.67829795074078
 21
120.6371663790164
 31
0.0
  0
LINE
  5
2C8
330
1F
100
AcDbEntity
  8
寸法線
 62
     6
100
AcDbLine
 10
102.8504089362156
 20
123.9810820190655
 30
0.0
 11
102.3031767068939
 21
125.4845902123229
 31
0.0
  0
LINE
  5
2C9
330
1F
100
AcDbEntity
  8
寸法線
 62
     6
100
AcDbLine
 10
98.15194583228424
 20
122.2709813024371
 30
0.0
 11
97.60471360296435
 21
123.7744894956954
 31
0.0
  0
LINE
  5
2CA
330
1F
100
AcDbEntity
  8
寸法線
 62
     6
100
AcDbLine
 10
102.8504089362156
 20
123.9810820190655
 30
0.0
 11
102.3031767068939
 21
125.4845902123229
 31
0.0
  0
LINE
  5
2CB
330
1F
100
AcDbEntity
  8
寸法線
 62
     6
100
AcDbLine
 10
98.15194583228424
 20
122.2709813024371
 30
0.0
 11
97.60471360296435
 21
123.7744894956954
 31
0.0
  0
DIMENSION
  5
2CC
102
{ACAD_XDICTIONARY
360
2CD
102
}
330
1F
100
AcDbEntity
  8
寸法線
 62
     6
100
AcDbDimension
280
     0
  2
*D16
 10
300.1226315432947
 20
122.2371663790095
 30
0.0
 11
312.2661205323136
 21
117.5777065539117
 31
0.0
 70
    34
  1
<>
 71
     5
 42
2.617993877991221
 73
     0
 74
     0
 75
     0
  3
WACOM_NORMAL-toko$2
100
AcDb2LineAngularDimension
 13
300.1226315432947
 23
122.2371663790095
 33
0.0
 14
278.5665719793311
 24
122.2371663790186
 34
0.0
 15
321.8150407193053
 25
134.7612846561465
 35
0.0
 16
295.1710617910098
 26
128.1382174202799
 36
0.0
1001
ENABLE_CUSTOM_SPLIT
1070
     1
  0
LINE
  5
2CF
330
1F
100
AcDbEntity
  8
寸法線
 62
     6
100
AcDbLine
 10
547.1547699955269
 20
199.0520139852856
 30
0.0
 11
547.1547699955264
 21
210.0520139852856
 31
0.0
  0
LINE
  5
2D0
330
1F
100
AcDbEntity
  8
寸法線
 62
     6
100
AcDbLine
 10
529.6084713157612
 20
197.0520139852847
 30
0.0
 11
529.6084713157612
 21
212.0520139852847
 31
0.0
  0
ELLIPSE
  5
2D1
330
1F
100
AcDbEntity
  8
寸法線
 62
     6
100
AcDbEllipse
 10
543.760657445832
 20
204.5520139852856
 30
0.0
 11
5.551115123125783E-16
 21
2.0
 31
0.0
210
0.0
220
0.0
230
1.0
 40
0.8838834764829926
 41
0.0
 42
3.141592653589536
  0
LINE
  5
2D2
330
1F
100
AcDbEntity
  8
寸法線
 62
     6
100
AcDbLine
 10
478.9405790274919
 20
204.0378580521624
 30
0.0
 11
462.8084939101001
 21
187.9057729347737
 31
0.0
  0
LINE
  5
2D3
330
1F
100
AcDbEntity
  8
寸法線
 62
     6
100
AcDbLine
 10
462.8084939101001
 20
187.9057729347737
 30
0.0
 11
452.7616891864537
 21
177.8589682111292
 31
0.0
  0
LINE
  5
2D4
330
1F
100
AcDbEntity
  8
寸法線
 62
     6
100
AcDbLine
 10
489.5471807452819
 20
193.4312563343578
 30
0.0
 11
473.4150956278992
 21
177.2991712169755
 31
0.0
  0
LINE
  5
2D5
330
1F
100
AcDbEntity
  8
寸法線
 62
     6
100
AcDbLine
 10
489.5471807452851
 20
196.2596834591027
 30
0.0
 11
481.7690061522377
 21
204.0378580521615
 31
0.0
  0
LINE
  5
2D6
330
1F
100
AcDbEntity
  8
寸法線
 62
     6
100
AcDbLine
 10
473.4150956278887
 20
177.2991712169683
 30
0.0
 11
462.8084939101001
 21
187.9057729347737
 31
0.0
  0
DIMENSION
  5
2D7
330
1F
100
AcDbEntity
  8
寸法線
 62
     6
100
AcDbDimension
280
     0
  2
*D17
 10
576.7528849515021
 20
197.0520139852856
 30
0.0
 11
573.9661349515021
 21
204.5520139852856
 31
0.0
 70
    32
 71
     5
 42
15.0
 73
     0
 74
     0
 75
     0
  3
WACOM_NORMAL-toko$0
100
AcDbAlignedDimension
 13
547.1547699955269
 23
212.0520139852856
 33
0.0
 14
547.1547699955269
 24
197.0520139852856
 34
0.0
 50
89.99999999999999
100
AcDbRotatedDimension
1001
ACAD
1000
DSTYLE
1002
{
1070
   144
1040
1.0
1002
}
  0
MTEXT
  5
2D8
330
1F
100
AcDbEntity
  8
寸法線
 62
     0
100
AcDbMText
 10
501.0718790476382
 20
88.20204545454544
 30
0.0
 40
10.0
 41
84.41942402590621
 46
10.0
 71
     1
 72
     5
  1
{\L45度}
 73
     1
 44
1.0
  0
LINE
  5
2D9
330
1F
100
AcDbEntity
  8
寸法線
 62
     6
100
AcDbLine
 10
547.1547699955269
 20
199.0520139852856
 30
0.0
 11
547.1547699955269
 21
210.0520139852856
 31
0.0
  0
LINE
  5
2DA
330
1F
100
AcDbEntity
  8
寸法線
 62
     6
100
AcDbLine
 10
529.6084713157612
 20
197.0520139852847
 30
0.0
 11
529.6084713157612
 21
212.0520139852847
 31
0.0
  0
ELLIPSE
  5
2DB
330
1F
100
AcDbEntity
  8
寸法線
 62
     6
100
AcDbEllipse
 10
543.760657445832
 20
204.5520139852856
 30
0.0
 11
-2.899137802864061
 21
8.881784197001252E-16
 31
0.0
210
0.0
220
0.0
230
1.0
 40
0.6898602743285257
 41
4.71238898038516
 42
7.853981633974012
  0
LINE
  5
2DC
330
1F
100
AcDbEntity
  8
寸法線
 62
     6
100
AcDbLine
 10
478.9405790274906
 20
204.0378580521624
 30
0.0
 11
462.8084939101001
 21
187.9057729347737
 31
0.0
  0
LINE
  5
2DD
330
1F
100
AcDbEntity
  8
寸法線
 62
     6
100
AcDbLine
 10
462.8084939101001
 20
187.9057729347737
 30
0.0
 11
453.5616891864544
 21
178.6589682111294
 31
0.0
  0
LINE
  5
2DE
330
1F
100
AcDbEntity
  8
寸法線
 62
     6
100
AcDbLine
 10
489.5471807452824
 20
193.4312563343587
 30
0.0
 11
473.4150956278992
 21
177.2991712169755
 31
0.0
  0
LINE
  5
2DF
330
1F
100
AcDbEntity
  8
寸法線
 62
     6
100
AcDbLine
 10
473.4150956278992
 20
177.2991712169755
 30
0.0
 11
463.3682909042496
 21
167.2523664933292
 31
0.0
  0
LINE
  5
2E0
330
1F
100
AcDbEntity
  8
寸法線
 62
     6
100
AcDbLine
 10
489.5471807452833
 20
196.2596834591045
 30
0.0
 11
481.7690061522377
 21
204.0378580521615
 31
0.0
  0
LINE
  5
2E1
330
1F
100
AcDbEntity
  8
寸法線
 62
     6
100
AcDbLine
 10
473.4150956278887
 20
177.2991712169683
 30
0.0
 11
462.8084939101001
 21
187.9057729347737
 31
0.0
  0
LINE
  5
2E2
330
1F
100
AcDbEntity
  8
寸法線
 62
     6
100
AcDbLine
 10
473.4150956278992
 20
177.2991712169755
 30
0.0
 11
464.1682909042498
 21
168.0523664933294
 31
0.0
  0
DIMENSION
  5
2E3
330
1F
100
AcDbEntity
  8
寸法線
 62
     6
100
AcDbDimension
280
     0
  2
*D18
 10
576.7528849515021
 20
197.0520139852856
 30
0.0
 11
573.9661349515021
 21
204.5520139852856
 31
0.0
 70
    32
 71
     5
 42
15.0
 73
     0
 74
     0
 75
     0
  3
WACOM_NORMAL-toko$0
100
AcDbAlignedDimension
 13
547.1547699955269
 23
212.0520139852856
 33
0.0
 14
547.1547699955269
 24
197.0520139852856
 34
0.0
 50
89.99999999999999
100
AcDbRotatedDimension
1001
ACAD
1000
DSTYLE
1002
{
1070
   144
1040
1.0
1002
}
  0
CIRCLE
  5
2E4
330
1F
100
AcDbEntity
  8
寸法線
 62
     6
100
AcDbCircle
 10
513.6864347437019
 20
204.5520139852847
 30
0.0
 40
2.5
  0
CIRCLE
  5
2E5
330
1F
100
AcDbEntity
  8
寸法線
 62
     6
100
AcDbCircle
 10
513.6864347437019
 20
204.5520139852847
 30
0.0
 40
2.5
  0
LINE
  5
2E6
330
1F
100
AcDbEntity
  8
寸法線
 62
     6
100
AcDbLine
 10
509.1550638938025
 20
212.0520139852856
 30
0.0
 11
545.1547699955269
 21
212.0520139852856
 31
0.0
  0
LINE
  5
2E7
330
1F
100
AcDbEntity
  8
寸法線
 62
     6
100
AcDbLine
 10
509.1550638938025
 20
197.0520139852856
 30
0.0
 11
545.1547699955269
 21
197.0520139852856
 31
0.0
  0
CIRCLE
  5
2E8
330
1F
100
AcDbEntity
  8
寸法線
 62
     6
100
AcDbCircle
 10
482.2639808990781
 20
196.7546582059508
 30
0.0
 40
2.5
  0
LINE
  5
2E9
330
1F
100
AcDbEntity
  8
寸法線
  6
CENTERX2
 62
     7
100
AcDbLine
 10
547.2961913517626
 20
131.7224477532386
 30
0.0
 11
473.4251461342452
 21
205.5934929707842
 31
0.0
  0
LINE
  5
2EA
330
1F
100
AcDbEntity
  8
寸法線
  6
CENTERX2
 62
     7
100
AcDbLine
 10
543.7606574458301
 20
217.0520139852856
 30
0.0
 11
543.7606574458315
 21
135.2579816591719
 31
0.0
  0
LINE
  5
2EB
330
1F
100
AcDbEntity
  8
寸法線
  6
CENTERX2
 62
     7
100
AcDbLine
 10
513.6864347437009
 20
217.0520139852856
 30
0.0
 11
513.6864347437009
 21
115.6371663790092
 31
0.0
  0
ELLIPSE
  5
2EC
330
1F
100
AcDbEntity
  8
寸法線
 62
     6
100
AcDbEllipse
 10
543.760657445832
 20
204.5520139852856
 30
0.0
 11
5.551115123125783E-16
 21
2.0
 31
0.0
210
0.0
220
0.0
230
-1.0
 40
0.3181980515342957
 41
0.0
 42
3.141592653590506
  0
DIMENSION
  5
2ED
330
1F
100
AcDbEntity
  8
寸法線
 62
     6
100
AcDbDimension
280
     0
  2
*D19
 10
475.1300866378871
 20
186.4029897224295
 30
0.0
 11
443.6425731736909
 21
198.1897790048713
 31
0.0
 70
   163
  1
3-φ5
 71
     5
 42
5.000000000000481
 73
     0
 74
     0
 75
     0
  3
WACOM_NORMAL-toko$3
100
AcDbDiametricDimension
 15
470.4474134244684
 25
188.1558649536814
 35
0.0
 40
0.0
1001
ACAD_DSTYLE_DIMRADIAL_EXTENSION
1070
   387
1070
     1
1070
   388
1040
0.0
1070
   390
1040
6.283185307179586
  0
DIMENSION
  5
2EE
330
1F
100
AcDbEntity
  8
寸法線
 62
     6
100
AcDbDimension
280
     0
  2
*D20
 10
475.1300866378871
 20
186.4029897224295
 30
0.0
 11
443.6425731736909
 21
198.1897790048713
 31
0.0
 70
   163
  1
3-φ5
 71
     5
 42
5.000000000000481
 73
     0
 74
     0
 75
     0
  3
WACOM_NORMAL-toko$3
100
AcDbDiametricDimension
 15
470.4474134244684
 25
188.1558649536814
 35
0.0
 40
0.0
1001
ACAD_DSTYLE_DIMRADIAL_EXTENSION
1070
   387
1070
     1
1070
   388
1040
0.0
1070
   390
1040
6.283185307179586
  0
LINE
  5
2EF
330
1F
100
AcDbEntity
  8
寸法線
 62
     6
100
AcDbLine
 10
546.0233991456286
 20
139.7834650587652
 30
0.0
 11
528.477100465862
 21
122.2371663790041
 31
0.0
  0
LINE
  5
2F0
330
1F
100
AcDbEntity
  8
寸法線
 62
     6
100
AcDbLine
 10
545.5284243987977
 20
137.0257486121386
 30
0.0
 11
544.3970535488985
 21
138.1571194620369
 31
0.0
  0
LINE
  5
2F1
330
1F
100
AcDbEntity
  8
寸法線
 62
     6
100
AcDbLine
 10
541.9928904928635
 20
133.4902147062053
 30
0.0
 11
540.8615196429652
 21
134.6215855561054
 31
0.0
  0
LINE
  5
2F2
330
1F
100
AcDbEntity
  8
寸法線
 62
     6
100
AcDbLine
 10
538.4573565869292
 20
129.9546808002729
 30
0.0
 11
529.1398421656592
 21
120.6371663790055
 31
0.0
  0
DIMENSION
  5
2F3
102
{ACAD_XDICTIONARY
360
2F4
102
}
330
1F
100
AcDbEntity
  8
寸法線
 62
     6
100
AcDbDimension
280
     0
  2
*D21
 10
536.8885221260052
 20
112.8884864186571
 30
0.0
 11
543.9254562184673
 21
123.8664801560597
 31
0.0
 70
    33
 71
     5
 42
25.47695526216627
 73
     0
 74
     0
 75
     0
  3
WACOM_NORMAL-toko$0
100
AcDbAlignedDimension
 13
547.154769995526
 23
138.6520942088669
 33
0.0
 14
529.1398421656592
 24
120.6371663790055
 34
0.0
1001
ACAD
1000
DSTYLE
1002
{
1070
   144
1040
1.0
1002
}
1001
ENABLE_CUSTOM_SPLIT
1070
     1
  0
LINE
  5
2F6
330
1F
100
AcDbEntity
  8
寸法線
 62
     6
100
AcDbLine
 10
547.154769995526
 20
138.6520942088669
 30
0.0
 11
546.0233991456286
 21
139.7834650587652
 31
0.0
  0
LINE
  5
2F7
330
1F
100
AcDbEntity
  8
寸法線
 62
     6
100
AcDbLine
 10
546.0233991456286
 20
139.7834650587652
 30
0.0
 11
528.477100465862
 21
122.2371663790041
 31
0.0
  0
LINE
  5
2F8
330
1F
100
AcDbEntity
  8
寸法線
 62
     6
100
AcDbLine
 10
545.5284243987977
 20
137.0257486121386
 30
0.0
 11
544.3970535488985
 21
138.1571194620369
 31
0.0
  0
LINE
  5
2F9
330
1F
100
AcDbEntity
  8
寸法線
 62
     6
100
AcDbLine
 10
541.9928904928635
 20
133.4902147062053
 30
0.0
 11
540.8615196429652
 21
134.6215855561054
 31
0.0
  0
LINE
  5
2FA
330
1F
100
AcDbEntity
  8
寸法線
 62
     6
100
AcDbLine
 10
547.154769995526
 20
138.6520942088669
 30
0.0
 11
529.1398421656592
 21
120.6371663790055
 31
0.0
  0
DIMENSION
  5
2FB
102
{ACAD_XDICTIONARY
360
2FC
102
}
330
1F
100
AcDbEntity
  8
寸法線
 62
     6
100
AcDbDimension
280
     0
  2
*D22
 10
536.8885221260052
 20
112.8884864186571
 30
0.0
 11
543.9254562184673
 21
123.8664801560597
 31
0.0
 70
    33
 71
     5
 42
25.47695526216627
 73
     0
 74
     0
 75
     0
  3
WACOM_NORMAL-toko$0
100
AcDbAlignedDimension
 13
547.154769995526
 23
138.6520942088669
 33
0.0
 14
529.1398421656592
 24
120.6371663790055
 34
0.0
1001
ACAD
1000
DSTYLE
1002
{
1070
   144
1040
1.0
1002
}
1001
ENABLE_CUSTOM_SPLIT
1070
     1
  0
LINE
  5
2FE
330
1F
100
AcDbEntity
  8
寸法線
 62
     6
100
AcDbLine
 10
547.154769995526
 20
138.6520942088669
 30
0.0
 11
546.0233991456286
 21
139.7834650587652
 31
0.0
  0
LINE
  5
2FF
330
1F
100
AcDbEntity
  8
寸法線
 62
     6
100
AcDbLine
 10
529.1398421656592
 20
120.6371663790055
 30
0.0
 11
507.1550638938012
 21
120.637166379011
 31
0.0
  0
LINE
  5
300
330
1F
100
AcDbEntity
  8
寸法線
 62
     6
100
AcDbLine
 10
528.477100465862
 20
122.2371663790041
 30
0.0
 11
507.155063893803
 21
122.2371663790132
 31
0.0
  0
LINE
  5
301
330
1F
100
AcDbEntity
  8
寸法線
 62
     6
100
AcDbLine
 10
529.1398421656592
 20
120.6371663790055
 30
0.0
 11
507.1550638938012
 21
120.637166379011
 31
0.0
  0
LINE
  5
302
330
1F
100
AcDbEntity
  8
寸法線
 62
     6
100
AcDbLine
 10
528.477100465862
 20
122.2371663790041
 30
0.0
 11
507.155063893803
 21
122.2371663790132
 31
0.0
  0
LINE
  5
303
330
1F
100
AcDbEntity
  8
寸法線
 62
     6
100
AcDbLine
 10
507.155063893803
 20
122.2371663790132
 30
0.0
 11
507.1550638938012
 21
120.637166379011
 31
0.0
  0
LINE
  5
304
330
1F
100
AcDbEntity
  8
寸法線
 62
     6
100
AcDbLine
 10
511.155063893803
 20
122.2371663790113
 30
0.0
 11
511.1550638938021
 21
120.637166379011
 31
0.0
  0
LINE
  5
305
330
1F
100
AcDbEntity
  8
寸法線
 62
     6
100
AcDbLine
 10
516.1550638938021
 20
122.2371663790132
 30
0.0
 11
516.1550638938012
 21
120.637166379011
 31
0.0
  0
DIMENSION
  5
306
102
{ACAD_XDICTIONARY
360
307
102
}
330
1F
100
AcDbEntity
  8
寸法線
 62
     6
100
AcDbDimension
280
     0
  2
*D23
 10
507.1550638938012
 20
110.6371663790073
 30
0.0
 11
518.1474530297302
 21
110.6371663790073
 31
0.0
 70
   160
 71
     5
 42
21.98477827185798
 73
     0
 74
     0
 75
     0
  3
WACOM_NORMAL-toko$0
100
AcDbAlignedDimension
 13
529.1398421656592
 23
120.6371663790055
 33
0.0
 14
507.1550638938012
 24
120.637166379011
 34
0.0
 50
-0.0000000000000382
100
AcDbRotatedDimension
1001
ACAD
1000
DSTYLE
1002
{
1070
   144
1040
1.0
1002
}
1001
ENABLE_CUSTOM_SPLIT
1070
     1
  0
LINE
  5
309
330
1F
100
AcDbEntity
  8
寸法線
 62
     6
100
AcDbLine
 10
536.0531935308992
 20
127.5505177442433
 30
0.0
 11
534.9218226810004
 21
128.6818885941407
 31
0.0
  0
LINE
  5
30A
330
1F
100
AcDbEntity
  8
寸法線
 62
     6
100
AcDbLine
 10
532.5176596249645
 20
124.0149838383099
 30
0.0
 11
531.3862887750671
 21
125.1463546882092
 31
0.0
  0
LINE
  5
30B
330
1F
100
AcDbEntity
  8
寸法線
 62
     6
100
AcDbLine
 10
536.0531935308992
 20
127.5505177442433
 30
0.0
 11
534.9218226810004
 21
128.6818885941407
 31
0.0
  0
LINE
  5
30C
330
1F
100
AcDbEntity
  8
寸法線
 62
     6
100
AcDbLine
 10
532.5176596249645
 20
124.0149838383099
 30
0.0
 11
531.3862887750671
 21
125.1463546882092
 31
0.0
  0
LINE
  5
30D
330
1F
100
AcDbEntity
  8
寸法線
  6
CENTERX2
 62
     7
100
AcDbLine
 10
537.8209604838645
 20
122.2472168853433
 30
0.0
 11
463.949915266349
 21
196.1182621028897
 31
0.0
  0
LINE
  5
30E
330
1F
100
AcDbEntity
  8
寸法線
  6
CENTERX2
 62
     7
100
AcDbLine
 10
534.2854265779325
 20
217.0520139852865
 30
0.0
 11
534.2854265779339
 21
125.7827507912757
 31
0.0
  0
LINE
  5
30F
330
1F
100
AcDbEntity
  8
寸法線
 62
     6
100
AcDbLine
 10
546.0233991456281
 20
199.0520139852856
 30
0.0
 11
546.0233991456281
 21
210.0520139852856
 31
0.0
  0
ELLIPSE
  5
310
330
1F
100
AcDbEntity
  8
寸法線
 62
     6
100
AcDbEllipse
 10
534.2854265779339
 20
204.5520139852856
 30
0.0
 11
5.551115123125783E-16
 21
2.0
 31
0.0
210
0.0
220
0.0
230
1.0
 40
0.8838834764829926
 41
0.0
 42
3.141592653589793
  0
ELLIPSE
  5
311
330
1F
100
AcDbEntity
  8
寸法線
 62
     6
100
AcDbEllipse
 10
534.2854265779339
 20
204.5520139852856
 30
0.0
 11
-2.899137802864061
 21
8.881784197001252E-16
 31
0.0
210
0.0
220
0.0
230
1.0
 40
0.6898602743285257
 41
4.71238898038469
 42
7.853981633974483
  0
ELLIPSE
  5
312
330
1F
100
AcDbEntity
  8
寸法線
 62
     6
100
AcDbEllipse
 10
534.2854265779339
 20
204.5520139852856
 30
0.0
 11
5.551115123125783E-16
 21
2.0
 31
0.0
210
0.0
220
0.0
230
-1.0
 40
0.3181980515342957
 41
0.0
 42
3.141592653589793
  0
LINE
  5
313
330
1F
100
AcDbEntity
  8
寸法線
 62
     6
100
AcDbLine
 10
507.1550638938025
 20
199.0520139852856
 30
0.0
 11
507.1550638938025
 21
210.0520139852856
 31
0.0
  0
CIRCLE
  5
314
330
1F
100
AcDbEntity
  8
寸法線
 62
     6
100
AcDbCircle
 10
472.7887500311778
 20
187.2794273380555
 30
0.0
 40
2.5
  0
LINE
  5
315
330
1F
100
AcDbEntity
  8
寸法線
  6
CENTERX2
 62
     7
100
AcDbLine
 10
513.6864347437009
 20
120.6371663790092
 30
0.0
 11
451.0776271430974
 21
183.2459739796382
 31
0.0
  0
LINE
  5
316
330
1F
100
AcDbEntity
  8
寸法線
  6
ByBlock
 62
     6
100
AcDbLine
 10
460.539863779503
 20
167.2523664933301
 30
0.0
 11
452.7616891864533
 21
175.0305410863834
 31
0.0
  0
LINE
  5
317
330
1F
100
AcDbEntity
  8
寸法線
  6
ByBlock
 62
     6
100
AcDbLine
 10
461.3398637795036
 20
168.0523664933294
 30
0.0
 11
453.5616891864535
 21
175.8305410863836
 31
0.0
  0
ELLIPSE
  5
318
330
1F
100
AcDbEntity
  8
寸法線
 62
     6
100
AcDbEllipse
 10
459.9164619079262
 20
174.4071392148057
 30
0.0
 11
-1.414213562373094
 21
1.414213562373096
 31
0.0
210
0.0
220
0.0
230
-1.0
 40
0.8838834764829927
 41
0.0
 42
3.141592653589429
  0
ELLIPSE
  5
319
330
1F
100
AcDbEntity
  8
寸法線
 62
     6
100
AcDbEllipse
 10
459.9164619079262
 20
174.4071392148057
 30
0.0
 11
2.049999999999446
 21
2.049999999999445
 31
0.0
210
0.0
220
0.0
230
-1.0
 40
0.6898602743285256
 41
4.712388980385133
 42
7.853981633974261
  0
ELLIPSE
  5
31A
330
1F
100
AcDbEntity
  8
寸法線
 62
     6
100
AcDbEllipse
 10
459.9164619079262
 20
174.4071392148057
 30
0.0
 11
-1.414213562373094
 21
1.414213562373096
 31
0.0
210
0.0
220
0.0
230
1.0
 40
0.3181980515342957
 41
0.0
 42
3.141592653590804
  0
DIMENSION
  5
31B
102
{ACAD_XDICTIONARY
360
31C
102
}
330
1F
100
AcDbEntity
  8
寸法線
 62
     6
100
AcDbDimension
280
     0
  2
*D24
 10
513.6864347437009
 20
227.0520139852856
 30
0.0
 11
519.892434743701
 21
229.8387639852856
 31
0.0
 70
    32
 71
     5
 42
6.531370849898392
 73
     0
 74
     0
 75
     0
  3
WACOM_NORMAL-toko$0
100
AcDbAlignedDimension
 13
507.1550638938025
 23
212.0520139852856
 33
0.0
 14
513.6864347437009
 24
217.0520139852856
 34
0.0
 50
-0.0000000000000159
100
AcDbRotatedDimension
1001
ENABLE_CUSTOM_SPLIT
1070
     1
  0
DIMENSION
  5
31E
102
{ACAD_XDICTIONARY
360
31F
102
}
330
1F
100
AcDbEntity
  8
寸法線
 62
     6
100
AcDbDimension
280
     0
  2
*D25
 10
468.1218452753459
 20
210.8967938296835
 30
0.0
 11
480.4183460069972
 21
223.1932945613348
 31
0.0
 70
   160
 71
     5
 42
4.799999999986727
 73
     0
 74
     0
 75
     0
  3
WACOM_NORMAL-toko$0
100
AcDbAlignedDimension
 13
480.3547925898648
 23
205.4520716145366
 33
0.0
 14
473.4251461342452
 24
205.5934929707842
 34
0.0
 50
45.0
100
AcDbRotatedDimension
1001
ENABLE_CUSTOM_SPLIT
1070
     1
  0
DIMENSION
  5
321
102
{ACAD_XDICTIONARY
360
322
102
}
330
1F
100
AcDbEntity
  8
寸法線
 62
     6
100
AcDbDimension
280
     0
  2
*D26
 10
458.6466144074508
 20
201.4215629617879
 30
0.0
 11
461.4137000189268
 21
208.1297082182072
 31
0.0
 70
    32
 71
     5
 42
13.39999999999377
 73
     0
 74
     0
 75
     0
  3
WACOM_NORMAL-toko$0
100
AcDbAlignedDimension
 13
473.4251461342452
 23
205.5934929707842
 33
0.0
 14
463.949915266349
 24
196.1182621028897
 34
0.0
 50
45.0
100
AcDbRotatedDimension
1001
ENABLE_CUSTOM_SPLIT
1070
     1
  0
LINE
  5
324
330
1F
100
AcDbEntity
  8
寸法線
  6
CENTERX2
 62
     7
100
AcDbLine
 10
552.1547699955269
 20
204.5520139852856
 30
0.0
 11
490.0613366784083
 21
204.5520139852847
 31
0.0
  0
LINE
  5
325
330
1F
100
AcDbEntity
  8
寸法線
  6
CENTERX2
 62
     7
100
AcDbLine
 10
490.0613366784083
 20
204.5520139852847
 30
0.0
 11
453.1348472690621
 21
167.6255245759426
 31
0.0
  0
DIMENSION
  5
326
102
{ACAD_XDICTIONARY
360
327
102
}
330
1F
100
AcDbEntity
  8
寸法線
 62
     6
100
AcDbDimension
280
     0
  2
*D27
 10
507.155063893803
 20
122.2371663790132
 30
0.0
 11
522.7781481246428
 21
135.9956544125049
 31
0.0
 70
    34
  1
<>
 71
     5
 42
2.356194490192074
 73
     0
 74
     0
 75
     0
  3
WACOM_NORMAL-toko$2
100
AcDb2LineAngularDimension
 13
546.0233991456286
 23
139.7834650587652
 33
0.0
 14
528.477100465862
 24
122.2371663790041
 34
0.0
 15
528.477100465862
 25
122.2371663790041
 35
0.0
 16
528.4771004658651
 26
134.3197465142798
 36
0.0
1001
ENABLE_CUSTOM_SPLIT
1070
     1
  0
ARC
  5
329
330
1F
100
AcDbEntity
  8
寸法線
 62
     6
100
AcDbCircle
 10
488.1329671829095
 20
194.8454698967321
 30
0.0
 40
2.0
100
AcDbArc
 50
314.9999999999769
 51
44.99999999996776
  0
ARC
  5
32A
330
1F
100
AcDbEntity
  8
寸法線
 62
     6
100
AcDbCircle
 10
480.3547925898635
 20
202.6236444897891
 30
0.0
 40
2.0
100
AcDbArc
 50
44.99999999995395
 51
134.9999999999908
  0
ARC
  5
32B
330
1F
100
AcDbEntity
  8
寸法線
 62
     6
100
AcDbCircle
 10
509.1550638938025
 20
199.0520139852856
 30
0.0
 40
2.000000000000001
100
AcDbArc
 50
180.0
 51
270.0
  0
ARC
  5
32C
330
1F
100
AcDbEntity
  8
寸法線
 62
     6
100
AcDbCircle
 10
509.1550638938025
 20
210.0520139852856
 30
0.0
 40
2.000000000000001
100
AcDbArc
 50
90.0
 51
180.0
  0
ARC
  5
32D
330
1F
100
AcDbEntity
  8
寸法線
 62
     6
100
AcDbCircle
 10
454.9759027488268
 20
177.244754648756
 30
0.0
 40
2.0
100
AcDbArc
 50
134.9999999999816
 51
224.9999999999816
  0
ARC
  5
32E
330
1F
100
AcDbEntity
  8
寸法線
 62
     6
100
AcDbCircle
 10
462.7540773418774
 20
169.4665800557027
 30
0.0
 40
1.999999999999999
100
AcDbArc
 50
224.9999999999724
 51
314.9999999999816
  0
ARC
  5
32F
330
1F
100
AcDbEntity
  8
寸法線
 62
     6
100
AcDbCircle
 10
461.9540773418763
 20
168.6665800557025
 30
0.0
 40
1.999999999999999
100
AcDbArc
 50
224.9999999999816
 51
315.0
  0
ARC
  5
330
330
1F
100
AcDbEntity
  8
寸法線
 62
     6
100
AcDbCircle
 10
454.1759027488266
 20
176.4447546487559
 30
0.0
 40
2.0
100
AcDbArc
 50
134.9999999999908
 51
224.9999999999816
  0
ARC
  5
331
330
1F
100
AcDbEntity
  8
寸法線
 62
     6
100
AcDbCircle
 10
544.0233991456281
 20
210.0520139852856
 30
0.0
 40
2.000000000000001
100
AcDbArc
 50
0.0
 51
90.0
  0
ARC
  5
332
330
1F
100
AcDbEntity
  8
寸法線
 62
     6
100
AcDbCircle
 10
544.0233991456281
 20
199.0520139852856
 30
0.0
 40
2.000000000000001
100
AcDbArc
 50
270.0
 51
0.0
  0
ARC
  5
333
330
1F
100
AcDbEntity
  8
寸法線
 62
     6
100
AcDbCircle
 10
545.1547699955269
 20
210.0520139852856
 30
0.0
 40
2.000000000000001
100
AcDbArc
 50
0.0
 51
90.0
  0
ARC
  5
334
330
1F
100
AcDbEntity
  8
寸法線
 62
     6
100
AcDbCircle
 10
545.1547699955269
 20
199.0520139852856
 30
0.0
 40
2.000000000000001
100
AcDbArc
 50
270.0
 51
0.0
  0
DIMENSION
  5
335
330
1F
100
AcDbEntity
  8
寸法線
 62
     6
100
AcDbDimension
280
     0
  2
*D28
 10
509.1550638938025
 20
210.0520139852856
 30
0.0
 11
493.4671817134305
 21
219.1094169851399
 31
0.0
 70
   164
  1
4-R2
 71
     5
 42
1.99999999999977
 73
     0
 74
     0
 75
     0
  3
WACOM_NORMAL-toko$4
100
AcDbRadialDimension
 15
507.4230130862339
 25
211.0520139852856
 35
0.0
 40
0.0
1001
ACAD_DSTYLE_DIMRADIAL_EXTENSION
1070
   387
1070
     1
1070
   388
1040
1.570796326794897
1070
   390
1040
3.141592653589793
  0
MTEXT
  5
336
330
1F
100
AcDbEntity
  8
寸法線
 62
     0
100
AcDbMText
 10
289.4964239042148
 20
88.2020454545459
 30
0.0
 40
10.0
 41
84.41942402590621
 46
10.0
 71
     1
 72
     5
  1
{\L30度}
 73
     1
 44
1.0
  0
MTEXT
  5
337
330
1F
100
AcDbEntity
  8
寸法線
 62
     0
100
AcDbMText
 10
76.82482740968874
 20
88.2020454545459
 30
0.0
 40
10.0
 41
84.41942402590621
 46
10.0
 71
     1
 72
     5
  1
{\L20度}
 73
     1
 44
1.0
  0
LINE
  5
338
330
1F
100
AcDbEntity
  8
寸法線
 62
     6
100
AcDbLine
 10
322.6150407193051
 20
240.6556110951244
 30
0.0
 11
322.6150407193046
 21
251.6556110951244
 31
0.0
  0
LINE
  5
339
330
1F
100
AcDbEntity
  8
寸法線
 62
     6
100
AcDbLine
 10
301.0199794012893
 20
238.6556110951235
 30
0.0
 11
301.0199794012893
 21
253.6556110951235
 31
0.0
  0
ELLIPSE
  5
33A
330
1F
100
AcDbEntity
  8
寸法線
 62
     6
100
AcDbEllipse
 10
317.6581187811381
 20
246.1556110951244
 30
0.0
 11
5.551115123125783E-16
 21
2.0
 31
0.0
210
0.0
220
0.0
230
1.0
 40
0.6825317547310306
 41
0.0
 42
3.14159265358946
  0
LINE
  5
33B
330
1F
100
AcDbEntity
  8
寸法線
 62
     6
100
AcDbLine
 10
275.121390741782
 20
211.6370588080936
 30
0.0
 11
252.9499118316222
 21
198.8363494909786
 31
0.0
  0
LINE
  5
33C
330
1F
100
AcDbEntity
  8
寸法線
 62
     6
100
AcDbLine
 10
252.9499118316222
 20
198.8363494909786
 30
0.0
 11
240.645139272464
 21
191.7321857416327
 31
0.0
  0
LINE
  5
33D
330
1F
100
AcDbEntity
  8
寸法線
 62
     6
100
AcDbLine
 10
282.6213907417751
 20
198.6466777513235
 30
0.0
 11
260.4499118316231
 21
185.8459684342115
 31
0.0
  0
LINE
  5
33E
330
1F
100
AcDbEntity
  8
寸法線
 62
     6
100
AcDbLine
 10
260.4499118316113
 20
185.8459684342074
 30
0.0
 11
252.9499118316222
 21
198.8363494909786
 31
0.0
  0
LINE
  5
33F
330
1F
100
AcDbEntity
  8
寸法線
 62
     6
100
AcDbLine
 10
322.6150407193051
 20
240.6556110951244
 30
0.0
 11
322.6150407193051
 21
251.6556110951244
 31
0.0
  0
LINE
  5
340
330
1F
100
AcDbEntity
  8
寸法線
 62
     6
100
AcDbLine
 10
301.0199794012893
 20
238.6556110951235
 30
0.0
 11
301.0199794012893
 21
253.6556110951235
 31
0.0
  0
ELLIPSE
  5
341
330
1F
100
AcDbEntity
  8
寸法線
 62
     6
100
AcDbEllipse
 10
317.6581187811381
 20
246.1556110951244
 30
0.0
 11
-2.165063509461106
 21
6.632877831760449E-16
 31
0.0
210
0.0
220
0.0
230
1.0
 40
0.9237604307033973
 41
4.712388980385319
 42
7.853981633973853
  0
LINE
  5
342
330
1F
100
AcDbEntity
  8
寸法線
 62
     6
100
AcDbLine
 10
275.121390741782
 20
211.6370588080933
 30
0.0
 11
252.9499118316222
 21
198.8363494909786
 31
0.0
  0
LINE
  5
343
330
1F
100
AcDbEntity
  8
寸法線
 62
     6
100
AcDbLine
 10
252.9499118316222
 20
198.8363494909786
 30
0.0
 11
241.6249351695784
 21
192.2978711665819
 31
0.0
  0
LINE
  5
344
330
1F
100
AcDbEntity
  8
寸法線
 62
     6
100
AcDbLine
 10
282.6213907417751
 20
198.6466777513235
 30
0.0
 11
260.4499118316231
 21
185.8459684342115
 31
0.0
  0
LINE
  5
345
330
1F
100
AcDbEntity
  8
寸法線
 62
     6
100
AcDbLine
 10
260.4499118316231
 20
185.8459684342115
 30
0.0
 11
248.1451392724613
 21
178.7418046848652
 31
0.0
  0
LINE
  5
346
330
1F
100
AcDbEntity
  8
寸法線
 62
     6
100
AcDbLine
 10
283.3534415493442
 20
201.3787285588919
 30
0.0
 11
277.8534415493519
 21
210.9050080005236
 31
0.0
  0
LINE
  5
347
330
1F
100
AcDbEntity
  8
寸法線
 62
     6
100
AcDbLine
 10
260.4499118316113
 20
185.8459684342074
 30
0.0
 11
252.9499118316222
 21
198.8363494909786
 31
0.0
  0
LINE
  5
348
330
1F
100
AcDbEntity
  8
寸法線
 62
     6
100
AcDbLine
 10
260.4499118316231
 20
185.8459684342115
 30
0.0
 11
249.1249351695752
 21
179.3074901098144
 31
0.0
  0
CIRCLE
  5
349
330
1F
100
AcDbEntity
  8
寸法線
 62
     6
100
AcDbCircle
 10
285.09794282923
 20
246.1556110951235
 30
0.0
 40
2.5
  0
CIRCLE
  5
34A
330
1F
100
AcDbEntity
  8
寸法線
 62
     6
100
AcDbCircle
 10
285.09794282923
 20
246.1556110951235
 30
0.0
 40
2.5
  0
LINE
  5
34B
330
1F
100
AcDbEntity
  8
寸法線
 62
     6
100
AcDbLine
 10
280.5665719793307
 20
253.6556110951244
 30
0.0
 11
320.6150407193051
 21
253.6556110951244
 31
0.0
  0
LINE
  5
34C
330
1F
100
AcDbEntity
  8
寸法線
 62
     6
100
AcDbLine
 10
280.5665719793307
 20
238.6556110951244
 30
0.0
 11
320.6150407193051
 21
238.6556110951244
 31
0.0
  0
CIRCLE
  5
34D
330
1F
100
AcDbEntity
  8
寸法線
 62
     6
100
AcDbCircle
 10
276.4465196111825
 20
203.7418682797074
 30
0.0
 40
2.5
  0
LINE
  5
34E
330
1F
100
AcDbEntity
  8
寸法線
  6
CENTERX2
 62
     7
100
AcDbLine
 10
322.3923250771942
 20
124.1613988178647
 30
0.0
 11
270.1576080705573
 21
214.6345825923822
 31
0.0
  0
LINE
  5
34F
330
1F
100
AcDbEntity
  8
寸法線
  6
CENTERX2
 62
     7
100
AcDbLine
 10
317.6581187811381
 20
260.0908768730776
 30
0.0
 11
317.6581187811399
 21
132.3612846561473
 31
0.0
  0
LINE
  5
350
330
1F
100
AcDbEntity
  8
寸法線
  6
CENTERX2
 62
     7
100
AcDbLine
 10
285.0979428292291
 20
258.6556110951244
 30
0.0
 11
285.0979428292291
 21
116.0123309635051
 31
0.0
  0
ELLIPSE
  5
351
330
1F
100
AcDbEntity
  8
寸法線
 62
     6
100
AcDbEllipse
 10
317.6581187811381
 20
246.1556110951244
 30
0.0
 11
2.165063509461334
 21
-6.009258394949295E-16
 31
0.0
210
0.0
220
0.0
230
-1.0
 40
0.9237604307033002
 41
0.0
 42
1.570796326794896
  0
LINE
  5
352
330
1F
100
AcDbEntity
  8
寸法線
  6
CENTERX2
 62
     7
100
AcDbLine
 10
310.8487566535888
 20
117.3554458282038
 30
0.0
 11
258.6140396469533
 21
207.8286296027218
 31
0.0
  0
LINE
  5
353
330
1F
100
AcDbEntity
  8
寸法線
  6
CENTERX2
 62
     7
100
AcDbLine
 10
306.0533783704301
 20
258.8614039652923
 30
0.0
 11
306.0533783704319
 21
125.6612846561516
 31
0.0
  0
LINE
  5
354
330
1F
100
AcDbEntity
  8
寸法線
 62
     6
100
AcDbLine
 10
321.8150407193053
 20
240.6556110951244
 30
0.0
 11
321.8150407193053
 21
251.6556110951244
 31
0.0
  0
ELLIPSE
  5
355
330
1F
100
AcDbEntity
  8
寸法線
 62
     6
100
AcDbEllipse
 10
306.0533783704301
 20
246.1556110951242
 30
0.0
 11
5.551115123125783E-16
 21
2.0
 31
0.0
210
0.0
220
0.0
230
1.0
 40
0.6825317547317127
 41
0.0
 42
3.141592653589793
  0
ELLIPSE
  5
356
330
1F
100
AcDbEntity
  8
寸法線
 62
     6
100
AcDbEllipse
 10
306.0533783704301
 20
246.1556110951242
 30
0.0
 11
-2.165063509459741
 21
6.632877831756269E-16
 31
0.0
210
0.0
220
0.0
230
1.0
 40
0.9237604307039794
 41
4.71238898038469
 42
7.853981633974483
  0
ELLIPSE
  5
357
330
1F
100
AcDbEntity
  8
寸法線
 62
     6
100
AcDbEllipse
 10
306.0533783704301
 20
246.1556110951242
 30
0.0
 11
2.165063509459969
 21
-6.009258394945508E-16
 31
0.0
210
0.0
220
0.0
230
-1.0
 40
0.9237604307038823
 41
0.0
 42
1.570796326794896
  0
LINE
  5
358
330
1F
100
AcDbEntity
  8
寸法線
 62
     6
100
AcDbLine
 10
278.5665719793307
 20
240.6556110951244
 30
0.0
 11
278.5665719793307
 21
251.6556110951244
 31
0.0
  0
CIRCLE
  5
359
330
1F
100
AcDbEntity
  8
寸法線
 62
     6
100
AcDbCircle
 10
264.8417792004767
 20
197.0418682797085
 30
0.0
 40
2.5
  0
LINE
  5
35A
330
1F
100
AcDbEntity
  8
寸法線
  6
CENTERX2
 62
     7
100
AcDbLine
 10
285.0979428292291
 20
122.2371663790159
 30
0.0
 11
241.958201262744
 21
196.957390597594
 31
0.0
  0
LINE
  5
35B
330
1F
100
AcDbEntity
  8
寸法線
  6
ByBlock
 62
     6
100
AcDbLine
 10
245.4130884648922
 20
179.4738554924352
 30
0.0
 11
239.9130884648949
 21
189.0001349340646
 31
0.0
  0
LINE
  5
35C
330
1F
100
AcDbEntity
  8
寸法線
  6
ByBlock
 62
     6
100
AcDbLine
 10
246.3928843620062
 20
180.0395409173834
 30
0.0
 11
240.8928843620089
 21
189.5658203590137
 31
0.0
  0
ELLIPSE
  5
35D
330
1F
100
AcDbEntity
  8
寸法線
 62
     6
100
AcDbEllipse
 10
247.6425158377916
 20
187.1118689474033
 30
0.0
 11
-0.9999999999999997
 21
1.732050807568878
 31
0.0
210
0.0
220
0.0
230
-1.0
 40
0.3071067811867384
 41
0.0
 42
3.141592653588935
  0
ELLIPSE
  5
35E
330
1F
100
AcDbEntity
  8
寸法線
 62
     6
100
AcDbEllipse
 10
247.6425158377916
 20
187.1118689474033
 30
0.0
 11
-0.9999999999999999
 21
1.732050807568878
 31
0.0
210
0.0
220
0.0
230
-1.0
 40
0.8727922061367409
 41
4.712388980385279
 42
7.853981633974149
  0
ELLIPSE
  5
35F
330
1F
100
AcDbEntity
  8
寸法線
 62
     6
100
AcDbEllipse
 10
247.6425158377916
 20
187.1118689474033
 30
0.0
 11
-0.9999999999999997
 21
1.732050807568878
 31
0.0
210
0.0
220
0.0
230
1.0
 40
0.8949747468305499
 41
0.0
 42
3.141592653590087
  0
LINE
  5
360
330
1F
100
AcDbEntity
  8
寸法線
  6
CENTERX2
 62
     7
100
AcDbLine
 10
323.566278081055
 20
246.1556110951244
 30
0.0
 11
261.4728447639365
 21
246.1556110951235
 31
0.0
  0
LINE
  5
361
330
1F
100
AcDbEntity
  8
寸法線
  6
CENTERX2
 62
     7
100
AcDbLine
 10
283.582500714566
 20
207.8618288906778
 30
0.0
 11
238.3569721919745
 21
181.7508578239194
 31
0.0
  0
ARC
  5
362
330
1F
100
AcDbEntity
  8
寸法線
 62
     6
100
AcDbCircle
 10
281.6213907417751
 20
200.3787285588924
 30
0.0
 40
2.0
100
AcDbArc
 50
299.9999999999852
 51
29.99999999997429
  0
ARC
  5
363
330
1F
100
AcDbEntity
  8
寸法線
 62
     6
100
AcDbCircle
 10
276.121390741782
 20
209.9050080005245
 30
0.0
 40
1.999999999999999
100
AcDbArc
 50
29.99999999996843
 51
119.9999999999852
  0
ARC
  5
364
330
1F
100
AcDbEntity
  8
寸法線
 62
     6
100
AcDbCircle
 10
280.5665719793307
 20
240.6556110951244
 30
0.0
 40
2.000000000000001
100
AcDbArc
 50
180.0
 51
270.0
  0
ARC
  5
365
330
1F
100
AcDbEntity
  8
寸法線
 62
     6
100
AcDbCircle
 10
280.5665719793307
 20
251.6556110951244
 30
0.0
 40
2.000000000000001
100
AcDbArc
 50
90.0
 51
180.0
  0
ARC
  5
366
330
1F
100
AcDbEntity
  8
寸法線
 62
     6
100
AcDbCircle
 10
242.6249351695775
 20
190.5658203590128
 30
0.0
 40
1.999999999999999
100
AcDbArc
 50
119.9999999999716
 51
209.9999999999859
  0
ARC
  5
367
330
1F
100
AcDbEntity
  8
寸法線
 62
     6
100
AcDbCircle
 10
248.1249351695757
 20
181.0395409173834
 30
0.0
 40
1.999999999999999
100
AcDbArc
 50
209.999999999968
 51
299.9999999999858
  0
ARC
  5
368
330
1F
100
AcDbEntity
  8
寸法線
 62
     6
100
AcDbCircle
 10
247.1451392724613
 20
180.4738554924343
 30
0.0
 40
1.999999999999999
100
AcDbArc
 50
209.999999999968
 51
300.0000000000038
  0
ARC
  5
369
330
1F
100
AcDbEntity
  8
寸法線
 62
     6
100
AcDbCircle
 10
241.645139272464
 20
190.0001349340637
 30
0.0
 40
1.999999999999999
100
AcDbArc
 50
120.0000000000009
 51
209.9999999999739
  0
ARC
  5
36A
330
1F
100
AcDbEntity
  8
寸法線
 62
     6
100
AcDbCircle
 10
319.8150407193053
 20
251.6556110951244
 30
0.0
 40
2.000000000000001
100
AcDbArc
 50
0.0
 51
90.0
  0
ARC
  5
36B
330
1F
100
AcDbEntity
  8
寸法線
 62
     6
100
AcDbCircle
 10
319.8150407193053
 20
240.6556110951244
 30
0.0
 40
2.000000000000001
100
AcDbArc
 50
270.0
 51
0.0
  0
ARC
  5
36C
330
1F
100
AcDbEntity
  8
寸法線
 62
     6
100
AcDbCircle
 10
320.6150407193051
 20
251.6556110951244
 30
0.0
 40
2.000000000000001
100
AcDbArc
 50
0.0
 51
90.0
  0
ARC
  5
36D
330
1F
100
AcDbEntity
  8
寸法線
 62
     6
100
AcDbCircle
 10
320.6150407193051
 20
240.6556110951244
 30
0.0
 40
2.000000000000001
100
AcDbArc
 50
270.0
 51
0.0
  0
LINE
  5
36E
330
1F
100
AcDbEntity
  8
寸法線
 62
     6
100
AcDbLine
 10
117.6035830825509
 20
227.1556624273896
 30
0.0
 11
117.6035830825505
 21
238.1556624273896
 31
0.0
  0
LINE
  5
36F
330
1F
100
AcDbEntity
  8
寸法線
 62
     6
100
AcDbLine
 10
94.13170537270082
 20
225.1556624273885
 30
0.0
 11
94.13170537270082
 21
240.1556624273885
 31
0.0
  0
ELLIPSE
  5
370
330
1F
100
AcDbEntity
  8
寸法線
 62
     6
100
AcDbEllipse
 10
112.5458262734584
 20
232.6556624273894
 30
0.0
 11
5.551115123125783E-16
 21
2.0
 31
0.0
210
0.0
220
0.0
230
1.0
 40
0.9009996613236808
 41
0.0
 42
3.141592653589541
  0
LINE
  5
371
330
1F
100
AcDbEntity
  8
寸法線
 62
     6
100
AcDbLine
 10
81.96588454066853
 20
210.9080958321138
 30
0.0
 11
60.52753640707408
 21
203.1051752396515
 31
0.0
  0
LINE
  5
372
330
1F
100
AcDbEntity
  8
寸法線
 62
     6
100
AcDbLine
 10
60.52753640707408
 20
203.1051752396515
 30
0.0
 11
45.74858473346114
 21
197.7260767368
 31
0.0
  0
LINE
  5
373
330
1F
100
AcDbEntity
  8
寸法線
 62
     6
100
AcDbLine
 10
87.09618669054328
 20
196.8127065203225
 30
0.0
 11
65.65783855695975
 21
189.0097859278621
 31
0.0
  0
LINE
  5
374
330
1F
100
AcDbEntity
  8
寸法線
 62
     6
100
AcDbLine
 10
91.66901596517675
 20
200.6054358076235
 30
0.0
 11
87.90679438860172
 21
210.9420546362726
 31
0.0
  0
LINE
  5
375
330
1F
100
AcDbEntity
  8
寸法線
 62
     6
100
AcDbLine
 10
65.65783855694747
 20
189.0097859278603
 30
0.0
 11
60.52753640707408
 21
203.1051752396515
 31
0.0
  0
LINE
  5
376
330
1F
100
AcDbEntity
  8
寸法線
 62
     6
100
AcDbLine
 10
117.6035830825509
 20
227.1556624273896
 30
0.0
 11
117.6035830825509
 21
238.1556624273896
 31
0.0
  0
LINE
  5
377
330
1F
100
AcDbEntity
  8
寸法線
 62
     6
100
AcDbLine
 10
94.13170537270082
 20
225.1556624273885
 30
0.0
 11
94.13170537270082
 21
240.1556624273885
 31
0.0
  0
ELLIPSE
  5
378
330
1F
100
AcDbEntity
  8
寸法線
 62
     6
100
AcDbEllipse
 10
112.5458262734584
 20
232.6556624273894
 30
0.0
 11
-2.349231551967022
 21
7.197094133553953E-16
 31
0.0
210
0.0
220
0.0
230
1.0
 40
0.8513422179799138
 41
4.712388980385271
 42
7.853981633973902
  0
LINE
  5
379
330
1F
100
AcDbEntity
  8
寸法線
 62
     6
100
AcDbLine
 10
85.34336886037829
 20
212.1373995911943
 30
0.0
 11
60.52753640707408
 21
203.1051752396515
 31
0.0
  0
LINE
  5
37A
330
1F
100
AcDbEntity
  8
寸法線
 62
     6
100
AcDbLine
 10
60.52753640707408
 20
203.1051752396515
 30
0.0
 11
45.74858473346114
 21
197.7260767368
 31
0.0
  0
LINE
  5
37B
330
1F
100
AcDbEntity
  8
寸法線
 62
     6
100
AcDbLine
 10
90.47367101025532
 20
198.0420102794039
 30
0.0
 11
65.65783855695975
 21
189.0097859278621
 31
0.0
  0
LINE
  5
37C
330
1F
100
AcDbEntity
  8
寸法線
 62
     6
100
AcDbLine
 10
65.65783855695975
 20
189.0097859278621
 30
0.0
 11
50.87888688334317
 21
183.6306874250113
 31
0.0
  0
LINE
  5
37D
330
1F
100
AcDbEntity
  8
寸法線
 62
     6
100
AcDbLine
 10
91.6690159651763
 20
200.6054358076258
 30
0.0
 11
87.90679438860172
 21
210.9420546362726
 31
0.0
  0
LINE
  5
37E
330
1F
100
AcDbEntity
  8
寸法線
 62
     6
100
AcDbLine
 10
65.65783855694747
 20
189.0097859278603
 30
0.0
 11
60.52753640707408
 21
203.1051752396515
 31
0.0
  0
LINE
  5
37F
330
1F
100
AcDbEntity
  8
寸法線
 62
     6
100
AcDbLine
 10
65.65783855695975
 20
189.0097859278621
 30
0.0
 11
53.36951889174645
 21
184.5372033405788
 31
0.0
  0
CIRCLE
  5
380
330
1F
100
AcDbEntity
  8
寸法線
 62
     6
100
AcDbCircle
 10
78.20966880064145
 20
232.6556624273885
 30
0.0
 40
2.5
  0
CIRCLE
  5
381
330
1F
100
AcDbEntity
  8
寸法線
 62
     6
100
AcDbCircle
 10
78.20966880064145
 20
232.6556624273885
 30
0.0
 40
2.5
  0
LINE
  5
382
330
1F
100
AcDbEntity
  8
寸法線
 62
     6
100
AcDbLine
 10
73.67829795074215
 20
240.1556624273894
 30
0.0
 11
115.6035830825509
 21
240.1556624273896
 31
0.0
  0
LINE
  5
383
330
1F
100
AcDbEntity
  8
寸法線
 62
     6
100
AcDbLine
 10
73.67829795074215
 20
225.1556624273894
 30
0.0
 11
115.6035830825509
 21
225.1556624273896
 31
0.0
  0
CIRCLE
  5
384
330
1F
100
AcDbEntity
  8
寸法線
 62
     6
100
AcDbCircle
 10
85.27738059712021
 20
204.1320485339816
 30
0.0
 40
2.5
  0
LINE
  5
385
330
1F
100
AcDbEntity
  8
寸法線
  6
CENTERX2
 62
     7
100
AcDbLine
 10
113.0930585027783
 20
127.7091015813126
 30
0.0
 11
81.0021288055492
 21
215.8782062938071
 31
0.0
  0
LINE
  5
386
330
1F
100
AcDbEntity
  8
寸法線
  6
CENTERX2
 62
     7
100
AcDbLine
 10
112.545826273457
 20
247.1111495587718
 30
0.0
 11
112.5458262734579
 21
129.2126097745695
 31
0.0
  0
LINE
  5
387
330
1F
100
AcDbEntity
  8
寸法線
  6
CENTERX2
 62
     7
100
AcDbLine
 10
78.20463567450236
 20
247.1111495587718
 30
0.0
 11
78.17796048767025
 21
120.6371663790146
 31
0.0
  0
ELLIPSE
  5
388
330
1F
100
AcDbEntity
  8
寸法線
 62
     6
100
AcDbEllipse
 10
112.5458262734584
 20
232.6556624273894
 30
0.0
 11
2.349231551962703
 21
-6.520427397912206E-16
 31
0.0
210
0.0
220
0.0
230
-1.0
 40
0.8513422179814792
 41
0.0
 42
1.570796326794703
  0
LINE
  5
389
330
1F
100
AcDbEntity
  8
寸法線
  6
CENTERX2
 62
     7
100
AcDbLine
 10
100.5011773842499
 20
123.1260316607518
 30
0.0
 11
68.41024768702266
 21
211.2951363732468
 31
0.0
  0
LINE
  5
38A
330
1F
100
AcDbEntity
  8
寸法線
  6
CENTERX2
 62
     7
100
AcDbLine
 10
99.95394515492819
 20
247.1111495587718
 30
0.0
 11
99.95394515492956
 21
124.6295398540083
 31
0.0
  0
LINE
  5
38B
330
1F
100
AcDbEntity
  8
寸法線
 62
     6
100
AcDbLine
 10
116.4722122326522
 20
227.1556624273896
 30
0.0
 11
116.4722122326522
 21
238.1556624273896
 31
0.0
  0
ELLIPSE
  5
38C
330
1F
100
AcDbEntity
  8
寸法線
 62
     6
100
AcDbEllipse
 10
99.95394515492819
 20
232.6556624273892
 30
0.0
 11
5.551115123125783E-16
 21
2.0
 31
0.0
210
0.0
220
0.0
230
1.0
 40
0.9009996613227713
 41
0.0
 42
3.141592653589793
  0
ELLIPSE
  5
38D
330
1F
100
AcDbEntity
  8
寸法線
 62
     6
100
AcDbEllipse
 10
99.95394515492819
 20
232.6556624273892
 30
0.0
 11
-2.349231551964294
 21
7.197094133545594E-16
 31
0.0
210
0.0
220
0.0
230
1.0
 40
0.8513422179809026
 41
4.71238898038469
 42
7.853981633974483
  0
ELLIPSE
  5
38E
330
1F
100
AcDbEntity
  8
寸法線
 62
     6
100
AcDbEllipse
 10
99.95394515492819
 20
232.6556624273892
 30
0.0
 11
2.349231551964522
 21
-6.520427397917255E-16
 31
0.0
210
0.0
220
0.0
230
-1.0
 40
0.85134221798082
 41
0.0
 42
3.141592653589793
  0
LINE
  5
38F
330
1F
100
AcDbEntity
  8
寸法線
 62
     6
100
AcDbLine
 10
71.67829795074215
 20
227.1556624273894
 30
0.0
 11
71.67829795074215
 21
238.1556624273894
 31
0.0
  0
CIRCLE
  5
390
330
1F
100
AcDbEntity
  8
寸法線
 62
     6
100
AcDbCircle
 10
72.68549947858958
 20
199.5489786134222
 30
0.0
 40
2.5
  0
LINE
  5
391
330
1F
100
AcDbEntity
  8
寸法線
  6
CENTERX2
 62
     7
100
AcDbLine
 10
78.1782979507426
 20
122.2371663790163
 30
0.0
 11
48.47742589789698
 21
203.8396416823712
 31
0.0
  0
LINE
  5
392
330
1F
100
AcDbEntity
  8
寸法線
  6
ByBlock
 62
     6
100
AcDbLine
 10
48.31546135512019
 20
184.8260323799323
 30
0.0
 11
44.55323977854061
 21
195.1626512085777
 31
0.0
  0
LINE
  5
393
330
1F
100
AcDbEntity
  8
寸法線
  6
ByBlock
 62
     6
100
AcDbLine
 10
48.82969144287119
 20
185.0131968254373
 30
0.0
 11
45.06746986629162
 21
195.3498156540836
 31
0.0
  0
ELLIPSE
  5
394
330
1F
100
AcDbEntity
  8
寸法線
 62
     6
100
AcDbEllipse
 10
52.68822509471795
 20
192.2705659712412
 30
0.0
 11
-0.6840402866513355
 21
1.879385241571818
 31
0.0
210
0.0
220
0.0
230
-1.0
 40
0.8838834764829928
 41
0.0
 42
3.141592653589429
  0
ELLIPSE
  5
395
330
1F
100
AcDbEntity
  8
寸法線
 62
     6
100
AcDbEllipse
 10
52.68822509471795
 20
192.2705659712412
 30
0.0
 11
2.207555553899003
 21
0.8034845121082739
 31
0.0
210
0.0
220
0.0
230
-1.0
 40
0.8513422179806219
 41
4.712388980385246
 42
7.853981633974209
  0
ELLIPSE
  5
396
330
1F
100
AcDbEntity
  8
寸法線
 62
     6
100
AcDbEllipse
 10
52.68822509471795
 20
192.2705659712412
 30
0.0
 11
-2.207555553899038
 21
-0.8034845121082865
 31
0.0
210
0.0
220
0.0
230
1.0
 40
0.8513422179806085
 41
0.0
 42
3.141592653590192
  0
LINE
  5
397
330
1F
100
AcDbEntity
  8
寸法線
  6
CENTERX2
 62
     7
100
AcDbLine
 10
119.9675120341532
 20
232.6556624273896
 30
0.0
 11
54.58457073534794
 21
232.6556624273885
 31
0.0
  0
LINE
  5
398
330
1F
100
AcDbEntity
  8
寸法線
  6
CENTERX2
 62
     7
100
AcDbLine
 10
92.26200548416102
 20
206.6742440903836
 30
0.0
 11
43.18943181818179
 21
188.8132879571349
 31
0.0
  0
ARC
  5
399
330
1F
100
AcDbEntity
  8
寸法線
 62
     6
100
AcDbCircle
 10
89.78963072360386
 20
199.9213955209757
 30
0.0
 40
2.0
100
AcDbArc
 50
289.9999999999894
 51
19.99999999996016
  0
ARC
  5
39A
330
1F
100
AcDbEntity
  8
寸法線
 62
     6
100
AcDbCircle
 10
86.02740914702929
 20
210.2580143496225
 30
0.0
 40
2.0
100
AcDbArc
 50
19.99999999994806
 51
109.9999999999891
  0
ARC
  5
39B
330
1F
100
AcDbEntity
  8
寸法線
 62
     6
100
AcDbCircle
 10
73.67829795074215
 20
227.1556624273894
 30
0.0
 40
2.000000000000001
100
AcDbArc
 50
180.0
 51
270.0
  0
ARC
  5
39C
330
1F
100
AcDbEntity
  8
寸法線
 62
     6
100
AcDbCircle
 10
73.67829795074215
 20
238.1556624273894
 30
0.0
 40
2.000000000000001
100
AcDbArc
 50
90.0
 51
180.0
  0
ARC
  5
39D
330
1F
100
AcDbEntity
  8
寸法線
 62
     6
100
AcDbCircle
 10
46.94685510786314
 20
196.0338559407342
 30
0.0
 40
2.0
100
AcDbArc
 50
109.999999999977
 51
199.9999999999828
  0
ARC
  5
39E
330
1F
100
AcDbEntity
  8
寸法線
 62
     6
100
AcDbCircle
 10
50.70907668444363
 20
185.6972371120887
 30
0.0
 40
1.999999999999999
100
AcDbArc
 50
199.9999999999774
 51
289.9999999999894
  0
ARC
  5
39F
330
1F
100
AcDbEntity
  8
寸法線
 62
     6
100
AcDbCircle
 10
50.19484659669217
 20
185.5100726665833
 30
0.0
 40
1.999999999999999
100
AcDbArc
 50
199.9999999999896
 51
289.9999999999894
  0
ARC
  5
3A0
330
1F
100
AcDbEntity
  8
寸法線
 62
     6
100
AcDbCircle
 10
46.4326250201126
 20
195.8466914952282
 30
0.0
 40
2.0
100
AcDbArc
 50
109.9999999999894
 51
199.9999999999775
  0
ARC
  5
3A1
330
1F
100
AcDbEntity
  8
寸法線
 62
     6
100
AcDbCircle
 10
114.4722122326522
 20
238.1556624273896
 30
0.0
 40
2.000000000000001
100
AcDbArc
 50
0.0
 51
90.0
  0
ARC
  5
3A2
330
1F
100
AcDbEntity
  8
寸法線
 62
     6
100
AcDbCircle
 10
114.4722122326522
 20
227.1556624273896
 30
0.0
 40
2.000000000000001
100
AcDbArc
 50
270.0
 51
0.0
  0
ARC
  5
3A3
330
1F
100
AcDbEntity
  8
寸法線
 62
     6
100
AcDbCircle
 10
115.6035830825509
 20
238.1556624273896
 30
0.0
 40
2.000000000000001
100
AcDbArc
 50
0.0
 51
90.0
  0
ARC
  5
3A4
330
1F
100
AcDbEntity
  8
寸法線
 62
     6
100
AcDbCircle
 10
115.6035830825509
 20
227.1556624273896
 30
0.0
 40
2.000000000000001
100
AcDbArc
 50
270.0
 51
0.0
  0
ELLIPSE
  5
3A5
330
1F
100
AcDbEntity
  8
寸法線
 62
     6
100
AcDbEllipse
 10
52.68822509471795
 20
192.2705659712415
 30
0.0
 11
-2.207555553899035
 21
-0.8034845121082964
 31
0.0
210
0.0
220
0.0
230
-1.0
 40
0.8513422179806084
 41
0.0
 42
3.141592653590306
  0
ELLIPSE
  5
3A6
330
1F
100
AcDbEntity
  8
寸法線
 62
     6
100
AcDbEllipse
 10
99.95394515492819
 20
232.6556624273892
 30
0.0
 11
2.349231551964522
 21
6.520427397917255E-16
 31
0.0
210
0.0
220
0.0
230
1.0
 40
0.85134221798082
 41
0.0
 42
3.141592653589793
  0
ELLIPSE
  5
3A7
330
1F
100
AcDbEntity
  8
寸法線
 62
     6
100
AcDbEllipse
 10
112.5458262734584
 20
232.6556624273894
 30
0.0
 11
2.349231551962703
 21
6.520427397912206E-16
 31
0.0
210
0.0
220
0.0
230
1.0
 40
0.8513422179814792
 41
0.0
 42
1.570796326794703
  0
ELLIPSE
  5
3A8
330
1F
100
AcDbEntity
  8
寸法線
 62
     6
100
AcDbEllipse
 10
247.6425158377893
 20
187.111868947406
 30
0.0
 11
0.9999999999980315
 21
-1.732050807570014
 31
0.0
210
0.0
220
0.0
230
1.0
 40
0.872792206136741
 41
4.712388980385391
 42
7.853981633974166
  0
ELLIPSE
  5
3A9
330
1F
100
AcDbEntity
  8
寸法線
 62
     6
100
AcDbEllipse
 10
306.0533783704301
 20
246.1556110951242
 30
0.0
 11
2.165063509459969
 21
6.009258394945508E-16
 31
0.0
210
0.0
220
0.0
230
1.0
 40
0.9237604307038823
 41
0.0
 42
1.570796326794896
  0
ELLIPSE
  5
3AA
330
1F
100
AcDbEntity
  8
寸法線
 62
     6
100
AcDbEllipse
 10
317.6581187811381
 20
246.1556110951244
 30
0.0
 11
2.165063509461334
 21
6.009258394949295E-16
 31
0.0
210
0.0
220
0.0
230
1.0
 40
0.9237604307033002
 41
0.0
 42
1.570796326794896
  0
ENDSEC
  0
SECTION
  2
OBJECTS
  0
DICTIONARY
  5
C
330
0
100
AcDbDictionary
281
     1
  3
ACAD_COLOR
350
D6
  3
ACAD_DETAILVIEWSTYLE
350
B5
  3
ACAD_GROUP
350
D
  3
ACAD_IMAGE_VARS
350
6A
  3
ACAD_LAYOUT
350
1A
  3
ACAD_MATERIAL
350
72
  3
ACAD_MLEADERSTYLE
350
3F
  3
ACAD_MLINESTYLE
350
17
  3
ACAD_PLOTSETTINGS
350
19
  3
ACAD_PLOTSTYLENAME
350
E
  3
ACAD_SCALELIST
350
40
  3
ACAD_SECTIONVIEWSTYLE
350
B6
  3
ACAD_TABLESTYLE
350
3B
  3
ACAD_VISUALSTYLE
350
2A
  3
ACDB_RECOMPOSE_DATA
350
44C
  3
AcDbVariableDictionary
350
3D
  3
APPDATA
350
71
  0
SUN
  5
80
330
29
100
AcDbSun
 90
        1
290
     0
 63
     7
421
 16777215
 40
1.0
291
     1
 91
  2455826
 92
 54000000
292
     0
 70
     2
 71
   256
280
     1
  0
DICTIONARY
  5
29B
330
2
100
AcDbDictionary
280
     1
281
     1
  3
ACAD_LAYERSTATES
360
29C
  0
DICTIONARY
  5
C0
330
BF
100
AcDbDictionary
280
     1
281
     1
  3
ADSK_XREC_LAYER_RECONCILED
360
C1
  0
DICTIONARY
  5
448
330
1F
100
AcDbDictionary
280
     1
281
     1
  3
DIM_BOUNDING_BOXES_V1
360
449
  0
DICTIONARY
  5
2CD
330
2CC
100
AcDbDictionary
280
     1
281
     1
  3
ACAD_CUSTOM_BREAKDATA
360
2CE
  0
DICTIONARY
  5
2F4
330
2F3
100
AcDbDictionary
280
     1
281
     1
  3
ACAD_CUSTOM_BREAKDATA
360
2F5
  0
DICTIONARY
  5
2FC
330
2FB
100
AcDbDictionary
280
     1
281
     1
  3
ACAD_CUSTOM_BREAKDATA
360
2FD
  0
DICTIONARY
  5
307
330
306
100
AcDbDictionary
280
     1
281
     1
  3
ACAD_CUSTOM_BREAKDATA
360
308
  0
DICTIONARY
  5
31C
330
31B
100
AcDbDictionary
280
     1
281
     1
  3
ACAD_CUSTOM_BREAKDATA
360
31D
  0
DICTIONARY
  5
31F
330
31E
100
AcDbDictionary
280
     1
281
     1
  3
ACAD_CUSTOM_BREAKDATA
360
320
  0
DICTIONARY
  5
322
330
321
100
AcDbDictionary
280
     1
281
     1
  3
ACAD_CUSTOM_BREAKDATA
360
323
  0
DICTIONARY
  5
327
330
326
100
AcDbDictionary
280
     1
281
     1
  3
ACAD_CUSTOM_BREAKDATA
360
328
  0
DICTIONARY
  5
D6
102
{ACAD_REACTORS
330
C
102
}
330
C
100
AcDbDictionary
281
     1
  0
DICTIONARY
  5
B5
102
{ACAD_REACTORS
330
C
102
}
330
C
100
AcDbDictionary
281
     1
  0
DICTIONARY
  5
D
102
{ACAD_REACTORS
330
C
102
}
330
C
100
AcDbDictionary
281
     1
  0
RASTERVARIABLES
  5
6A
102
{ACAD_REACTORS
330
C
102
}
330
C
100
AcDbRasterVariables
 90
        0
 70
     1
 71
     1
 72
     1
  0
DICTIONARY
  5
1A
102
{ACAD_REACTORS
330
C
102
}
330
C
100
AcDbDictionary
281
     1
  3
Model
350
22
  3
Sheet1
350
1E
  3
Sheet2
350
26
  0
DICTIONARY
  5
72
102
{ACAD_REACTORS
330
C
102
}
330
C
100
AcDbDictionary
281
     1
  3
ByBlock
350
74
  3
ByLayer
350
73
  3
Global
350
75
  0
DICTIONARY
  5
3F
102
{ACAD_REACTORS
330
C
102
}
330
C
100
AcDbDictionary
281
     1
  3
Annotative
350
BC
  3
Standard
350
B7
  0
DICTIONARY
  5
17
102
{ACAD_REACTORS
330
C
102
}
330
C
100
AcDbDictionary
281
     1
  3
Standard
350
18
  0
DICTIONARY
  5
19
102
{ACAD_REACTORS
330
C
102
}
330
C
100
AcDbDictionary
281
     1
  0
ACDBDICTIONARYWDFLT
  5
E
102
{ACAD_REACTORS
330
C
102
}
330
C
100
AcDbDictionary
281
     1
  3
Normal
350
F
100
AcDbDictionaryWithDefault
340
F
  0
DICTIONARY
  5
40
102
{ACAD_REACTORS
330
C
102
}
330
C
100
AcDbDictionary
281
     1
  3
A0
350
41
  3
A1
350
42
  3
A2
350
43
  3
A3
350
44
  3
A4
350
45
  3
A5
350
46
  3
A6
350
47
  3
A7
350
48
  3
A8
350
49
  3
A9
350
4A
  3
B0
350
4B
  3
B1
350
4C
  3
B2
350
4D
  3
B3
350
4E
  3
B4
350
4F
  3
B5
350
50
  3
B6
350
51
  3
B7
350
52
  3
B8
350
53
  3
B9
350
54
  3
C0
350
55
  3
C1
350
56
  3
C2
350
57
  3
C3
350
58
  3
C4
350
59
  3
C5
350
5A
  3
C6
350
5B
  3
C7
350
5C
  3
C8
350
5D
  3
C9
350
5E
  3
D0
350
5F
  3
D1
350
60
  3
D2
350
61
  0
DICTIONARY
  5
B6
102
{ACAD_REACTORS
330
C
102
}
330
C
100
AcDbDictionary
281
     1
  0
DICTIONARY
  5
3B
102
{ACAD_REACTORS
330
C
102
}
330
C
100
AcDbDictionary
281
     1
  3
Standard
350
3C
  0
DICTIONARY
  5
2A
102
{ACAD_REACTORS
330
C
102
}
330
C
100
AcDbDictionary
281
     1
  3
2dWireframe
350
2F
  3
3D Hidden
350
31
  3
3dWireframe
350
30
  3
Basic
350
32
  3
Brighten
350
36
  3
ColorChange
350
3A
  3
Conceptual
350
34
  3
Dim
350
35
  3
EdgeColorOff
350
7A
  3
Facepattern
350
39
  3
Flat
350
2B
  3
FlatWithEdges
350
2C
  3
Gouraud
350
2D
  3
GouraudWithEdges
350
2E
  3
Hidden
350
77
  3
JitterOff
350
78
  3
Linepattern
350
38
  3
OverhangOff
350
79
  3
Realistic
350
33
  3
Shaded
350
7F
  3
Shaded with edges
350
7E
  3
Shades of Gray
350
7B
  3
Sketchy
350
7C
  3
Thicken
350
37
  3
Wireframe
350
76
  3
X-Ray
350
7D
  0
XRECORD
  5
44C
102
{ACAD_REACTORS
330
C
102
}
330
C
100
AcDbXrecord
280
     1
 90
        1
330
3C
  0
DICTIONARY
  5
3D
102
{ACAD_REACTORS
330
C
102
}
330
C
100
AcDbDictionary
281
     1
  3
CANNOSCALE
350
62
  3
CMLEADERSTYLE
350
BB
  3
CTABLESTYLE
350
3E
  3
LIGHTSINBLOCKS
350
6F
  3
XCLIPFRAME
350
70
  0
DICTIONARY
  5
71
102
{ACAD_REACTORS
330
C
102
}
330
C
100
AcDbDictionary
281
     1
  0
DICTIONARY
  5
29C
102
{ACAD_REACTORS
330
29B
102
}
330
29B
100
AcDbDictionary
281
     1
  0
XRECORD
  5
C1
102
{ACAD_REACTORS
330
C0
102
}
330
C0
100
AcDbXrecord
280
     1
290
     1
  0
DICTIONARY
  5
449
102
{ACAD_REACTORS
330
448
102
}
330
448
100
AcDbDictionary
281
     1
  0
BREAKDATA
  5
2CE
102
{ACAD_REACTORS
330
2CD
102
}
330
2CD
100
AcDbBreakData
 70
     0
330
2CC
 90
       21
100
AcDbBreakPointRef
 71
     0
 72
     0
 91
       -1
 10
0.0
 20
0.0
 30
0.0
 11
0.0
 21
0.0
 31
0.0
331
2A2
 73
     2
 92
        0
100
AcDbBreakPointRef
 71
     0
 72
     0
 91
       -1
 10
0.0
 20
0.0
 30
0.0
 11
0.0
 21
0.0
 31
0.0
331
2A3
 73
     2
 92
        0
100
AcDbBreakPointRef
 71
     0
 72
     0
 91
       -1
 10
0.0
 20
0.0
 30
0.0
 11
0.0
 21
0.0
 31
0.0
331
2A4
 73
     2
 92
        0
100
AcDbBreakPointRef
 71
     0
 72
     0
 91
       -1
 10
0.0
 20
0.0
 30
0.0
 11
0.0
 21
0.0
 31
0.0
331
2A5
 73
     2
 92
        0
100
AcDbBreakPointRef
 71
     0
 72
     0
 91
       -1
 10
0.0
 20
0.0
 30
0.0
 11
0.0
 21
0.0
 31
0.0
331
0
 73
     2
 92
        0
100
AcDbBreakPointRef
 71
     0
 72
     0
 91
       -1
 10
0.0
 20
0.0
 30
0.0
 11
0.0
 21
0.0
 31
0.0
331
2A6
 73
     2
 92
        0
100
AcDbBreakPointRef
 71
     0
 72
     0
 91
       -1
 10
0.0
 20
0.0
 30
0.0
 11
0.0
 21
0.0
 31
0.0
331
2A7
 73
     2
 92
        0
100
AcDbBreakPointRef
 71
     0
 72
     0
 91
       -1
 10
0.0
 20
0.0
 30
0.0
 11
0.0
 21
0.0
 31
0.0
331
2A8
 73
     2
 92
        0
100
AcDbBreakPointRef
 71
     0
 72
     0
 91
       -1
 10
0.0
 20
0.0
 30
0.0
 11
0.0
 21
0.0
 31
0.0
331
2A9
 73
     2
 92
        0
100
AcDbBreakPointRef
 71
     0
 72
     0
 91
       -1
 10
0.0
 20
0.0
 30
0.0
 11
0.0
 21
0.0
 31
0.0
331
2AA
 73
     2
 92
        0
100
AcDbBreakPointRef
 71
     0
 72
     0
 91
       -1
 10
0.0
 20
0.0
 30
0.0
 11
0.0
 21
0.0
 31
0.0
331
0
 73
     2
 92
        0
100
AcDbBreakPointRef
 71
     0
 72
     0
 91
       -1
 10
0.0
 20
0.0
 30
0.0
 11
0.0
 21
0.0
 31
0.0
331
2AB
 73
     2
 92
        0
100
AcDbBreakPointRef
 71
     0
 72
     0
 91
       -1
 10
0.0
 20
0.0
 30
0.0
 11
0.0
 21
0.0
 31
0.0
331
2AD
 73
     2
 92
        0
100
AcDbBreakPointRef
 71
     0
 72
     0
 91
       -1
 10
0.0
 20
0.0
 30
0.0
 11
0.0
 21
0.0
 31
0.0
331
2AF
 73
     2
 92
        0
100
AcDbBreakPointRef
 71
     0
 72
     0
 91
       -1
 10
0.0
 20
0.0
 30
0.0
 11
0.0
 21
0.0
 31
0.0
331
2B0
 73
     2
 92
        0
100
AcDbBreakPointRef
 71
     0
 72
     0
 91
       -1
 10
0.0
 20
0.0
 30
0.0
 11
0.0
 21
0.0
 31
0.0
331
2B1
 73
     2
 92
        0
100
AcDbBreakPointRef
 71
     0
 72
     0
 91
       -1
 10
0.0
 20
0.0
 30
0.0
 11
0.0
 21
0.0
 31
0.0
331
2B2
 73
     2
 92
        0
100
AcDbBreakPointRef
 71
     0
 72
     0
 91
       -1
 10
0.0
 20
0.0
 30
0.0
 11
0.0
 21
0.0
 31
0.0
331
2B3
 73
     2
 92
        0
100
AcDbBreakPointRef
 71
     0
 72
     0
 91
       -1
 10
0.0
 20
0.0
 30
0.0
 11
0.0
 21
0.0
 31
0.0
331
2B4
 73
     2
 92
        0
100
AcDbBreakPointRef
 71
     0
 72
     0
 91
       -1
 10
0.0
 20
0.0
 30
0.0
 11
0.0
 21
0.0
 31
0.0
331
2B5
 73
     2
 92
        0
100
AcDbBreakPointRef
 71
     0
 72
     0
 91
       -1
 10
0.0
 20
0.0
 30
0.0
 11
0.0
 21
0.0
 31
0.0
331
2B6
 73
     2
 92
        0
  0
BREAKDATA
  5
2F5
102
{ACAD_REACTORS
330
2F4
102
}
330
2F4
100
AcDbBreakData
 70
     0
330
2F3
 90
       25
100
AcDbBreakPointRef
 71
     0
 72
     0
 91
       -1
 10
0.0
 20
0.0
 30
0.0
 11
0.0
 21
0.0
 31
0.0
331
2E9
 73
     2
 92
        0
100
AcDbBreakPointRef
 71
     0
 72
     0
 91
       -1
 10
0.0
 20
0.0
 30
0.0
 11
0.0
 21
0.0
 31
0.0
331
2EA
 73
     2
 92
        0
100
AcDbBreakPointRef
 71
     0
 72
     0
 91
       -1
 10
0.0
 20
0.0
 30
0.0
 11
0.0
 21
0.0
 31
0.0
331
2EF
 73
     2
 92
        0
100
AcDbBreakPointRef
 71
     0
 72
     0
 91
       -1
 10
0.0
 20
0.0
 30
0.0
 11
0.0
 21
0.0
 31
0.0
331
2F0
 73
     2
 92
        0
100
AcDbBreakPointRef
 71
     0
 72
     0
 91
       -1
 10
0.0
 20
0.0
 30
0.0
 11
0.0
 21
0.0
 31
0.0
331
2F1
 73
     2
 92
        0
100
AcDbBreakPointRef
 71
     0
 72
     0
 91
       -1
 10
0.0
 20
0.0
 30
0.0
 11
0.0
 21
0.0
 31
0.0
331
2F2
 73
     2
 92
        0
100
AcDbBreakPointRef
 71
     0
 72
     0
 91
       -1
 10
0.0
 20
0.0
 30
0.0
 11
0.0
 21
0.0
 31
0.0
331
2F6
 73
     2
 92
        0
100
AcDbBreakPointRef
 71
     0
 72
     0
 91
       -1
 10
0.0
 20
0.0
 30
0.0
 11
0.0
 21
0.0
 31
0.0
331
2F7
 73
     2
 92
        0
100
AcDbBreakPointRef
 71
     0
 72
     0
 91
       -1
 10
0.0
 20
0.0
 30
0.0
 11
0.0
 21
0.0
 31
0.0
331
2F8
 73
     2
 92
        0
100
AcDbBreakPointRef
 71
     0
 72
     0
 91
       -1
 10
0.0
 20
0.0
 30
0.0
 11
0.0
 21
0.0
 31
0.0
331
2F9
 73
     2
 92
        0
100
AcDbBreakPointRef
 71
     0
 72
     0
 91
       -1
 10
0.0
 20
0.0
 30
0.0
 11
0.0
 21
0.0
 31
0.0
331
2FA
 73
     2
 92
        0
100
AcDbBreakPointRef
 71
     0
 72
     0
 91
       -1
 10
0.0
 20
0.0
 30
0.0
 11
0.0
 21
0.0
 31
0.0
331
2FB
 73
     2
 92
        0
100
AcDbBreakPointRef
 71
     0
 72
     0
 91
       -1
 10
0.0
 20
0.0
 30
0.0
 11
0.0
 21
0.0
 31
0.0
331
2FE
 73
     2
 92
        0
100
AcDbBreakPointRef
 71
     0
 72
     0
 91
       -1
 10
0.0
 20
0.0
 30
0.0
 11
0.0
 21
0.0
 31
0.0
331
2FF
 73
     2
 92
        0
100
AcDbBreakPointRef
 71
     0
 72
     0
 91
       -1
 10
0.0
 20
0.0
 30
0.0
 11
0.0
 21
0.0
 31
0.0
331
300
 73
     2
 92
        0
100
AcDbBreakPointRef
 71
     0
 72
     0
 91
       -1
 10
0.0
 20
0.0
 30
0.0
 11
0.0
 21
0.0
 31
0.0
331
301
 73
     2
 92
        0
100
AcDbBreakPointRef
 71
     0
 72
     0
 91
       -1
 10
0.0
 20
0.0
 30
0.0
 11
0.0
 21
0.0
 31
0.0
331
302
 73
     2
 92
        0
100
AcDbBreakPointRef
 71
     0
 72
     0
 91
       -1
 10
0.0
 20
0.0
 30
0.0
 11
0.0
 21
0.0
 31
0.0
331
306
 73
     2
 92
        0
100
AcDbBreakPointRef
 71
     0
 72
     0
 91
       -1
 10
0.0
 20
0.0
 30
0.0
 11
0.0
 21
0.0
 31
0.0
331
309
 73
     2
 92
        0
100
AcDbBreakPointRef
 71
     0
 72
     0
 91
       -1
 10
0.0
 20
0.0
 30
0.0
 11
0.0
 21
0.0
 31
0.0
331
30A
 73
     2
 92
        0
100
AcDbBreakPointRef
 71
     0
 72
     0
 91
       -1
 10
0.0
 20
0.0
 30
0.0
 11
0.0
 21
0.0
 31
0.0
331
30B
 73
     2
 92
        0
100
AcDbBreakPointRef
 71
     0
 72
     0
 91
       -1
 10
0.0
 20
0.0
 30
0.0
 11
0.0
 21
0.0
 31
0.0
331
30C
 73
     2
 92
        0
100
AcDbBreakPointRef
 71
     0
 72
     0
 91
       -1
 10
0.0
 20
0.0
 30
0.0
 11
0.0
 21
0.0
 31
0.0
331
30D
 73
     2
 92
        0
100
AcDbBreakPointRef
 71
     0
 72
     0
 91
       -1
 10
0.0
 20
0.0
 30
0.0
 11
0.0
 21
0.0
 31
0.0
331
30E
 73
     2
 92
        0
100
AcDbBreakPointRef
 71
     0
 72
     0
 91
       -1
 10
0.0
 20
0.0
 30
0.0
 11
0.0
 21
0.0
 31
0.0
331
326
 73
     2
 92
        0
  0
BREAKDATA
  5
2FD
102
{ACAD_REACTORS
330
2FC
102
}
330
2FC
100
AcDbBreakData
 70
     0
330
2FB
 90
       25
100
AcDbBreakPointRef
 71
     0
 72
     0
 91
       -1
 10
0.0
 20
0.0
 30
0.0
 11
0.0
 21
0.0
 31
0.0
331
2E9
 73
     2
 92
        0
100
AcDbBreakPointRef
 71
     0
 72
     0
 91
       -1
 10
0.0
 20
0.0
 30
0.0
 11
0.0
 21
0.0
 31
0.0
331
2EA
 73
     2
 92
        0
100
AcDbBreakPointRef
 71
     0
 72
     0
 91
       -1
 10
0.0
 20
0.0
 30
0.0
 11
0.0
 21
0.0
 31
0.0
331
2EF
 73
     2
 92
        0
100
AcDbBreakPointRef
 71
     0
 72
     0
 91
       -1
 10
0.0
 20
0.0
 30
0.0
 11
0.0
 21
0.0
 31
0.0
331
2F0
 73
     2
 92
        0
100
AcDbBreakPointRef
 71
     0
 72
     0
 91
       -1
 10
0.0
 20
0.0
 30
0.0
 11
0.0
 21
0.0
 31
0.0
331
2F1
 73
     2
 92
        0
100
AcDbBreakPointRef
 71
     0
 72
     0
 91
       -1
 10
0.0
 20
0.0
 30
0.0
 11
0.0
 21
0.0
 31
0.0
331
2F2
 73
     2
 92
        0
100
AcDbBreakPointRef
 71
     0
 72
     0
 91
       -1
 10
0.0
 20
0.0
 30
0.0
 11
0.0
 21
0.0
 31
0.0
331
2F3
 73
     2
 92
        0
100
AcDbBreakPointRef
 71
     0
 72
     0
 91
       -1
 10
0.0
 20
0.0
 30
0.0
 11
0.0
 21
0.0
 31
0.0
331
2F6
 73
     2
 92
        0
100
AcDbBreakPointRef
 71
     0
 72
     0
 91
       -1
 10
0.0
 20
0.0
 30
0.0
 11
0.0
 21
0.0
 31
0.0
331
2F7
 73
     2
 92
        0
100
AcDbBreakPointRef
 71
     0
 72
     0
 91
       -1
 10
0.0
 20
0.0
 30
0.0
 11
0.0
 21
0.0
 31
0.0
331
2F8
 73
     2
 92
        0
100
AcDbBreakPointRef
 71
     0
 72
     0
 91
       -1
 10
0.0
 20
0.0
 30
0.0
 11
0.0
 21
0.0
 31
0.0
331
2F9
 73
     2
 92
        0
100
AcDbBreakPointRef
 71
     0
 72
     0
 91
       -1
 10
0.0
 20
0.0
 30
0.0
 11
0.0
 21
0.0
 31
0.0
331
2FA
 73
     2
 92
        0
100
AcDbBreakPointRef
 71
     0
 72
     0
 91
       -1
 10
0.0
 20
0.0
 30
0.0
 11
0.0
 21
0.0
 31
0.0
331
2FE
 73
     2
 92
        0
100
AcDbBreakPointRef
 71
     0
 72
     0
 91
       -1
 10
0.0
 20
0.0
 30
0.0
 11
0.0
 21
0.0
 31
0.0
331
2FF
 73
     2
 92
        0
100
AcDbBreakPointRef
 71
     0
 72
     0
 91
       -1
 10
0.0
 20
0.0
 30
0.0
 11
0.0
 21
0.0
 31
0.0
331
300
 73
     2
 92
        0
100
AcDbBreakPointRef
 71
     0
 72
     0
 91
       -1
 10
0.0
 20
0.0
 30
0.0
 11
0.0
 21
0.0
 31
0.0
331
301
 73
     2
 92
        0
100
AcDbBreakPointRef
 71
     0
 72
     0
 91
       -1
 10
0.0
 20
0.0
 30
0.0
 11
0.0
 21
0.0
 31
0.0
331
302
 73
     2
 92
        0
100
AcDbBreakPointRef
 71
     0
 72
     0
 91
       -1
 10
0.0
 20
0.0
 30
0.0
 11
0.0
 21
0.0
 31
0.0
331
306
 73
     2
 92
        0
100
AcDbBreakPointRef
 71
     0
 72
     0
 91
       -1
 10
0.0
 20
0.0
 30
0.0
 11
0.0
 21
0.0
 31
0.0
331
309
 73
     2
 92
        0
100
AcDbBreakPointRef
 71
     0
 72
     0
 91
       -1
 10
0.0
 20
0.0
 30
0.0
 11
0.0
 21
0.0
 31
0.0
331
30A
 73
     2
 92
        0
100
AcDbBreakPointRef
 71
     0
 72
     0
 91
       -1
 10
0.0
 20
0.0
 30
0.0
 11
0.0
 21
0.0
 31
0.0
331
30B
 73
     2
 92
        0
100
AcDbBreakPointRef
 71
     0
 72
     0
 91
       -1
 10
0.0
 20
0.0
 30
0.0
 11
0.0
 21
0.0
 31
0.0
331
30C
 73
     2
 92
        0
100
AcDbBreakPointRef
 71
     0
 72
     0
 91
       -1
 10
0.0
 20
0.0
 30
0.0
 11
0.0
 21
0.0
 31
0.0
331
30D
 73
     2
 92
        0
100
AcDbBreakPointRef
 71
     0
 72
     0
 91
       -1
 10
0.0
 20
0.0
 30
0.0
 11
0.0
 21
0.0
 31
0.0
331
30E
 73
     2
 92
        0
100
AcDbBreakPointRef
 71
     0
 72
     0
 91
       -1
 10
0.0
 20
0.0
 30
0.0
 11
0.0
 21
0.0
 31
0.0
331
326
 73
     2
 92
        0
  0
BREAKDATA
  5
308
102
{ACAD_REACTORS
330
307
102
}
330
307
100
AcDbBreakData
 70
     0
330
306
 90
       11
100
AcDbBreakPointRef
 71
     0
 72
     0
 91
       -1
 10
0.0
 20
0.0
 30
0.0
 11
0.0
 21
0.0
 31
0.0
331
2EB
 73
     2
 92
        0
100
AcDbBreakPointRef
 71
     0
 72
     0
 91
       -1
 10
0.0
 20
0.0
 30
0.0
 11
0.0
 21
0.0
 31
0.0
331
2F2
 73
     2
 92
        0
100
AcDbBreakPointRef
 71
     0
 72
     0
 91
       -1
 10
0.0
 20
0.0
 30
0.0
 11
0.0
 21
0.0
 31
0.0
331
2F3
 73
     2
 92
        0
100
AcDbBreakPointRef
 71
     0
 72
     0
 91
       -1
 10
0.0
 20
0.0
 30
0.0
 11
0.0
 21
0.0
 31
0.0
331
2FA
 73
     2
 92
        0
100
AcDbBreakPointRef
 71
     0
 72
     0
 91
       -1
 10
0.0
 20
0.0
 30
0.0
 11
0.0
 21
0.0
 31
0.0
331
2FB
 73
     2
 92
        0
100
AcDbBreakPointRef
 71
     0
 72
     0
 91
       -1
 10
0.0
 20
0.0
 30
0.0
 11
0.0
 21
0.0
 31
0.0
331
2FF
 73
     2
 92
        0
100
AcDbBreakPointRef
 71
     0
 72
     0
 91
       -1
 10
0.0
 20
0.0
 30
0.0
 11
0.0
 21
0.0
 31
0.0
331
301
 73
     2
 92
        0
100
AcDbBreakPointRef
 71
     0
 72
     0
 91
       -1
 10
0.0
 20
0.0
 30
0.0
 11
0.0
 21
0.0
 31
0.0
331
303
 73
     2
 92
        0
100
AcDbBreakPointRef
 71
     0
 72
     0
 91
       -1
 10
0.0
 20
0.0
 30
0.0
 11
0.0
 21
0.0
 31
0.0
331
304
 73
     2
 92
        0
100
AcDbBreakPointRef
 71
     0
 72
     0
 91
       -1
 10
0.0
 20
0.0
 30
0.0
 11
0.0
 21
0.0
 31
0.0
331
305
 73
     2
 92
        0
100
AcDbBreakPointRef
 71
     0
 72
     0
 91
       -1
 10
0.0
 20
0.0
 30
0.0
 11
0.0
 21
0.0
 31
0.0
331
315
 73
     2
 92
        0
  0
BREAKDATA
  5
31D
102
{ACAD_REACTORS
330
31C
102
}
330
31C
100
AcDbBreakData
 70
     0
330
31B
 90
        4
100
AcDbBreakPointRef
 71
     0
 72
     0
 91
       -1
 10
0.0
 20
0.0
 30
0.0
 11
0.0
 21
0.0
 31
0.0
331
0
 73
     2
 92
        0
100
AcDbBreakPointRef
 71
     0
 72
     0
 91
       -1
 10
0.0
 20
0.0
 30
0.0
 11
0.0
 21
0.0
 31
0.0
331
2E6
 73
     2
 92
        0
100
AcDbBreakPointRef
 71
     0
 72
     0
 91
       -1
 10
0.0
 20
0.0
 30
0.0
 11
0.0
 21
0.0
 31
0.0
331
2EB
 73
     2
 92
        0
100
AcDbBreakPointRef
 71
     0
 72
     0
 91
       -1
 10
0.0
 20
0.0
 30
0.0
 11
0.0
 21
0.0
 31
0.0
331
313
 73
     2
 92
        0
  0
BREAKDATA
  5
320
102
{ACAD_REACTORS
330
31F
102
}
330
31F
100
AcDbBreakData
 70
     0
330
31E
 90
        4
100
AcDbBreakPointRef
 71
     0
 72
     0
 91
       -1
 10
0.0
 20
0.0
 30
0.0
 11
0.0
 21
0.0
 31
0.0
331
2D2
 73
     2
 92
        0
100
AcDbBreakPointRef
 71
     0
 72
     0
 91
       -1
 10
0.0
 20
0.0
 30
0.0
 11
0.0
 21
0.0
 31
0.0
331
2DC
 73
     2
 92
        0
100
AcDbBreakPointRef
 71
     0
 72
     0
 91
       -1
 10
0.0
 20
0.0
 30
0.0
 11
0.0
 21
0.0
 31
0.0
331
2E0
 73
     2
 92
        0
100
AcDbBreakPointRef
 71
     0
 72
     0
 91
       -1
 10
0.0
 20
0.0
 30
0.0
 11
0.0
 21
0.0
 31
0.0
331
2E9
 73
     2
 92
        0
  0
BREAKDATA
  5
323
102
{ACAD_REACTORS
330
322
102
}
330
322
100
AcDbBreakData
 70
     0
330
321
 90
        3
100
AcDbBreakPointRef
 71
     0
 72
     0
 91
       -1
 10
0.0
 20
0.0
 30
0.0
 11
0.0
 21
0.0
 31
0.0
331
2E9
 73
     2
 92
        0
100
AcDbBreakPointRef
 71
     0
 72
     0
 91
       -1
 10
0.0
 20
0.0
 30
0.0
 11
0.0
 21
0.0
 31
0.0
331
30D
 73
     2
 92
        0
100
AcDbBreakPointRef
 71
     0
 72
     0
 91
       -1
 10
0.0
 20
0.0
 30
0.0
 11
0.0
 21
0.0
 31
0.0
331
31E
 73
     2
 92
        0
  0
BREAKDATA
  5
328
102
{ACAD_REACTORS
330
327
102
}
330
327
100
AcDbBreakData
 70
     0
330
326
 90
       30
100
AcDbBreakPointRef
 71
     0
 72
     0
 91
       -1
 10
0.0
 20
0.0
 30
0.0
 11
0.0
 21
0.0
 31
0.0
331
2E9
 73
     2
 92
        0
100
AcDbBreakPointRef
 71
     0
 72
     0
 91
       -1
 10
0.0
 20
0.0
 30
0.0
 11
0.0
 21
0.0
 31
0.0
331
2EA
 73
     2
 92
        0
100
AcDbBreakPointRef
 71
     0
 72
     0
 91
       -1
 10
0.0
 20
0.0
 30
0.0
 11
0.0
 21
0.0
 31
0.0
331
2EB
 73
     2
 92
        0
100
AcDbBreakPointRef
 71
     0
 72
     0
 91
       -1
 10
0.0
 20
0.0
 30
0.0
 11
0.0
 21
0.0
 31
0.0
331
2EF
 73
     2
 92
        0
100
AcDbBreakPointRef
 71
     0
 72
     0
 91
       -1
 10
0.0
 20
0.0
 30
0.0
 11
0.0
 21
0.0
 31
0.0
331
2F0
 73
     2
 92
        0
100
AcDbBreakPointRef
 71
     0
 72
     0
 91
       -1
 10
0.0
 20
0.0
 30
0.0
 11
0.0
 21
0.0
 31
0.0
331
2F1
 73
     2
 92
        0
100
AcDbBreakPointRef
 71
     0
 72
     0
 91
       -1
 10
0.0
 20
0.0
 30
0.0
 11
0.0
 21
0.0
 31
0.0
331
2F2
 73
     2
 92
        0
100
AcDbBreakPointRef
 71
     0
 72
     0
 91
       -1
 10
0.0
 20
0.0
 30
0.0
 11
0.0
 21
0.0
 31
0.0
331
2F3
 73
     2
 92
        0
100
AcDbBreakPointRef
 71
     0
 72
     0
 91
       -1
 10
0.0
 20
0.0
 30
0.0
 11
0.0
 21
0.0
 31
0.0
331
2F6
 73
     2
 92
        0
100
AcDbBreakPointRef
 71
     0
 72
     0
 91
       -1
 10
0.0
 20
0.0
 30
0.0
 11
0.0
 21
0.0
 31
0.0
331
2F7
 73
     2
 92
        0
100
AcDbBreakPointRef
 71
     0
 72
     0
 91
       -1
 10
0.0
 20
0.0
 30
0.0
 11
0.0
 21
0.0
 31
0.0
331
2F8
 73
     2
 92
        0
100
AcDbBreakPointRef
 71
     0
 72
     0
 91
       -1
 10
0.0
 20
0.0
 30
0.0
 11
0.0
 21
0.0
 31
0.0
331
2F9
 73
     2
 92
        0
100
AcDbBreakPointRef
 71
     0
 72
     0
 91
       -1
 10
0.0
 20
0.0
 30
0.0
 11
0.0
 21
0.0
 31
0.0
331
2FA
 73
     2
 92
        0
100
AcDbBreakPointRef
 71
     0
 72
     0
 91
       -1
 10
0.0
 20
0.0
 30
0.0
 11
0.0
 21
0.0
 31
0.0
331
2FB
 73
     2
 92
        0
100
AcDbBreakPointRef
 71
     0
 72
     0
 91
       -1
 10
0.0
 20
0.0
 30
0.0
 11
0.0
 21
0.0
 31
0.0
331
2FE
 73
     2
 92
        0
100
AcDbBreakPointRef
 71
     0
 72
     0
 91
       -1
 10
0.0
 20
0.0
 30
0.0
 11
0.0
 21
0.0
 31
0.0
331
2FF
 73
     2
 92
        0
100
AcDbBreakPointRef
 71
     0
 72
     0
 91
       -1
 10
0.0
 20
0.0
 30
0.0
 11
0.0
 21
0.0
 31
0.0
331
300
 73
     2
 92
        0
100
AcDbBreakPointRef
 71
     0
 72
     0
 91
       -1
 10
0.0
 20
0.0
 30
0.0
 11
0.0
 21
0.0
 31
0.0
331
301
 73
     2
 92
        0
100
AcDbBreakPointRef
 71
     0
 72
     0
 91
       -1
 10
0.0
 20
0.0
 30
0.0
 11
0.0
 21
0.0
 31
0.0
331
302
 73
     2
 92
        0
100
AcDbBreakPointRef
 71
     0
 72
     0
 91
       -1
 10
0.0
 20
0.0
 30
0.0
 11
0.0
 21
0.0
 31
0.0
331
303
 73
     2
 92
        0
100
AcDbBreakPointRef
 71
     0
 72
     0
 91
       -1
 10
0.0
 20
0.0
 30
0.0
 11
0.0
 21
0.0
 31
0.0
331
304
 73
     2
 92
        0
100
AcDbBreakPointRef
 71
     0
 72
     0
 91
       -1
 10
0.0
 20
0.0
 30
0.0
 11
0.0
 21
0.0
 31
0.0
331
305
 73
     2
 92
        0
100
AcDbBreakPointRef
 71
     0
 72
     0
 91
       -1
 10
0.0
 20
0.0
 30
0.0
 11
0.0
 21
0.0
 31
0.0
331
306
 73
     2
 92
        0
100
AcDbBreakPointRef
 71
     0
 72
     0
 91
       -1
 10
0.0
 20
0.0
 30
0.0
 11
0.0
 21
0.0
 31
0.0
331
309
 73
     2
 92
        0
100
AcDbBreakPointRef
 71
     0
 72
     0
 91
       -1
 10
0.0
 20
0.0
 30
0.0
 11
0.0
 21
0.0
 31
0.0
331
30A
 73
     2
 92
        0
100
AcDbBreakPointRef
 71
     0
 72
     0
 91
       -1
 10
0.0
 20
0.0
 30
0.0
 11
0.0
 21
0.0
 31
0.0
331
30B
 73
     2
 92
        0
100
AcDbBreakPointRef
 71
     0
 72
     0
 91
       -1
 10
0.0
 20
0.0
 30
0.0
 11
0.0
 21
0.0
 31
0.0
331
30C
 73
     2
 92
        0
100
AcDbBreakPointRef
 71
     0
 72
     0
 91
       -1
 10
0.0
 20
0.0
 30
0.0
 11
0.0
 21
0.0
 31
0.0
331
30D
 73
     2
 92
        0
100
AcDbBreakPointRef
 71
     0
 72
     0
 91
       -1
 10
0.0
 20
0.0
 30
0.0
 11
0.0
 21
0.0
 31
0.0
331
30E
 73
     2
 92
        0
100
AcDbBreakPointRef
 71
     0
 72
     0
 91
       -1
 10
0.0
 20
0.0
 30
0.0
 11
0.0
 21
0.0
 31
0.0
331
315
 73
     2
 92
        0
  0
LAYOUT
  5
22
102
{ACAD_REACTORS
330
1A
102
}
330
1A
100
AcDbPlotSettings
  1

  2
none_device
  4
ISO_A3_(420.00_x_297.00_MM)
  6

 40
7.5
 41
20.0
 42
7.5
 43
20.0
 44
420.0
 45
297.0
 46
20.78282828282826
 47
0.0
 48
0.0
 49
0.0
140
0.0
141
0.0
142
1.0
143
1.155642023346303
 70
  1204
 72
     1
 73
     0
 74
     1
  7
monochrome.ctb
 75
     0
 76
     0
 77
     2
 78
   300
147
0.8653198653198654
148
-134.1869158878504
149
0.0
100
AcDbLayout
  1
Model
 70
     1
 71
     0
 10
0.0
 20
0.0
 11
420.0
 21
297.0
 12
0.0
 22
0.0
 32
0.0
 14
43.18943181818179
 24
73.48151275478304
 34
0.0
 15
577.288783331502
 25
260.0908768730776
 35
0.0
146
0.0
 13
0.0
 23
0.0
 33
0.0
 16
1.0
 26
0.0
 36
0.0
 17
0.0
 27
1.0
 37
0.0
 76
     0
330
1F
331
29
  0
LAYOUT
  5
1E
102
{ACAD_REACTORS
330
1A
102
}
330
1A
100
AcDbPlotSettings
  1

  2
none_device
  4

  6

 40
0.0
 41
0.0
 42
0.0
 43
0.0
 44
0.0
 45
0.0
 46
0.0
 47
0.0
 48
0.0
 49
0.0
140
0.0
141
0.0
142
1.0
143
1.0
 70
   688
 72
     0
 73
     0
 74
     5
  7

 75
    16
 76
     0
 77
     2
 78
   300
147
1.0
148
0.0
149
0.0
100
AcDbLayout
  1
Sheet1
 70
     1
 71
     1
 10
0.0
 20
0.0
 11
420.0
 21
297.0
 12
0.0
 22
0.0
 32
0.0
 14
1.000000000000000E+20
 24
1.000000000000000E+20
 34
1.000000000000000E+20
 15
-1.000000000000000E+20
 25
-1.000000000000000E+20
 35
-1.000000000000000E+20
146
0.0
 13
0.0
 23
0.0
 33
0.0
 16
1.0
 26
0.0
 36
0.0
 17
0.0
 27
1.0
 37
0.0
 76
     0
330
1B
  0
LAYOUT
  5
26
102
{ACAD_REACTORS
330
1A
102
}
330
1A
100
AcDbPlotSettings
  1

  2
none_device
  4

  6

 40
0.0
 41
0.0
 42
0.0
 43
0.0
 44
0.0
 45
0.0
 46
0.0
 47
0.0
 48
0.0
 49
0.0
140
0.0
141
0.0
142
1.0
143
1.0
 70
   688
 72
     0
 73
     0
 74
     5
  7

 75
    16
 76
     0
 77
     2
 78
   300
147
1.0
148
0.0
149
0.0
100
AcDbLayout
  1
Sheet2
 70
     1
 71
     2
 10
0.0
 20
0.0
 11
0.0
 21
0.0
 12
0.0
 22
0.0
 32
0.0
 14
0.0
 24
0.0
 34
0.0
 15
0.0
 25
0.0
 35
0.0
146
0.0
 13
0.0
 23
0.0
 33
0.0
 16
1.0
 26
0.0
 36
0.0
 17
0.0
 27
1.0
 37
0.0
 76
     0
330
23
  0
MATERIAL
  5
74
102
{ACAD_REACTORS
330
72
102
}
330
72
100
AcDbMaterial
  1
ByBlock
 72
     1
 94
      127
  0
MATERIAL
  5
73
102
{ACAD_REACTORS
330
72
102
}
330
72
100
AcDbMaterial
  1
ByLayer
 72
     1
 94
      127
  0
MATERIAL
  5
75
102
{ACAD_REACTORS
330
72
102
}
330
72
100
AcDbMaterial
  1
Global
 72
     1
 94
      127
  0
MLEADERSTYLE
  5
BC
102
{ACAD_REACTORS
330
3F
102
}
330
3F
100
AcDbMLeaderStyle
179
     2
170
     2
171
     1
172
     0
 90
        2
 40
0.0
 41
0.0
173
     1
 91
-1056964608
340
14
 92
       -2
290
     1
 42
2.0
291
     1
 43
8.0
  3
Annotative
341
0
 44
4.0
300

342
11
174
     1
178
     1
175
     1
176
     0
 93
-1056964608
 45
4.0
292
     0
297
     0
 46
4.0
343
0
 94
-1056964608
 47
1.0
 49
1.0
140
1.0
293
     1
141
0.0
294
     1
177
     0
142
1.0
295
     0
296
     1
143
3.75
271
     0
272
     9
273
     9
298
     0
  0
MLEADERSTYLE
  5
B7
102
{ACAD_REACTORS
330
3F
102
}
330
3F
100
AcDbMLeaderStyle
179
     2
170
     2
171
     1
172
     0
 90
        2
 40
0.0
 41
0.0
173
     1
 91
-1056964608
340
14
 92
       -2
290
     1
 42
2.0
291
     1
 43
8.0
  3
Standard
341
0
 44
4.0
300

342
11
174
     1
178
     6
175
     1
176
     0
 93
-1056964608
 45
4.0
292
     0
297
     0
 46
4.0
343
0
 94
-1056964608
 47
1.0
 49
1.0
140
1.0
293
     1
141
0.0
294
     1
177
     0
142
1.0
295
     0
296
     0
143
3.75
271
     0
272
     9
273
     9
298
     0
  0
MLINESTYLE
  5
18
102
{ACAD_REACTORS
330
17
102
}
330
17
100
AcDbMlineStyle
  2
Standard
 70
     0
  3

 62
   256
 51
90.0
 52
90.0
 71
     2
 49
0.5
 62
   256
  6
BYLAYER
 49
-0.5
 62
   256
  6
BYLAYER
  0
ACDBPLACEHOLDER
  5
F
102
{ACAD_REACTORS
330
E
102
}
330
E
  0
SCALE
  5
41
102
{ACAD_REACTORS
330
40
102
}
330
40
100
AcDbScale
 70
     0
300
1:1
140
1.0
141
1.0
290
     1
  0
SCALE
  5
42
102
{ACAD_REACTORS
330
40
102
}
330
40
100
AcDbScale
 70
     0
300
1:2
140
1.0
141
2.0
290
     0
  0
SCALE
  5
43
102
{ACAD_REACTORS
330
40
102
}
330
40
100
AcDbScale
 70
     0
300
1:4
140
1.0
141
4.0
290
     0
  0
SCALE
  5
44
102
{ACAD_REACTORS
330
40
102
}
330
40
100
AcDbScale
 70
     0
300
1:5
140
1.0
141
5.0
290
     0
  0
SCALE
  5
45
102
{ACAD_REACTORS
330
40
102
}
330
40
100
AcDbScale
 70
     0
300
1:8
140
1.0
141
8.0
290
     0
  0
SCALE
  5
46
102
{ACAD_REACTORS
330
40
102
}
330
40
100
AcDbScale
 70
     0
300
1:10
140
1.0
141
10.0
290
     0
  0
SCALE
  5
47
102
{ACAD_REACTORS
330
40
102
}
330
40
100
AcDbScale
 70
     0
300
1:16
140
1.0
141
16.0
290
     0
  0
SCALE
  5
48
102
{ACAD_REACTORS
330
40
102
}
330
40
100
AcDbScale
 70
     0
300
1:20
140
1.0
141
20.0
290
     0
  0
SCALE
  5
49
102
{ACAD_REACTORS
330
40
102
}
330
40
100
AcDbScale
 70
     0
300
1:30
140
1.0
141
30.0
290
     0
  0
SCALE
  5
4A
102
{ACAD_REACTORS
330
40
102
}
330
40
100
AcDbScale
 70
     0
300
1:40
140
1.0
141
40.0
290
     0
  0
SCALE
  5
4B
102
{ACAD_REACTORS
330
40
102
}
330
40
100
AcDbScale
 70
     0
300
1:50
140
1.0
141
50.0
290
     0
  0
SCALE
  5
4C
102
{ACAD_REACTORS
330
40
102
}
330
40
100
AcDbScale
 70
     0
300
1:100
140
1.0
141
100.0
290
     0
  0
SCALE
  5
4D
102
{ACAD_REACTORS
330
40
102
}
330
40
100
AcDbScale
 70
     0
300
2:1
140
2.0
141
1.0
290
     0
  0
SCALE
  5
4E
102
{ACAD_REACTORS
330
40
102
}
330
40
100
AcDbScale
 70
     0
300
4:1
140
4.0
141
1.0
290
     0
  0
SCALE
  5
4F
102
{ACAD_REACTORS
330
40
102
}
330
40
100
AcDbScale
 70
     0
300
8:1
140
8.0
141
1.0
290
     0
  0
SCALE
  5
50
102
{ACAD_REACTORS
330
40
102
}
330
40
100
AcDbScale
 70
     0
300
10:1
140
10.0
141
1.0
290
     0
  0
SCALE
  5
51
102
{ACAD_REACTORS
330
40
102
}
330
40
100
AcDbScale
 70
     0
300
100:1
140
100.0
141
1.0
290
     0
  0
SCALE
  5
52
102
{ACAD_REACTORS
330
40
102
}
330
40
100
AcDbScale
 70
     0
300
1/128" = 1'-0"
140
0.0078125
141
12.0
290
     0
  0
SCALE
  5
53
102
{ACAD_REACTORS
330
40
102
}
330
40
100
AcDbScale
 70
     0
300
1/64" = 1'-0"
140
0.015625
141
12.0
290
     0
  0
SCALE
  5
54
102
{ACAD_REACTORS
330
40
102
}
330
40
100
AcDbScale
 70
     0
300
1/32" = 1'-0"
140
0.03125
141
12.0
290
     0
  0
SCALE
  5
55
102
{ACAD_REACTORS
330
40
102
}
330
40
100
AcDbScale
 70
     0
300
1/16" = 1'-0"
140
0.0625
141
12.0
290
     0
  0
SCALE
  5
56
102
{ACAD_REACTORS
330
40
102
}
330
40
100
AcDbScale
 70
     0
300
3/32" = 1'-0"
140
0.09375
141
12.0
290
     0
  0
SCALE
  5
57
102
{ACAD_REACTORS
330
40
102
}
330
40
100
AcDbScale
 70
     0
300
1/8" = 1'-0"
140
0.125
141
12.0
290
     0
  0
SCALE
  5
58
102
{ACAD_REACTORS
330
40
102
}
330
40
100
AcDbScale
 70
     0
300
3/16" = 1'-0"
140
0.1875
141
12.0
290
     0
  0
SCALE
  5
59
102
{ACAD_REACTORS
330
40
102
}
330
40
100
AcDbScale
 70
     0
300
1/4" = 1'-0"
140
0.25
141
12.0
290
     0
  0
SCALE
  5
5A
102
{ACAD_REACTORS
330
40
102
}
330
40
100
AcDbScale
 70
     0
300
3/8" = 1'-0"
140
0.375
141
12.0
290
     0
  0
SCALE
  5
5B
102
{ACAD_REACTORS
330
40
102
}
330
40
100
AcDbScale
 70
     0
300
1/2" = 1'-0"
140
0.5
141
12.0
290
     0
  0
SCALE
  5
5C
102
{ACAD_REACTORS
330
40
102
}
330
40
100
AcDbScale
 70
     0
300
3/4" = 1'-0"
140
0.75
141
12.0
290
     0
  0
SCALE
  5
5D
102
{ACAD_REACTORS
330
40
102
}
330
40
100
AcDbScale
 70
     0
300
1" = 1'-0"
140
1.0
141
12.0
290
     0
  0
SCALE
  5
5E
102
{ACAD_REACTORS
330
40
102
}
330
40
100
AcDbScale
 70
     0
300
1-1/2" = 1'-0"
140
1.5
141
12.0
290
     0
  0
SCALE
  5
5F
102
{ACAD_REACTORS
330
40
102
}
330
40
100
AcDbScale
 70
     0
300
3" = 1'-0"
140
3.0
141
12.0
290
     0
  0
SCALE
  5
60
102
{ACAD_REACTORS
330
40
102
}
330
40
100
AcDbScale
 70
     0
300
6" = 1'-0"
140
6.0
141
12.0
290
     0
  0
SCALE
  5
61
102
{ACAD_REACTORS
330
40
102
}
330
40
100
AcDbScale
 70
     0
300
1'-0" = 1'-0"
140
12.0
141
12.0
290
     0
  0
TABLESTYLE
  5
3C
102
{ACAD_REACTORS
330
3B
102
}
102
{ACAD_XDICTIONARY
360
44A
102
}
330
3B
100
AcDbTableStyle
  3
Standard
 70
     0
 71
     0
 40
1.5
 41
1.5
280
     0
281
     0
  7
Standard
140
4.5
170
     2
 62
     0
 63
   257
283
     0
 90
      512
 91
        0
  1

274
    -2
284
     1
 64
     0
275
    -2
285
     1
 65
     0
276
    -2
286
     1
 66
     0
277
    -2
287
     1
 67
     0
278
    -2
288
     1
 68
     0
279
    -2
289
     1
 69
     0
  7
Standard
140
6.0
170
     5
 62
     0
 63
   257
283
     0
 90
      512
 91
        0
  1

274
    -2
284
     1
 64
     0
275
    -2
285
     1
 65
     0
276
    -2
286
     1
 66
     0
277
    -2
287
     1
 67
     0
278
    -2
288
     1
 68
     0
279
    -2
289
     1
 69
     0
  7
Standard
140
4.5
170
     5
 62
     0
 63
   257
283
     0
 90
      512
 91
        0
  1

274
    -2
284
     1
 64
     0
275
    -2
285
     1
 65
     0
276
    -2
286
     1
 66
     0
277
    -2
287
     1
 67
     0
278
    -2
288
     1
 68
     0
279
    -2
289
     1
 69
     0
  0
VISUALSTYLE
  5
2F
102
{ACAD_REACTORS
330
2A
102
}
330
2A
100
AcDbVisualStyle
  2
2dWireframe
 70
     4
177
     3
291
     0
 70
    58
 90
        0
176
     1
 90
        2
176
     1
 90
        0
176
     1
 90
        0
176
     1
 40
-0.6
176
     1
 40
-30.0
176
     1
 62
     7
420
 16777215
176
     1
 90
        1
176
     1
 90
        4
176
     1
 62
     7
176
     1
 62
   257
176
     1
 90
        1
176
     1
 90
        1
176
     1
 40
1.0
176
     1
 90
        0
176
     1
 62
   257
176
     1
 40
1.0
176
     1
 90
        1
176
     1
 90
        6
176
     1
 90
        2
176
     1
 62
     7
176
     1
 90
        5
176
     1
 90
        0
176
     1
 90
        0
176
     1
290
     0
176
     1
 90
        1
176
     1
 40
0.0
176
     1
 90
        0
176
     1
290
     1
176
     1
290
     1
176
     1
290
     0
176
     1
290
     0
176
     1
290
     0
176
     1
290
     0
176
     1
290
     0
176
     1
290
     0
176
     1
290
     0
176
     1
 90
       50
176
     1
 40
0.0
176
     1
 40
1.0
176
     1
 90
        0
176
     1
 62
    18
420
        0
176
     1
 90
       50
176
     1
 90
        3
176
     1
 62
     5
420
      255
176
     1
290
     0
176
     1
 90
       50
176
     1
 90
       50
176
     1
 90
       50
176
     1
290
     0
176
     1
 90
       50
176
     1
 62
   256
176
     0
 40
1.0
176
     0
 90
        2
176
     1
  1
strokes_ogs.tif
176
     1
290
     0
176
     1
 40
1.0
176
     1
 40
1.0
176
     1
  0
VISUALSTYLE
  5
31
102
{ACAD_REACTORS
330
2A
102
}
330
2A
100
AcDbVisualStyle
  2
3D Hidden
 70
     6
177
     3
291
     0
 70
    58
 90
        1
176
     1
 90
        2
176
     1
 90
        2
176
     1
 90
        0
176
     1
 40
-0.6
176
     1
 40
-30.0
176
     1
 62
     7
420
 16777215
176
     1
 90
        2
176
     1
 90
        2
176
     1
 62
     7
176
     1
 62
   257
176
     1
 90
        2
176
     1
 90
        1
176
     1
 40
40.0
176
     1
 90
        0
176
     1
 62
   257
176
     1
 40
1.0
176
     1
 90
        1
176
     1
 90
        6
176
     1
 90
        2
176
     1
 62
     7
176
     1
 90
        3
176
     1
 90
        0
176
     1
 90
        0
176
     1
290
     0
176
     1
 90
        1
176
     1
 40
0.0
176
     1
 90
        0
176
     1
290
     0
176
     1
290
     1
176
     1
290
     1
176
     1
290
     0
176
     1
290
     0
176
     1
290
     0
176
     1
290
     0
176
     1
290
     0
176
     1
290
     0
176
     1
 90
       50
176
     1
 40
0.0
176
     1
 40
1.0
176
     1
 90
        0
176
     1
 62
    18
420
        0
176
     1
 90
       50
176
     1
 90
        3
176
     1
 62
     5
420
      255
176
     1
290
     0
176
     1
 90
       50
176
     1
 90
       50
176
     1
 90
       50
176
     1
290
     0
176
     1
 90
       50
176
     1
 62
   256
176
     0
 40
1.0
176
     0
 90
        2
176
     1
  1
strokes_ogs.tif
176
     1
290
     0
176
     1
 40
1.0
176
     1
 40
1.0
176
     1
  0
VISUALSTYLE
  5
30
102
{ACAD_REACTORS
330
2A
102
}
330
2A
100
AcDbVisualStyle
  2
3dWireframe
 70
     5
177
     3
291
     0
 70
    58
 90
        0
176
     1
 90
        2
176
     1
 90
        0
176
     1
 90
        0
176
     1
 40
-0.6
176
     1
 40
-30.0
176
     1
 62
     7
420
 16777215
176
     1
 90
        1
176
     1
 90
        4
176
     1
 62
     7
176
     1
 62
   257
176
     1
 90
        1
176
     1
 90
        1
176
     1
 40
1.0
176
     1
 90
        0
176
     1
 62
   257
176
     1
 40
1.0
176
     1
 90
        1
176
     1
 90
        6
176
     1
 90
        2
176
     1
 62
     7
176
     1
 90
        5
176
     1
 90
        0
176
     1
 90
        0
176
     1
290
     0
176
     1
 90
        1
176
     1
 40
0.0
176
     1
 90
        0
176
     1
290
     0
176
     1
290
     1
176
     1
290
     1
176
     1
290
     0
176
     1
290
     0
176
     1
290
     0
176
     1
290
     0
176
     1
290
     0
176
     1
290
     0
176
     1
 90
       50
176
     1
 40
0.0
176
     1
 40
1.0
176
     1
 90
        0
176
     1
 62
    18
420
        0
176
     1
 90
       50
176
     1
 90
        3
176
     1
 62
     5
420
      255
176
     1
290
     0
176
     1
 90
       50
176
     1
 90
       50
176
     1
 90
       50
176
     1
290
     0
176
     1
 90
       50
176
     1
 62
   256
176
     0
 40
1.0
176
     0
 90
        2
176
     1
  1
strokes_ogs.tif
176
     1
290
     0
176
     1
 40
1.0
176
     1
 40
1.0
176
     1
  0
VISUALSTYLE
  5
32
102
{ACAD_REACTORS
330
2A
102
}
330
2A
100
AcDbVisualStyle
  2
Basic
 70
     7
177
     3
291
     1
 70
    58
 90
        1
176
     1
 90
        0
176
     1
 90
        1
176
     1
 90
        0
176
     1
 40
-0.6
176
     1
 40
-30.0
176
     1
 62
     7
420
 16777215
176
     1
 90
        0
176
     1
 90
        4
176
     1
 62
     7
176
     1
 62
   257
176
     1
 90
        1
176
     1
 90
        1
176
     1
 40
1.0
176
     1
 90
        8
176
     1
 62
     7
176
     1
 40
1.0
176
     1
 90
        1
176
     1
 90
        6
176
     1
 90
        2
176
     1
 62
     7
176
     1
 90
        5
176
     1
 90
        0
176
     1
 90
        0
176
     1
290
     0
176
     1
 90
        1
176
     1
 40
0.0
176
     1
 90
        0
176
     1
290
     0
176
     1
290
     1
176
     1
290
     1
176
     1
290
     0
176
     1
290
     0
176
     1
290
     0
176
     1
290
     0
176
     1
290
     0
176
     1
290
     0
176
     1
 90
       50
176
     1
 40
0.0
176
     1
 40
1.0
176
     1
 90
        0
176
     1
 62
    18
420
        0
176
     1
 90
       50
176
     1
 90
        3
176
     1
 62
     5
420
      255
176
     1
290
     0
176
     1
 90
       50
176
     1
 90
       50
176
     1
 90
       50
176
     1
290
     0
176
     1
 90
       50
176
     1
 62
   256
176
     0
 40
1.0
176
     0
 90
        2
176
     1
  1
strokes_ogs.tif
176
     1
290
     0
176
     1
 40
1.0
176
     1
 40
1.0
176
     1
  0
VISUALSTYLE
  5
36
102
{ACAD_REACTORS
330
2A
102
}
330
2A
100
AcDbVisualStyle
  2
Brighten
 70
    12
177
     3
291
     1
 70
    58
 90
        2
176
     1
 90
        2
176
     1
 90
        0
176
     1
 90
        0
176
     1
 40
-0.6
176
     1
 40
-30.0
176
     1
 62
     7
420
 16777215
176
     1
 90
        1
176
     1
 90
        4
176
     1
 62
     7
176
     1
 62
   257
176
     1
 90
        1
176
     1
 90
        1
176
     1
 40
1.0
176
     1
 90
        8
176
     1
 62
     7
176
     1
 40
1.0
176
     1
 90
        1
176
     1
 90
        6
176
     1
 90
        2
176
     1
 62
     7
176
     1
 90
        5
176
     1
 90
        0
176
     1
 90
        0
176
     1
290
     0
176
     1
 90
        1
176
     1
 40
50.0
176
     1
 90
        0
176
     1
290
     0
176
     1
290
     1
176
     1
290
     1
176
     1
290
     0
176
     1
290
     0
176
     1
290
     0
176
     1
290
     0
176
     1
290
     0
176
     1
290
     0
176
     1
 90
       50
176
     1
 40
0.0
176
     1
 40
1.0
176
     1
 90
        0
176
     1
 62
    18
420
        0
176
     1
 90
       50
176
     1
 90
        3
176
     1
 62
     5
420
      255
176
     1
290
     0
176
     1
 90
       50
176
     1
 90
       50
176
     1
 90
       50
176
     1
290
     0
176
     1
 90
       50
176
     1
 62
   256
176
     0
 40
1.0
176
     0
 90
        2
176
     1
  1
strokes_ogs.tif
176
     1
290
     0
176
     1
 40
1.0
176
     1
 40
1.0
176
     1
  0
VISUALSTYLE
  5
3A
102
{ACAD_REACTORS
330
2A
102
}
330
2A
100
AcDbVisualStyle
  2
ColorChange
 70
    16
177
     3
291
     1
 70
    58
 90
        2
176
     1
 90
        2
176
     1
 90
        3
176
     1
 90
        0
176
     1
 40
-0.6
176
     1
 40
-30.0
176
     1
 62
     8
420
  8421504
176
     1
 90
        1
176
     1
 90
        4
176
     1
 62
     7
176
     1
 62
   257
176
     1
 90
        1
176
     1
 90
        1
176
     1
 40
1.0
176
     1
 90
        8
176
     1
 62
     8
420
  8421504
176
     1
 40
1.0
176
     1
 90
        1
176
     1
 90
        6
176
     1
 90
        2
176
     1
 62
     7
176
     1
 90
        5
176
     1
 90
        0
176
     1
 90
        0
176
     1
290
     0
176
     1
 90
        1
176
     1
 40
0.0
176
     1
 90
        0
176
     1
290
     0
176
     1
290
     1
176
     1
290
     1
176
     1
290
     0
176
     1
290
     0
176
     1
290
     0
176
     1
290
     0
176
     1
290
     0
176
     1
290
     0
176
     1
 90
       50
176
     1
 40
0.0
176
     1
 40
1.0
176
     1
 90
        0
176
     1
 62
    18
420
        0
176
     1
 90
       50
176
     1
 90
        3
176
     1
 62
     5
420
      255
176
     1
290
     0
176
     1
 90
       50
176
     1
 90
       50
176
     1
 90
       50
176
     1
290
     0
176
     1
 90
       50
176
     1
 62
   256
176
     0
 40
1.0
176
     0
 90
        2
176
     1
  1
strokes_ogs.tif
176
     1
290
     0
176
     1
 40
1.0
176
     1
 40
1.0
176
     1
  0
VISUALSTYLE
  5
34
102
{ACAD_REACTORS
330
2A
102
}
330
2A
100
AcDbVisualStyle
  2
Conceptual
 70
     9
177
     3
291
     0
 70
    58
 90
        3
176
     1
 90
        2
176
     1
 90
        0
176
     1
 90
        0
176
     1
 40
-0.6
176
     1
 40
-30.0
176
     1
 62
     7
420
 16777215
176
     1
 90
        2
176
     1
 90
        2
176
     1
 62
     7
176
     1
 62
   257
176
     1
 90
        1
176
     1
 90
        1
176
     1
 40
40.0
176
     1
 90
        8
176
     1
 62
     7
176
     1
 40
1.0
176
     1
 90
        1
176
     1
 90
        6
176
     1
 90
        2
176
     1
 62
     7
176
     1
 90
        3
176
     1
 90
        0
176
     1
 90
        0
176
     1
290
     0
176
     1
 90
        1
176
     1
 40
0.0
176
     1
 90
        0
176
     1
290
     0
176
     1
290
     1
176
     1
290
     1
176
     1
290
     0
176
     1
290
     0
176
     1
290
     0
176
     1
290
     0
176
     1
290
     0
176
     1
290
     0
176
     1
 90
       50
176
     1
 40
0.0
176
     1
 40
1.0
176
     1
 90
        0
176
     1
 62
    18
420
        0
176
     1
 90
       50
176
     1
 90
        3
176
     1
 62
     5
420
      255
176
     1
290
     0
176
     1
 90
       50
176
     1
 90
       50
176
     1
 90
       50
176
     1
290
     0
176
     1
 90
       50
176
     1
 62
   256
176
     0
 40
1.0
176
     0
 90
        2
176
     1
  1
strokes_ogs.tif
176
     1
290
     0
176
     1
 40
1.0
176
     1
 40
1.0
176
     1
  0
VISUALSTYLE
  5
35
102
{ACAD_REACTORS
330
2A
102
}
330
2A
100
AcDbVisualStyle
  2
Dim
 70
    11
177
     3
291
     1
 70
    58
 90
        2
176
     1
 90
        2
176
     1
 90
        0
176
     1
 90
        0
176
     1
 40
-0.6
176
     1
 40
-30.0
176
     1
 62
     7
420
 16777215
176
     1
 90
        1
176
     1
 90
        4
176
     1
 62
     7
176
     1
 62
   257
176
     1
 90
        1
176
     1
 90
        1
176
     1
 40
1.0
176
     1
 90
        8
176
     1
 62
     7
176
     1
 40
1.0
176
     1
 90
        1
176
     1
 90
        6
176
     1
 90
        2
176
     1
 62
     7
176
     1
 90
        5
176
     1
 90
        0
176
     1
 90
        0
176
     1
290
     0
176
     1
 90
        1
176
     1
 40
-50.0
176
     1
 90
        0
176
     1
290
     0
176
     1
290
     1
176
     1
290
     1
176
     1
290
     0
176
     1
290
     0
176
     1
290
     0
176
     1
290
     0
176
     1
290
     0
176
     1
290
     0
176
     1
 90
       50
176
     1
 40
0.0
176
     1
 40
1.0
176
     1
 90
        0
176
     1
 62
    18
420
        0
176
     1
 90
       50
176
     1
 90
        3
176
     1
 62
     5
420
      255
176
     1
290
     0
176
     1
 90
       50
176
     1
 90
       50
176
     1
 90
       50
176
     1
290
     0
176
     1
 90
       50
176
     1
 62
   256
176
     0
 40
1.0
176
     0
 90
        2
176
     1
  1
strokes_ogs.tif
176
     1
290
     0
176
     1
 40
1.0
176
     1
 40
1.0
176
     1
  0
VISUALSTYLE
  5
7A
102
{ACAD_REACTORS
330
2A
102
}
330
2A
100
AcDbVisualStyle
  2
EdgeColorOff
 70
    22
177
     3
291
     1
 70
    58
 90
        2
176
     0
 90
        2
176
     0
 90
        0
176
     0
 90
        0
176
     0
 40
0.6
176
     0
 40
30.0
176
     0
 62
     7
420
 16777215
176
     0
 90
        1
176
     0
 90
        4
176
     0
 62
     7
176
     0
 62
   257
176
     0
 90
        1
176
     0
 90
        1
176
     0
 40
1.0
176
     0
 90
        8
176
     2
 62
     7
176
     0
 40
1.0
176
     0
 90
        1
176
     0
 90
        6
176
     0
 90
        2
176
     0
 62
     7
176
     0
 90
        5
176
     0
 90
        0
176
     0
 90
        0
176
     0
290
     0
176
     0
 90
        1
176
     0
 40
0.0
176
     0
 90
        0
176
     0
290
     0
176
     0
290
     1
176
     0
290
     1
176
     0
290
     0
176
     0
290
     0
176
     0
290
     0
176
     0
290
     0
176
     0
290
     0
176
     0
290
     0
176
     0
 90
       50
176
     0
 40
0.0
176
     0
 40
1.0
176
     0
 90
        0
176
     0
 62
    18
420
        0
176
     0
 90
       50
176
     0
 90
        3
176
     0
 62
     5
420
      255
176
     0
290
     0
176
     0
 90
       50
176
     0
 90
       50
176
     0
 90
       50
176
     0
290
     0
176
     0
 90
       50
176
     0
 62
   256
176
     0
 40
1.0
176
     0
 90
        2
176
     0
  1
strokes_ogs.tif
176
     0
290
     0
176
     0
 40
1.0
176
     0
 40
1.0
176
     0
  0
VISUALSTYLE
  5
39
102
{ACAD_REACTORS
330
2A
102
}
330
2A
100
AcDbVisualStyle
  2
Facepattern
 70
    15
177
     3
291
     1
 70
    58
 90
        2
176
     1
 90
        2
176
     1
 90
        0
176
     1
 90
        0
176
     1
 40
-0.6
176
     1
 40
-30.0
176
     1
 62
     7
420
 16777215
176
     1
 90
        1
176
     1
 90
        4
176
     1
 62
     7
176
     1
 62
   257
176
     1
 90
        1
176
     1
 90
        1
176
     1
 40
1.0
176
     1
 90
        8
176
     1
 62
     7
176
     1
 40
1.0
176
     1
 90
        1
176
     1
 90
        6
176
     1
 90
        2
176
     1
 62
     7
176
     1
 90
        5
176
     1
 90
        0
176
     1
 90
        0
176
     1
290
     0
176
     1
 90
        1
176
     1
 40
0.0
176
     1
 90
        0
176
     1
290
     0
176
     1
290
     1
176
     1
290
     1
176
     1
290
     0
176
     1
290
     0
176
     1
290
     0
176
     1
290
     0
176
     1
290
     0
176
     1
290
     0
176
     1
 90
       50
176
     1
 40
0.0
176
     1
 40
1.0
176
     1
 90
        0
176
     1
 62
    18
420
        0
176
     1
 90
       50
176
     1
 90
        3
176
     1
 62
     5
420
      255
176
     1
290
     0
176
     1
 90
       50
176
     1
 90
       50
176
     1
 90
       50
176
     1
290
     0
176
     1
 90
       50
176
     1
 62
   256
176
     0
 40
1.0
176
     0
 90
        2
176
     1
  1
strokes_ogs.tif
176
     1
290
     0
176
     1
 40
1.0
176
     1
 40
1.0
176
     1
  0
VISUALSTYLE
  5
2B
102
{ACAD_REACTORS
330
2A
102
}
330
2A
100
AcDbVisualStyle
  2
Flat
 70
     0
177
     3
291
     1
 70
    58
 90
        2
176
     1
 90
        1
176
     1
 90
        1
176
     1
 90
        2
176
     1
 40
-0.6
176
     1
 40
30.0
176
     1
 62
     7
420
 16777215
176
     1
 90
        0
176
     1
 90
        4
176
     1
 62
     7
176
     1
 62
   257
176
     1
 90
        1
176
     1
 90
        1
176
     1
 40
1.0
176
     1
 90
        8
176
     1
 62
     7
176
     1
 40
1.0
176
     1
 90
        1
176
     1
 90
        6
176
     1
 90
        2
176
     1
 62
     7
176
     1
 90
        5
176
     1
 90
        0
176
     1
 90
        0
176
     1
290
     0
176
     1
 90
       13
176
     1
 40
0.0
176
     1
 90
        0
176
     1
290
     0
176
     1
290
     1
176
     1
290
     1
176
     1
290
     0
176
     1
290
     0
176
     1
290
     0
176
     1
290
     0
176
     1
290
     0
176
     1
290
     0
176
     1
 90
       50
176
     1
 40
0.0
176
     1
 40
1.0
176
     1
 90
        0
176
     1
 62
    18
420
        0
176
     1
 90
       50
176
     1
 90
        3
176
     1
 62
     5
420
      255
176
     1
290
     0
176
     1
 90
       50
176
     1
 90
       50
176
     1
 90
       50
176
     1
290
     0
176
     1
 90
       50
176
     1
 62
   256
176
     0
 40
1.0
176
     0
 90
        2
176
     1
  1
strokes_ogs.tif
176
     1
290
     0
176
     1
 40
1.0
176
     1
 40
1.0
176
     1
  0
VISUALSTYLE
  5
2C
102
{ACAD_REACTORS
330
2A
102
}
330
2A
100
AcDbVisualStyle
  2
FlatWithEdges
 70
     1
177
     3
291
     1
 70
    58
 90
        2
176
     1
 90
        1
176
     1
 90
        1
176
     1
 90
        2
176
     1
 40
-0.6
176
     1
 40
30.0
176
     1
 62
     7
420
 16777215
176
     1
 90
        1
176
     1
 90
        4
176
     1
 62
     7
176
     1
 62
   257
176
     1
 90
        1
176
     1
 90
        1
176
     1
 40
1.0
176
     1
 90
        0
176
     1
 62
   257
176
     1
 40
1.0
176
     1
 90
        1
176
     1
 90
        6
176
     1
 90
        2
176
     1
 62
     7
176
     1
 90
        5
176
     1
 90
        0
176
     1
 90
        0
176
     1
290
     0
176
     1
 90
       13
176
     1
 40
0.0
176
     1
 90
        0
176
     1
290
     0
176
     1
290
     1
176
     1
290
     1
176
     1
290
     0
176
     1
290
     0
176
     1
290
     0
176
     1
290
     0
176
     1
290
     0
176
     1
290
     0
176
     1
 90
       50
176
     1
 40
0.0
176
     1
 40
1.0
176
     1
 90
        0
176
     1
 62
    18
420
        0
176
     1
 90
       50
176
     1
 90
        3
176
     1
 62
     5
420
      255
176
     1
290
     0
176
     1
 90
       50
176
     1
 90
       50
176
     1
 90
       50
176
     1
290
     0
176
     1
 90
       50
176
     1
 62
   256
176
     0
 40
1.0
176
     0
 90
        2
176
     1
  1
strokes_ogs.tif
176
     1
290
     0
176
     1
 40
1.0
176
     1
 40
1.0
176
     1
  0
VISUALSTYLE
  5
2D
102
{ACAD_REACTORS
330
2A
102
}
330
2A
100
AcDbVisualStyle
  2
Gouraud
 70
     2
177
     3
291
     1
 70
    58
 90
        2
176
     1
 90
        2
176
     1
 90
        1
176
     1
 90
        2
176
     1
 40
-0.6
176
     1
 40
30.0
176
     1
 62
     7
420
 16777215
176
     1
 90
        0
176
     1
 90
        4
176
     1
 62
     7
176
     1
 62
   257
176
     1
 90
        1
176
     1
 90
        1
176
     1
 40
1.0
176
     1
 90
        0
176
     1
 62
     7
176
     1
 40
1.0
176
     1
 90
        1
176
     1
 90
        6
176
     1
 90
        2
176
     1
 62
     7
176
     1
 90
        5
176
     1
 90
        0
176
     1
 90
        0
176
     1
290
     0
176
     1
 90
       13
176
     1
 40
0.0
176
     1
 90
        0
176
     1
290
     0
176
     1
290
     1
176
     1
290
     1
176
     1
290
     0
176
     1
290
     0
176
     1
290
     0
176
     1
290
     0
176
     1
290
     0
176
     1
290
     0
176
     1
 90
       50
176
     1
 40
0.0
176
     1
 40
1.0
176
     1
 90
        0
176
     1
 62
    18
420
        0
176
     1
 90
       50
176
     1
 90
        3
176
     1
 62
     5
420
      255
176
     1
290
     0
176
     1
 90
       50
176
     1
 90
       50
176
     1
 90
       50
176
     1
290
     0
176
     1
 90
       50
176
     1
 62
   256
176
     0
 40
1.0
176
     0
 90
        2
176
     1
  1
strokes_ogs.tif
176
     1
290
     0
176
     1
 40
1.0
176
     1
 40
1.0
176
     1
  0
VISUALSTYLE
  5
2E
102
{ACAD_REACTORS
330
2A
102
}
330
2A
100
AcDbVisualStyle
  2
GouraudWithEdges
 70
     3
177
     3
291
     1
 70
    58
 90
        2
176
     1
 90
        2
176
     1
 90
        1
176
     1
 90
        2
176
     1
 40
-0.6
176
     1
 40
30.0
176
     1
 62
     7
420
 16777215
176
     1
 90
        1
176
     1
 90
        4
176
     1
 62
     7
176
     1
 62
   257
176
     1
 90
        1
176
     1
 90
        1
176
     1
 40
1.0
176
     1
 90
        0
176
     1
 62
   257
176
     1
 40
1.0
176
     1
 90
        1
176
     1
 90
        6
176
     1
 90
        2
176
     1
 62
     7
176
     1
 90
        5
176
     1
 90
        0
176
     1
 90
        0
176
     1
290
     0
176
     1
 90
       13
176
     1
 40
0.0
176
     1
 90
        0
176
     1
290
     0
176
     1
290
     1
176
     1
290
     1
176
     1
290
     0
176
     1
290
     0
176
     1
290
     0
176
     1
290
     0
176
     1
290
     0
176
     1
290
     0
176
     1
 90
       50
176
     1
 40
0.0
176
     1
 40
1.0
176
     1
 90
        0
176
     1
 62
    18
420
        0
176
     1
 90
       50
176
     1
 90
        3
176
     1
 62
     5
420
      255
176
     1
290
     0
176
     1
 90
       50
176
     1
 90
       50
176
     1
 90
       50
176
     1
290
     0
176
     1
 90
       50
176
     1
 62
   256
176
     0
 40
1.0
176
     0
 90
        2
176
     1
  1
strokes_ogs.tif
176
     1
290
     0
176
     1
 40
1.0
176
     1
 40
1.0
176
     1
  0
VISUALSTYLE
  5
77
102
{ACAD_REACTORS
330
2A
102
}
330
2A
100
AcDbVisualStyle
  2
Hidden
 70
     6
177
     3
291
     0
 70
    58
 90
        1
176
     1
 90
        2
176
     1
 90
        2
176
     1
 90
        0
176
     1
 40
0.6
176
     1
 40
30.0
176
     1
 62
     7
420
 16777215
176
     1
 90
        2
176
     1
 90
        2
176
     1
 62
     7
176
     1
 62
   257
176
     1
 90
        2
176
     1
 90
        1
176
     1
 40
40.0
176
     1
 90
        0
176
     1
 62
   257
176
     1
 40
1.0
176
     1
 90
        1
176
     1
 90
        6
176
     1
 90
        2
176
     1
 62
     7
176
     1
 90
        3
176
     1
 90
        0
176
     1
 90
        0
176
     1
290
     0
176
     1
 90
        1
176
     1
 40
0.0
176
     1
 90
        0
176
     1
290
     0
176
     1
290
     1
176
     1
290
     1
176
     1
290
     0
176
     1
290
     0
176
     1
290
     0
176
     1
290
     0
176
     1
290
     0
176
     1
290
     0
176
     1
 90
       50
176
     1
 40
0.0
176
     1
 40
1.0
176
     1
 90
        0
176
     1
 62
    18
420
        0
176
     1
 90
       50
176
     1
 90
        3
176
     1
 62
     5
420
      255
176
     1
290
     0
176
     1
 90
       50
176
     1
 90
       50
176
     1
 90
       50
176
     1
290
     0
176
     1
 90
       50
176
     1
 62
   256
176
     0
 40
1.0
176
     0
 90
        2
176
     1
  1
strokes_ogs.tif
176
     1
290
     0
176
     1
 40
1.0
176
     1
 40
1.0
176
     1
  0
VISUALSTYLE
  5
78
102
{ACAD_REACTORS
330
2A
102
}
330
2A
100
AcDbVisualStyle
  2
JitterOff
 70
    20
177
     3
291
     1
 70
    58
 90
        2
176
     0
 90
        2
176
     0
 90
        0
176
     0
 90
        0
176
     0
 40
0.6
176
     0
 40
30.0
176
     0
 62
     7
420
 16777215
176
     0
 90
        1
176
     0
 90
        4
176
     0
 62
     7
176
     0
 62
   257
176
     0
 90
        1
176
     0
 90
        1
176
     0
 40
1.0
176
     0
 90
       10
176
     2
 62
     7
176
     0
 40
1.0
176
     0
 90
        1
176
     0
 90
        6
176
     0
 90
        2
176
     0
 62
     7
176
     0
 90
        5
176
     0
 90
        0
176
     0
 90
        0
176
     0
290
     0
176
     0
 90
        1
176
     0
 40
0.0
176
     0
 90
        0
176
     0
290
     0
176
     0
290
     1
176
     0
290
     1
176
     0
290
     0
176
     0
290
     0
176
     0
290
     0
176
     0
290
     0
176
     0
290
     0
176
     0
290
     0
176
     0
 90
       50
176
     0
 40
0.0
176
     0
 40
1.0
176
     0
 90
        0
176
     0
 62
    18
420
        0
176
     0
 90
       50
176
     0
 90
        3
176
     0
 62
     5
420
      255
176
     0
290
     0
176
     0
 90
       50
176
     0
 90
       50
176
     0
 90
       50
176
     0
290
     0
176
     0
 90
       50
176
     0
 62
   256
176
     0
 40
1.0
176
     0
 90
        2
176
     0
  1
strokes_ogs.tif
176
     0
290
     0
176
     0
 40
1.0
176
     0
 40
1.0
176
     0
  0
VISUALSTYLE
  5
38
102
{ACAD_REACTORS
330
2A
102
}
330
2A
100
AcDbVisualStyle
  2
Linepattern
 70
    14
177
     3
291
     1
 70
    58
 90
        2
176
     1
 90
        2
176
     1
 90
        0
176
     1
 90
        0
176
     1
 40
-0.6
176
     1
 40
-30.0
176
     1
 62
     7
420
 16777215
176
     1
 90
        1
176
     1
 90
        4
176
     1
 62
     7
176
     1
 62
   257
176
     1
 90
        7
176
     1
 90
        7
176
     1
 40
1.0
176
     1
 90
        8
176
     1
 62
     7
176
     1
 40
1.0
176
     1
 90
        1
176
     1
 90
        6
176
     1
 90
        2
176
     1
 62
     7
176
     1
 90
        5
176
     1
 90
        0
176
     1
 90
        0
176
     1
290
     0
176
     1
 90
        1
176
     1
 40
0.0
176
     1
 90
        0
176
     1
290
     0
176
     1
290
     1
176
     1
290
     1
176
     1
290
     0
176
     1
290
     0
176
     1
290
     0
176
     1
290
     0
176
     1
290
     0
176
     1
290
     0
176
     1
 90
       50
176
     1
 40
0.0
176
     1
 40
1.0
176
     1
 90
        0
176
     1
 62
    18
420
        0
176
     1
 90
       50
176
     1
 90
        3
176
     1
 62
     5
420
      255
176
     1
290
     0
176
     1
 90
       50
176
     1
 90
       50
176
     1
 90
       50
176
     1
290
     0
176
     1
 90
       50
176
     1
 62
   256
176
     0
 40
1.0
176
     0
 90
        2
176
     1
  1
strokes_ogs.tif
176
     1
290
     0
176
     1
 40
1.0
176
     1
 40
1.0
176
     1
  0
VISUALSTYLE
  5
79
102
{ACAD_REACTORS
330
2A
102
}
330
2A
100
AcDbVisualStyle
  2
OverhangOff
 70
    21
177
     3
291
     1
 70
    58
 90
        2
176
     0
 90
        2
176
     0
 90
        0
176
     0
 90
        0
176
     0
 40
0.6
176
     0
 40
30.0
176
     0
 62
     7
420
 16777215
176
     0
 90
        1
176
     0
 90
        4
176
     0
 62
     7
176
     0
 62
   257
176
     0
 90
        1
176
     0
 90
        1
176
     0
 40
1.0
176
     0
 90
        9
176
     2
 62
     7
176
     0
 40
1.0
176
     0
 90
        1
176
     0
 90
        6
176
     0
 90
        2
176
     0
 62
     7
176
     0
 90
        5
176
     0
 90
        0
176
     0
 90
        0
176
     0
290
     0
176
     0
 90
        1
176
     0
 40
0.0
176
     0
 90
        0
176
     0
290
     0
176
     0
290
     1
176
     0
290
     1
176
     0
290
     0
176
     0
290
     0
176
     0
290
     0
176
     0
290
     0
176
     0
290
     0
176
     0
290
     0
176
     0
 90
       50
176
     0
 40
0.0
176
     0
 40
1.0
176
     0
 90
        0
176
     0
 62
    18
420
        0
176
     0
 90
       50
176
     0
 90
        3
176
     0
 62
     5
420
      255
176
     0
290
     0
176
     0
 90
       50
176
     0
 90
       50
176
     0
 90
       50
176
     0
290
     0
176
     0
 90
       50
176
     0
 62
   256
176
     0
 40
1.0
176
     0
 90
        2
176
     0
  1
strokes_ogs.tif
176
     0
290
     0
176
     0
 40
1.0
176
     0
 40
1.0
176
     0
  0
VISUALSTYLE
  5
33
102
{ACAD_REACTORS
330
2A
102
}
330
2A
100
AcDbVisualStyle
  2
Realistic
 70
     8
177
     3
291
     0
 70
    58
 90
        2
176
     1
 90
        2
176
     1
 90
        0
176
     1
 90
        0
176
     1
 40
-0.6
176
     1
 40
-30.0
176
     1
 62
     7
420
 16777215
176
     1
 90
        1
176
     1
 90
        0
176
     1
 62
     7
176
     1
 62
   257
176
     1
 90
        1
176
     1
 90
        1
176
     1
 40
1.0
176
     1
 90
        8
176
     1
 62
     8
420
  7895160
176
     1
 40
1.0
176
     1
 90
        1
176
     1
 90
        6
176
     1
 90
        2
176
     1
 62
     7
176
     1
 90
        5
176
     1
 90
        0
176
     1
 90
        0
176
     1
290
     0
176
     1
 90
       13
176
     1
 40
0.0
176
     1
 90
        0
176
     1
290
     0
176
     1
290
     1
176
     1
290
     1
176
     1
290
     0
176
     1
290
     0
176
     1
290
     0
176
     1
290
     0
176
     1
290
     0
176
     1
290
     0
176
     1
 90
       50
176
     1
 40
0.0
176
     1
 40
1.0
176
     1
 90
        0
176
     1
 62
    18
420
        0
176
     1
 90
       50
176
     1
 90
        3
176
     1
 62
     5
420
      255
176
     1
290
     0
176
     1
 90
       50
176
     1
 90
       50
176
     1
 90
       50
176
     1
290
     0
176
     1
 90
       50
176
     1
 62
   256
176
     0
 40
1.0
176
     0
 90
        2
176
     1
  1
strokes_ogs.tif
176
     1
290
     0
176
     1
 40
1.0
176
     1
 40
1.0
176
     1
  0
VISUALSTYLE
  5
7F
102
{ACAD_REACTORS
330
2A
102
}
330
2A
100
AcDbVisualStyle
  2
Shaded
 70
    27
177
     3
291
     0
 70
    58
 90
        2
176
     1
 90
        2
176
     1
 90
        1
176
     1
 90
        2
176
     1
 40
0.6
176
     1
 40
30.0
176
     1
 62
     7
420
 16777215
176
     1
 90
        0
176
     1
 90
        4
176
     1
 62
     7
176
     1
 62
   257
176
     1
 90
        1
176
     1
 90
        1
176
     1
 40
1.0
176
     1
 90
        8
176
     1
 62
   257
176
     1
 40
1.0
176
     1
 90
        1
176
     1
 90
        6
176
     1
 90
        2
176
     1
 62
     8
420
  7895160
176
     1
 90
        3
176
     1
 90
        0
176
     1
 90
        0
176
     1
290
     0
176
     1
 90
        5
176
     1
 40
0.0
176
     1
 90
        0
176
     1
290
     0
176
     1
290
     1
176
     1
290
     1
176
     1
290
     0
176
     1
290
     0
176
     1
290
     0
176
     1
290
     0
176
     1
290
     0
176
     1
290
     0
176
     1
 90
       50
176
     1
 40
0.0
176
     1
 40
1.0
176
     1
 90
        0
176
     1
 62
    18
420
        0
176
     1
 90
       50
176
     1
 90
        3
176
     1
 62
     5
420
      255
176
     1
290
     0
176
     1
 90
       50
176
     1
 90
       50
176
     1
 90
       50
176
     1
290
     0
176
     1
 90
       50
176
     1
 62
   256
176
     0
 40
1.0
176
     0
 90
        2
176
     1
  1
strokes_ogs.tif
176
     1
290
     0
176
     1
 40
1.0
176
     1
 40
1.0
176
     1
  0
VISUALSTYLE
  5
7E
102
{ACAD_REACTORS
330
2A
102
}
330
2A
100
AcDbVisualStyle
  2
Shaded with edges
 70
    26
177
     3
291
     0
 70
    58
 90
        2
176
     1
 90
        2
176
     1
 90
        1
176
     1
 90
        2
176
     1
 40
0.6
176
     1
 40
30.0
176
     1
 62
     7
420
 16777215
176
     1
 90
        1
176
     1
 90
       10
176
     1
 62
     7
176
     1
 62
   257
176
     1
 90
        2
176
     1
 90
        1
176
     1
 40
1.0
176
     1
 90
        8
176
     1
 62
   257
176
     1
 40
1.0
176
     1
 90
        1
176
     1
 90
        6
176
     1
 90
        2
176
     1
 62
     7
176
     1
 90
        3
176
     1
 90
        0
176
     1
 90
        0
176
     1
290
     0
176
     1
 90
        5
176
     1
 40
0.0
176
     1
 90
        0
176
     1
290
     0
176
     1
290
     1
176
     1
290
     1
176
     1
290
     0
176
     1
290
     0
176
     1
290
     0
176
     1
290
     0
176
     1
290
     0
176
     1
290
     0
176
     1
 90
       50
176
     1
 40
0.0
176
     1
 40
1.0
176
     1
 90
        0
176
     1
 62
    18
420
        0
176
     1
 90
       50
176
     1
 90
        3
176
     1
 62
     5
420
      255
176
     1
290
     0
176
     1
 90
       50
176
     1
 90
       50
176
     1
 90
       50
176
     1
290
     0
176
     1
 90
       50
176
     1
 62
   256
176
     0
 40
1.0
176
     0
 90
        2
176
     1
  1
strokes_ogs.tif
176
     1
290
     0
176
     1
 40
1.0
176
     1
 40
1.0
176
     1
  0
VISUALSTYLE
  5
7B
102
{ACAD_REACTORS
330
2A
102
}
330
2A
100
AcDbVisualStyle
  2
Shades of Gray
 70
    23
177
     3
291
     0
 70
    58
 90
        2
176
     1
 90
        2
176
     1
 90
        3
176
     1
 90
        0
176
     1
 40
0.6
176
     1
 40
30.0
176
     1
 62
     7
420
 16777215
176
     1
 90
        2
176
     1
 90
        2
176
     1
 62
     7
176
     1
 62
     7
176
     1
 90
        1
176
     1
 90
        1
176
     1
 40
40.0
176
     1
 90
        8
176
     1
 62
     7
176
     1
 40
1.0
176
     1
 90
        1
176
     1
 90
        6
176
     1
 90
        2
176
     1
 62
     7
176
     1
 90
        3
176
     1
 90
        0
176
     1
 90
        0
176
     1
290
     0
176
     1
 90
        1
176
     1
 40
0.0
176
     1
 90
        0
176
     1
290
     0
176
     1
290
     1
176
     1
290
     1
176
     1
290
     0
176
     1
290
     0
176
     1
290
     0
176
     1
290
     0
176
     1
290
     0
176
     1
290
     0
176
     1
 90
       50
176
     1
 40
0.0
176
     1
 40
1.0
176
     1
 90
        0
176
     1
 62
    18
420
        0
176
     1
 90
       50
176
     1
 90
        3
176
     1
 62
     5
420
      255
176
     1
290
     0
176
     1
 90
       50
176
     1
 90
       50
176
     1
 90
       50
176
     1
290
     0
176
     1
 90
       50
176
     1
 62
   256
176
     0
 40
1.0
176
     0
 90
        2
176
     1
  1
strokes_ogs.tif
176
     1
290
     0
176
     1
 40
1.0
176
     1
 40
1.0
176
     1
  0
VISUALSTYLE
  5
7C
102
{ACAD_REACTORS
330
2A
102
}
330
2A
100
AcDbVisualStyle
  2
Sketchy
 70
    24
177
     3
291
     0
 70
    58
 90
        1
176
     1
 90
        2
176
     1
 90
        2
176
     1
 90
        0
176
     1
 40
0.6
176
     1
 40
30.0
176
     1
 62
     7
420
 16777215
176
     1
 90
        2
176
     1
 90
        2
176
     1
 62
     7
176
     1
 62
     7
176
     1
 90
        1
176
     1
 90
        1
176
     1
 40
40.0
176
     1
 90
       11
176
     1
 62
     7
176
     1
 40
1.0
176
     1
 90
        1
176
     1
 90
        6
176
     1
 90
        2
176
     1
 62
     7
176
     1
 90
        6
176
     1
 90
        0
176
     1
 90
        0
176
     1
290
     0
176
     1
 90
        1
176
     1
 40
0.0
176
     1
 90
        0
176
     1
290
     0
176
     1
290
     1
176
     1
290
     1
176
     1
290
     0
176
     1
290
     0
176
     1
290
     0
176
     1
290
     0
176
     1
290
     0
176
     1
290
     0
176
     1
 90
       50
176
     1
 40
0.0
176
     1
 40
1.0
176
     1
 90
        0
176
     1
 62
    18
420
        0
176
     1
 90
       50
176
     1
 90
        3
176
     1
 62
     5
420
      255
176
     1
290
     0
176
     1
 90
       50
176
     1
 90
       50
176
     1
 90
       50
176
     1
290
     0
176
     1
 90
       50
176
     1
 62
   256
176
     0
 40
1.0
176
     0
 90
        2
176
     1
  1
strokes_ogs.tif
176
     1
290
     0
176
     1
 40
1.0
176
     1
 40
1.0
176
     1
  0
VISUALSTYLE
  5
37
102
{ACAD_REACTORS
330
2A
102
}
330
2A
100
AcDbVisualStyle
  2
Thicken
 70
    13
177
     3
291
     1
 70
    58
 90
        2
176
     1
 90
        2
176
     1
 90
        0
176
     1
 90
        0
176
     1
 40
-0.6
176
     1
 40
-30.0
176
     1
 62
     7
420
 16777215
176
     1
 90
        1
176
     1
 90
        4
176
     1
 62
     7
176
     1
 62
   257
176
     1
 90
        1
176
     1
 90
        1
176
     1
 40
1.0
176
     1
 90
       12
176
     1
 62
     7
176
     1
 40
1.0
176
     1
 90
        1
176
     1
 90
        6
176
     1
 90
        2
176
     1
 62
     7
176
     1
 90
        5
176
     1
 90
        0
176
     1
 90
        0
176
     1
290
     0
176
     1
 90
        1
176
     1
 40
0.0
176
     1
 90
        0
176
     1
290
     0
176
     1
290
     1
176
     1
290
     1
176
     1
290
     0
176
     1
290
     0
176
     1
290
     0
176
     1
290
     0
176
     1
290
     0
176
     1
290
     0
176
     1
 90
       50
176
     1
 40
0.0
176
     1
 40
1.0
176
     1
 90
        0
176
     1
 62
    18
420
        0
176
     1
 90
       50
176
     1
 90
        3
176
     1
 62
     5
420
      255
176
     1
290
     0
176
     1
 90
       50
176
     1
 90
       50
176
     1
 90
       50
176
     1
290
     0
176
     1
 90
       50
176
     1
 62
   256
176
     0
 40
1.0
176
     0
 90
        2
176
     1
  1
strokes_ogs.tif
176
     1
290
     0
176
     1
 40
1.0
176
     1
 40
1.0
176
     1
  0
VISUALSTYLE
  5
76
102
{ACAD_REACTORS
330
2A
102
}
330
2A
100
AcDbVisualStyle
  2
Wireframe
 70
     5
177
     3
291
     0
 70
    58
 90
        0
176
     1
 90
        2
176
     1
 90
        0
176
     1
 90
        0
176
     1
 40
0.6
176
     1
 40
30.0
176
     1
 62
     7
420
 16777215
176
     1
 90
        1
176
     1
 90
        4
176
     1
 62
     7
176
     1
 62
   257
176
     1
 90
        1
176
     1
 90
        1
176
     1
 40
1.0
176
     1
 90
        0
176
     1
 62
   257
176
     1
 40
1.0
176
     1
 90
        1
176
     1
 90
        6
176
     1
 90
        2
176
     1
 62
     7
176
     1
 90
        3
176
     1
 90
        0
176
     1
 90
        0
176
     1
290
     0
176
     1
 90
        1
176
     1
 40
0.0
176
     1
 90
        0
176
     1
290
     0
176
     1
290
     1
176
     1
290
     1
176
     1
290
     0
176
     1
290
     0
176
     1
290
     0
176
     1
290
     0
176
     1
290
     0
176
     1
290
     0
176
     1
 90
       50
176
     1
 40
0.0
176
     1
 40
1.0
176
     1
 90
        0
176
     1
 62
    18
420
        0
176
     1
 90
       50
176
     1
 90
        3
176
     1
 62
     5
420
      255
176
     1
290
     0
176
     1
 90
       50
176
     1
 90
       50
176
     1
 90
       50
176
     1
290
     0
176
     1
 90
       50
176
     1
 62
   256
176
     0
 40
1.0
176
     0
 90
        2
176
     1
  1
strokes_ogs.tif
176
     1
290
     0
176
     1
 40
1.0
176
     1
 40
1.0
176
     1
  0
VISUALSTYLE
  5
7D
102
{ACAD_REACTORS
330
2A
102
}
330
2A
100
AcDbVisualStyle
  2
X-Ray
 70
    25
177
     3
291
     0
 70
    58
 90
        2
176
     1
 90
        2
176
     1
 90
        1
176
     1
 90
        1
176
     1
 40
0.5
176
     1
 40
30.0
176
     1
 62
     7
420
 16777215
176
     1
 90
        1
176
     1
 90
        0
176
     1
 62
     7
176
     1
 62
   257
176
     1
 90
        1
176
     1
 90
        1
176
     1
 40
1.0
176
     1
 90
        8
176
     1
 62
     7
176
     1
 40
1.0
176
     1
 90
        1
176
     1
 90
        6
176
     1
 90
        2
176
     1
 62
     7
176
     1
 90
        3
176
     1
 90
        0
176
     1
 90
        0
176
     1
290
     0
176
     1
 90
       13
176
     1
 40
0.0
176
     1
 90
        0
176
     1
290
     0
176
     1
290
     1
176
     1
290
     1
176
     1
290
     0
176
     1
290
     0
176
     1
290
     0
176
     1
290
     0
176
     1
290
     0
176
     1
290
     0
176
     1
 90
       50
176
     1
 40
0.0
176
     1
 40
1.0
176
     1
 90
        0
176
     1
 62
    18
420
        0
176
     1
 90
       50
176
     1
 90
        3
176
     1
 62
     5
420
      255
176
     1
290
     0
176
     1
 90
       50
176
     1
 90
       50
176
     1
 90
       50
176
     1
290
     0
176
     1
 90
       50
176
     1
 62
   256
176
     0
 40
1.0
176
     0
 90
        2
176
     1
  1
strokes_ogs.tif
176
     1
290
     0
176
     1
 40
1.0
176
     1
 40
1.0
176
     1
  0
DICTIONARYVAR
  5
62
102
{ACAD_REACTORS
330
3D
102
}
330
3D
100
DictionaryVariables
280
     0
  1
1:1
  0
DICTIONARYVAR
  5
BB
102
{ACAD_REACTORS
330
3D
102
}
330
3D
100
DictionaryVariables
280
     0
  1
Standard
  0
DICTIONARYVAR
  5
3E
102
{ACAD_REACTORS
330
3D
102
}
330
3D
100
DictionaryVariables
280
     0
  1
Standard
  0
DICTIONARYVAR
  5
6F
102
{ACAD_REACTORS
330
3D
102
}
330
3D
100
DictionaryVariables
280
     0
  1
0
  0
DICTIONARYVAR
  5
70
102
{ACAD_REACTORS
330
3D
102
}
330
3D
100
DictionaryVariables
280
     0
  1
0
  0
DICTIONARY
  5
44A
330
3C
100
AcDbDictionary
280
     1
281
     1
  3
ACAD_ROUNDTRIP_2008_TABLESTYLE_CELLSTYLEMAP
360
44B
  0
CELLSTYLEMAP
  5
44B
102
{ACAD_REACTORS
330
44A
102
}
330
44A
100
AcDbCellStyleMap
 90
        3
300
CELLSTYLE
  1
TABLEFORMAT_BEGIN
 90
        5
170
     1
 91
        0
 92
    32768
 62
   257
 93
        1
300
CONTENTFORMAT
  1
CONTENTFORMAT_BEGIN
 90
        0
 91
        0
 92
      512
 93
        0
300

 40
0.0
140
1.0
 94
        5
 62
     0
340
11
144
6.0
309
CONTENTFORMAT_END
171
     1
301
MARGIN
  1
CELLMARGIN_BEGIN
 40
1.5
 40
1.5
 40
1.5
 40
1.5
 40
0.18
 40
0.18
309
CELLMARGIN_END
 94
        6
 95
        1
302
GRIDFORMAT
  1
GRIDFORMAT_BEGIN
 90
        0
 91
        1
 62
     0
 92
       -2
340
0
 93
        0
 40
0.045
309
GRIDFORMAT_END
 95
        2
302
GRIDFORMAT
  1
GRIDFORMAT_BEGIN
 90
        0
 91
        1
 62
     0
 92
       -2
340
0
 93
        0
 40
0.045
309
GRIDFORMAT_END
 95
        4
302
GRIDFORMAT
  1
GRIDFORMAT_BEGIN
 90
        0
 91
        1
 62
     0
 92
       -2
340
0
 93
        0
 40
0.045
309
GRIDFORMAT_END
 95
        8
302
GRIDFORMAT
  1
GRIDFORMAT_BEGIN
 90
        0
 91
        1
 62
     0
 92
       -2
340
0
 93
        0
 40
0.045
309
GRIDFORMAT_END
 95
       16
302
GRIDFORMAT
  1
GRIDFORMAT_BEGIN
 90
        0
 91
        1
 62
     0
 92
       -2
340
0
 93
        0
 40
0.045
309
GRIDFORMAT_END
 95
       32
302
GRIDFORMAT
  1
GRIDFORMAT_BEGIN
 90
        0
 91
        1
 62
     0
 92
       -2
340
0
 93
        0
 40
0.045
309
GRIDFORMAT_END
309
TABLEFORMAT_END
  1
CELLSTYLE_BEGIN
 90
        1
 91
        1
300
_TITLE
309
CELLSTYLE_END
300
CELLSTYLE
  1
TABLEFORMAT_BEGIN
 90
        5
170
     1
 91
        0
 92
        0
 62
   257
 93
        1
300
CONTENTFORMAT
  1
CONTENTFORMAT_BEGIN
 90
        0
 91
        0
 92
      512
 93
        0
300

 40
0.0
140
1.0
 94
        5
 62
     0
340
11
144
4.5
309
CONTENTFORMAT_END
171
     1
301
MARGIN
  1
CELLMARGIN_BEGIN
 40
1.5
 40
1.5
 40
1.5
 40
1.5
 40
0.18
 40
0.18
309
CELLMARGIN_END
 94
        6
 95
        1
302
GRIDFORMAT
  1
GRIDFORMAT_BEGIN
 90
        0
 91
        1
 62
     0
 92
       -2
340
0
 93
        0
 40
0.045
309
GRIDFORMAT_END
 95
        2
302
GRIDFORMAT
  1
GRIDFORMAT_BEGIN
 90
        0
 91
        1
 62
     0
 92
       -2
340
0
 93
        0
 40
0.045
309
GRIDFORMAT_END
 95
        4
302
GRIDFORMAT
  1
GRIDFORMAT_BEGIN
 90
        0
 91
        1
 62
     0
 92
       -2
340
0
 93
        0
 40
0.045
309
GRIDFORMAT_END
 95
        8
302
GRIDFORMAT
  1
GRIDFORMAT_BEGIN
 90
        0
 91
        1
 62
     0
 92
       -2
340
0
 93
        0
 40
0.045
309
GRIDFORMAT_END
 95
       16
302
GRIDFORMAT
  1
GRIDFORMAT_BEGIN
 90
        0
 91
        1
 62
     0
 92
       -2
340
0
 93
        0
 40
0.045
309
GRIDFORMAT_END
 95
       32
302
GRIDFORMAT
  1
GRIDFORMAT_BEGIN
 90
        0
 91
        1
 62
     0
 92
       -2
340
0
 93
        0
 40
0.045
309
GRIDFORMAT_END
309
TABLEFORMAT_END
  1
CELLSTYLE_BEGIN
 90
        2
 91
        1
300
_HEADER
309
CELLSTYLE_END
300
CELLSTYLE
  1
TABLEFORMAT_BEGIN
 90
        5
170
     1
 91
        0
 92
        0
 62
   257
 93
        1
300
CONTENTFORMAT
  1
CONTENTFORMAT_BEGIN
 90
        0
 91
        0
 92
      512
 93
        0
300

 40
0.0
140
1.0
 94
        2
 62
     0
340
11
144
4.5
309
CONTENTFORMAT_END
171
     1
301
MARGIN
  1
CELLMARGIN_BEGIN
 40
1.5
 40
1.5
 40
1.5
 40
1.5
 40
0.18
 40
0.18
309
CELLMARGIN_END
 94
        6
 95
        1
302
GRIDFORMAT
  1
GRIDFORMAT_BEGIN
 90
        0
 91
        1
 62
     0
 92
       -2
340
0
 93
        0
 40
0.045
309
GRIDFORMAT_END
 95
        2
302
GRIDFORMAT
  1
GRIDFORMAT_BEGIN
 90
        0
 91
        1
 62
     0
 92
       -2
340
0
 93
        0
 40
0.045
309
GRIDFORMAT_END
 95
        4
302
GRIDFORMAT
  1
GRIDFORMAT_BEGIN
 90
        0
 91
        1
 62
     0
 92
       -2
340
0
 93
        0
 40
0.045
309
GRIDFORMAT_END
 95
        8
302
GRIDFORMAT
  1
GRIDFORMAT_BEGIN
 90
        0
 91
        1
 62
     0
 92
       -2
340
0
 93
        0
 40
0.045
309
GRIDFORMAT_END
 95
       16
302
GRIDFORMAT
  1
GRIDFORMAT_BEGIN
 90
        0
 91
        1
 62
     0
 92
       -2
340
0
 93
        0
 40
0.045
309
GRIDFORMAT_END
 95
       32
302
GRIDFORMAT
  1
GRIDFORMAT_BEGIN
 90
        0
 91
        1
 62
     0
 92
       -2
340
0
 93
        0
 40
0.045
309
GRIDFORMAT_END
309
TABLEFORMAT_END
  1
CELLSTYLE_BEGIN
 90
        3
 91
        2
300
_DATA
309
CELLSTYLE_END
  0
ENDSEC
  0
EOF
